osu file format v14

[General]
AudioFilename: audio.mp3
AudioLeadIn: 0
PreviewTime: 46122
Countdown: 1
SampleSet: Normal
StackLeniency: 0.7
Mode: 0
LetterboxInBreaks: 0
WidescreenStoryboard: 0

[Editor]
DistanceSpacing: 1
BeatDivisor: 4
GridSize: 4
TimelineZoom: 1

[Metadata]
Title:Farlig Tiger
TitleUnicode:Farlig Tiger
Artist:Djames Braun
ArtistUnicode:Djämes Braun
Creator:Taoshi
Version:Easy
Source:
Tags:dansk danish Djames Braun farlig tiger
BeatmapID:1459168
BeatmapSetID:689286

[Difficulty]
HPDrainRate:2
CircleSize:3
OverallDifficulty:3
ApproachRate:3
SliderMultiplier:0.600000005960464
SliderTickRate:1

[Events]
//Background and Video events
//Break Periods
//Storyboard Layer 0 (Background)
//Storyboard Layer 1 (Fail)
//Storyboard Layer 2 (Pass)
//Storyboard Layer 3 (Foreground)
//Storyboard Sound Samples

[TimingPoints]
2080,638.297872340426,4,1,0,100,1,0
46122,-66.6666666666667,4,1,0,100,0,1
56335,-66.6666666666667,4,1,0,100,0,1
76760,-100,4,1,0,100,0,0

[HitObjects]
88,232,165,6,0,P|72:200|88:172,1,60.0000005960464
160,192,1441,2,0,P|184:208|216:192,1,60.0000005960464
300,168,2718,1,0,0:0:0:0:
392,168,3356,2,0,P|420:188|412:216,1,60.0000005960464
360,280,4633,1,0,0:0:0:0:
268,304,5271,2,0,L|196:304,1,60.0000005960464
112,280,6548,2,0,P|88:220|88:220,1,60.0000005960464
140,148,7824,1,0,0:0:0:0:
236,144,8462,2,0,P|320:144|360:232,1,180.000001788139
320,296,11016,5,0,0:0:0:0:
224,300,11654,2,0,P|156:300|156:252,1,120.000001192093
216,208,13569,1,0,0:0:0:0:
256,192,13888,12,0,14845,0:0:0:0:
120,136,15484,6,0,L|312:136,1,180.000001788139
328,64,18037,2,0,P|369:98|368:171,1,120.000001192093
336,228,19952,1,0,0:0:0:0:
260,232,20591,2,0,B|132:232|132:232|84:188,1,180.000001788139
104,104,23144,2,0,B|152:40|180:128|244:44|268:124,1,180.000001788139
268,200,25697,1,0,0:0:0:0:
268,292,26335,6,0,P|328:304|368:264,1,120.000001192093
368,176,28250,1,0,0:0:0:0:
364,88,28888,2,0,L|384:88,4,15.0000001490116
280,96,29845,1,0,0:0:0:0:
280,96,30165,1,0,0:0:0:0:
280,96,30484,1,0,0:0:0:0:
272,96,30803,1,4,0:0:0:0:
192,100,31123,6,0,L|192:144,2,30.0000002980232
104,100,32080,1,0,0:0:0:0:
104,196,32718,2,0,B|148:244|224:204|224:204,1,120.000001192093
296,184,34633,1,0,0:0:0:0:
376,172,35271,1,0,0:0:0:0:
376,88,35909,2,0,B|308:56|308:56|288:100|288:100|288:100|288:100,1,120.000001192093
160,164,38462,6,0,L|120:164,4,30.0000002980232
248,164,40377,1,0,0:0:0:0:
332,164,41015,2,0,L|364:164,4,30.0000002980232
260,108,42931,1,0,0:0:0:0:
168,136,43569,2,0,L|128:136,6,30.0000002980232
76,272,46122,2,0,B|116:352|220:376|324:348|396:344|424:304|476:244|476:244,1,450.000021636487
468,148,49952,2,0,B|428:68|324:44|220:72|148:76|120:116|68:176|68:176,1,450.000021636487
76,256,53782,2,0,P|32:356|32:356,2,90.0000043272973
168,252,55697,1,0,0:0:0:0:
264,308,56335,2,0,P|336:304|372:204,1,180.000001788139
312,128,58888,2,0,B|217:122|157:181|163:211,1,180.000001788139
208,272,61441,2,0,B|293:304|341:284|370:239,1,180.000001788139
404,168,63994,2,0,B|344:84|252:80|252:80,1,180.000001788139
188,144,66548,2,0,B|84:140|48:204|88:244,1,180.000001788139
192,280,69101,2,0,B|268:260|316:196|300:148,1,180.000001788139
292,76,71655,2,0,B|144:48|144:48|116:68,1,180.000001788139
124,160,74207,2,0,B|144:240|224:256|268:224,1,180.000001788139
380,192,76760,2,0,B|352:116|292:72|240:88,1,180.000001788139
200,148,79314,2,0,B|96:168|80:240|112:272,1,180.000001788139
200,304,82026,2,0,L|216:304,3,15.0000001490116
300,304,83143,2,0,L|316:304,3,15.0000001490116
420,256,84420,1,0,0:0:0:0:
400,148,85058,1,0,0:0:0:0:
296,112,85697,1,0,0:0:0:0:
192,108,86335,1,0,0:0:0:0:
132,192,86973,1,0,0:0:0:0:
192,276,87611,1,0,0:0:0:0:
288,276,88250,1,0,0:0:0:0:
384,260,88888,1,0,0:0:0:0:
380,176,89526,6,0,B|380:112|328:88|272:128|248:88,1,180.000001788139
164,88,92080,6,0,B|164:152|112:176|56:136|32:176,1,180.000001788139
40,256,94633,1,0,0:0:0:0:
40,344,95271,2,0,B|104:344|120:272|152:288,1,120.000001192093
224,292,97186,2,0,B|248:228|296:208|336:228|352:264|344:288,1,180.000001788139
432,276,99739,2,0,L|432:156,2,120.000001192093
344,248,102931,1,0,0:0:0:0:
256,220,103569,1,0,0:0:0:0:
256,192,104207,12,0,107399,0:0:0:0:
