osu file format v14

[General]
AudioFilename: audio.mp3
AudioLeadIn: 0
PreviewTime: 82838
Countdown: 0
SampleSet: Normal
StackLeniency: 0.7
Mode: 0
LetterboxInBreaks: 0
WidescreenStoryboard: 0

[Editor]
DistanceSpacing: 0.9
BeatDivisor: 4
GridSize: 32
TimelineZoom: 2.599999

[Metadata]
Title:Evans
TitleUnicode:Evans
Artist:Dj Yoshitaka Gachimuchi Ft Nom Nom Biyori
ArtistUnicode:Dj Yoshitaka Gachimuchi Ft Nom Nom Biyori
Creator:Nightsky
Version:In Billy We Thrust
Source:
Tags:gachimuchi aniki anime weeb take it boy billy herrington
BeatmapID:1781706
BeatmapSetID:852392

[Difficulty]
HPDrainRate:3
CircleSize:4
OverallDifficulty:6.9
ApproachRate:9.6
SliderMultiplier:1.7
SliderTickRate:1

[Events]
//Background and Video events
0,0,"DdBHBgaWAAEHCMi.jpg",0,0
//Break Periods
2,23038,24924
//Storyboard Layer 0 (Background)
//Storyboard Layer 1 (Fail)
//Storyboard Layer 2 (Pass)
//Storyboard Layer 3 (Foreground)
//Storyboard Sound Samples

[TimingPoints]
2082,324.324324324324,4,1,0,50,1,0
12784,-76.9230769230769,4,1,0,50,0,0
60460,-71.4285714285714,4,1,0,50,0,0
61757,-50,4,1,0,50,0,0
77325,-303.030303030303,4,1,0,50,0,0
77649,-50,4,1,0,50,0,0
82514,-71.4285714285714,4,1,0,50,0,0
93217,-50,4,1,0,50,0,0
103271,-66.6666666666667,4,1,0,50,0,0

[Colours]
Combo1 : 0,128,255
Combo2 : 128,128,128

[HitObjects]
192,126,2082,6,0,L|198:240,1,85
80,343,2406,2,0,L|74:229,1,85
66,103,2730,5,0,0:0:0:0:
304,84,2892,1,0,0:0:0:0:
95,204,3054,1,0,0:0:0:0:
286,195,3217,1,0,0:0:0:0:
179,33,3379,5,0,0:0:0:0:
199,301,3541,1,0,0:0:0:0:
428,156,3703,2,0,L|422:42,1,85
323,292,4027,5,0,0:0:0:0:
303,24,4189,1,0,0:0:0:0:
237,285,4352,5,0,0:0:0:0:
221,49,4514,1,0,0:0:0:0:
60,163,4676,6,0,B|120:145|189:177|189:177|257:203|327:159,1,255
350,272,5325,2,0,P|264:258|299:58,1,340
307,169,6298,1,0,0:0:0:0:
443,82,6622,1,0,0:0:0:0:
463,241,6946,1,0,0:0:0:0:
255,26,7271,6,0,L|146:46,1,85
48,176,7595,2,0,L|157:156,1,85
65,67,7919,5,0,0:0:0:0:
115,274,8081,1,0,0:0:0:0:
259,131,8244,2,0,L|463:146,1,170
399,320,8730,5,0,0:0:0:0:
399,320,8892,2,0,L|297:313,1,85
259,131,9217,2,0,L|303:222,1,85
165,346,9541,2,0,L|222:261,1,85
346,68,9865,5,0,0:0:0:0:
137,88,10027,1,0,0:0:0:0:
322,225,10190,2,0,P|405:213|475:156,1,170
346,68,10676,1,0,0:0:0:0:
205,190,10838,2,0,L|215:316,1,85
338,297,11163,6,0,L|349:170,2,127.5
30,298,11811,6,0,L|145:284,1,85
205,190,12054,6,0,L|90:176,1,85
26,73,12298,6,0,L|141:59,2,85
270,41,12784,6,0,L|280:115,1,55.2499974708558
446,227,12946,2,0,L|438:172,1,55.2499974708558
457,47,13109,2,0,L|402:54,1,55.2499974708558
194,80,13271,1,0,0:0:0:0:
152,73,13352,1,0,0:0:0:0:
101,94,13433,1,0,0:0:0:0:
59,88,13514,1,0,0:0:0:0:
9,111,13595,2,0,L|18:174,1,55.2499974708558
132,305,13757,6,0,L|141:243,1,55.2499974708558
313,219,13919,2,0,L|305:274,1,55.2499974708558
112,314,14081,6,0,L|123:239,1,55.2499974708558
332,209,14243,2,0,L|322:276,1,55.2499974708558
94,322,14406,6,0,L|106:235,1,55.2499974708558
350,201,14568,6,0,L|340:268,1,55.2499974708558
350,201,14730,6,0,L|355:267,1,55.2499974708558
350,201,14892,6,0,L|391:268,1,55.2499974708558
403,48,15054,6,0,L|345:46,1,55.2499974708558
181,131,15217,2,0,L|236:132,1,55.2499974708558
139,34,15379,2,0,L|112:21,1,27.6249987354279
104,56,15460,2,0,L|75:47,1,27.6249987354279
80,90,15541,2,0,L|50:87,1,27.6249987354279
71,130,15622,2,0,L|41:132,1,27.6249987354279
76,171,15703,6,0,L|83:250,1,55.2499974708558
238,359,15865,2,0,L|233:303,1,55.2499974708558
310,141,16027,6,0,L|317:220,1,55.2499974708558
472,329,16189,2,0,L|467:273,1,55.2499974708558
425,18,16352,6,0,L|369:23,1,55.2499974708558
342,60,16514,2,0,L|286:65,1,55.2499974708558
148,86,16676,5,0,0:0:0:0:
100,124,16757,1,0,0:0:0:0:
88,184,16838,1,0,0:0:0:0:
116,238,16919,1,0,0:0:0:0:
172,261,17000,5,0,0:0:0:0:
224,243,17081,1,0,0:0:0:0:
279,238,17162,1,0,0:0:0:0:
334,246,17243,1,0,0:0:0:0:
385,266,17324,5,0,0:0:0:0:
343,229,17405,1,0,0:0:0:0:
311,185,17486,1,0,0:0:0:0:
290,133,17567,1,0,0:0:0:0:
282,80,17649,6,0,B|337:89|388:59|388:59|437:104|500:98,1,220.999989883423
361,350,18136,1,0,0:0:0:0:
86,184,18298,2,0,L|83:114,1,55.2499974708558
85,3,18460,1,0,0:0:0:0:
138,15,18541,1,0,0:0:0:0:
192,27,18622,2,0,L|268:48,1,55.2499974708558
253,137,18784,1,0,0:0:0:0:
306,125,18865,1,0,0:0:0:0:
360,113,18946,6,0,L|362:168,1,55.2499974708558
512,191,19109,2,0,L|509:246,1,55.2499974708558
246,214,19271,6,0,L|248:269,1,55.2499974708558
398,292,19434,2,0,L|395:347,1,55.2499974708558
104,358,19595,1,0,0:0:0:0:
85,312,19676,1,0,0:0:0:0:
107,268,19757,1,0,0:0:0:0:
232,45,19919,5,0,0:0:0:0:
424,157,20081,1,0,0:0:0:0:
215,246,20244,2,0,L|106:267,1,110.499994941712
255,36,20568,5,0,0:0:0:0:
435,188,20730,1,0,0:0:0:0:
200,242,20893,2,0,L|84:245,1,110.499994941712
281,31,21217,5,0,0:0:0:0:
440,222,21379,1,0,0:0:0:0:
186,236,21542,2,0,L|64:217,1,110.499994941712
423,67,21865,5,0,0:0:0:0:
420,345,22027,1,0,0:0:0:0:
266,97,22190,6,0,P|248:158|253:226,1,110.499994941712
146,243,22433,6,0,P|207:228|264:189,1,110.499994941712
332,273,22676,6,0,P|288:226|226:197,1,110.499994941712
40,32,25433,6,0,L|170:32,1,110.499994941712
275,127,25676,2,0,L|164:127,1,110.499994941712
255,32,25919,6,0,L|385:32,1,110.499994941712
490,127,26162,2,0,L|379:127,1,110.499994941712
275,127,26406,5,0,0:0:0:0:
219,127,26487,1,0,0:0:0:0:
163,127,26568,1,0,0:0:0:0:
163,182,26649,1,0,0:0:0:0:
163,237,26730,6,0,B|215:261|215:261|271:237,1,110.499994941712
342,192,26973,2,0,B|394:168|394:168|450:192,1,110.499994941712
442,285,27217,6,0,B|390:309|390:309|334:285,1,110.499994941712
263,240,27460,2,0,B|211:216|211:216|162:236,1,110.499994941712
75,237,27703,1,0,0:0:0:0:
75,182,27784,1,0,0:0:0:0:
75,127,27865,1,0,0:0:0:0:
75,17,28027,6,0,B|127:41|127:41|175:20,1,110.499994941712
278,17,28270,2,0,B|254:69|254:69|274:117,1,110.499994941712
278,220,28514,6,0,B|226:195|226:195|177:216,1,110.499994941712
177,319,28757,2,0,B|229:343|229:343|277:322,1,110.499994941712
382,272,29000,6,0,L|382:202,1,55.2499974708558
429,189,29163,2,0,L|368:224,1,55.2499974708558
333,189,29325,6,0,L|433:247,1,110.499994941712
237,244,29568,2,0,L|337:185,1,110.499994941712
141,188,29811,2,0,L|241:246,1,110.499994941712
45,243,30054,2,0,L|145:184,1,110.499994941712
128,32,30298,5,0,0:0:0:0:
167,71,30379,1,0,0:0:0:0:
206,110,30460,1,0,0:0:0:0:
245,70,30541,1,0,0:0:0:0:
284,31,30622,6,0,L|397:31,1,110.499994941712
480,32,30866,2,0,L|480:145,1,110.499994941712
479,228,31109,6,0,L|366:228,1,110.499994941712
258,228,31352,2,0,L|368:228,1,110.499994941712
368,315,31595,5,0,0:0:0:0:
312,315,31676,1,0,0:0:0:0:
257,315,31757,1,0,0:0:0:0:
95,192,31919,6,0,L|95:70,1,110.499994941712
192,11,32162,2,0,L|192:133,1,110.499994941712
289,192,32405,2,0,L|289:70,1,110.499994941712
386,11,32649,2,0,L|386:121,1,110.499994941712
386,192,32892,6,0,L|386:266,1,55.2499974708558
386,302,33054,2,0,L|386:246,1,55.2499974708558
302,246,33217,6,0,B|246:246|246:246|246:181,1,110.499994941712
247,302,33460,2,0,B|246:246|246:246|311:246,1,110.499994941712
191,247,33703,2,0,B|247:246|247:246|246:311,1,110.499994941712
246,191,33946,2,0,B|246:247|246:247|181:246,1,110.499994941712
96,170,34190,6,0,L|157:170,1,55.2499974708558
151,96,34352,2,0,L|95:96,1,55.2499974708558
255,23,34514,6,0,L|255:138,1,110.499994941712
340,79,34757,2,0,L|340:194,1,110.499994941712
255,218,35000,2,0,L|255:333,1,110.499994941712
170,274,35243,2,0,L|170:389,1,110.499994941712
85,217,35487,2,0,L|85:272,1,55.2499974708558
85,328,35649,2,0,L|85:258,1,55.2499974708558
108,37,35811,6,0,P|156:38|186:51,1,55.2499974708558
266,133,35973,2,0,P|218:132|188:119,1,55.2499974708558
344,64,36136,2,0,P|392:65|422:78,1,55.2499974708558
502,160,36298,2,0,P|454:159|424:146,1,55.2499974708558
354,238,36460,6,0,L|361:314,1,55.2499974708558
237,384,36622,2,0,L|231:328,1,55.2499974708558
273,177,36784,1,0,0:0:0:0:
307,154,36865,1,0,0:0:0:0:
347,144,36946,1,0,0:0:0:0:
388,148,37027,1,0,0:0:0:0:
426,165,37109,6,0,P|426:118|420:95,1,55.2499974708558
288,21,37271,2,0,P|288:68|294:91,1,55.2499974708558
261,261,37433,2,0,P|260:213|254:190,1,55.2499974708558
122,116,37595,2,0,P|122:163|128:186,1,55.2499974708558
154,366,37757,6,0,P|201:365|224:359,1,55.2499974708558
309,322,37919,5,0,0:0:0:0:
364,319,38000,1,0,0:0:0:0:
418,329,38081,6,0,P|459:329|485:324,1,55.2499974708558
460,186,38244,2,0,P|419:186|393:191,1,55.2499974708558
263,207,38406,6,0,L|270:132,1,55.2499974708558
366,15,38568,2,0,L|360:70,1,55.2499974708558
221,168,38730,2,0,L|265:106,1,55.2499974708558
407,53,38892,2,0,L|375:98,1,55.2499974708558
199,257,39055,6,0,L|267:225,1,55.2499974708558
417,250,39217,2,0,L|366:273,1,55.2499974708558
211,202,39379,2,0,L|286:209,1,55.2499974708558
404,304,39541,2,0,L|349:299,1,55.2499974708558
205,299,39703,6,0,L|149:304,1,55.2499974708558
12,224,39865,2,0,L|67:229,1,55.2499974708558
208,147,40027,2,0,L|152:152,1,55.2499974708558
15,72,40189,2,0,L|70:77,1,55.2499974708558
310,119,40352,5,0,0:0:0:0:
308,160,40433,1,0,0:0:0:0:
291,197,40514,1,0,0:0:0:0:
261,225,40595,1,0,0:0:0:0:
223,240,40676,5,0,0:0:0:0:
277,251,40757,1,0,0:0:0:0:
320,284,40838,1,0,0:0:0:0:
364,317,40919,1,0,0:0:0:0:
418,328,41000,6,0,P|458:327|487:321,1,55.2499974708558
455,187,41163,2,0,P|415:188|386:194,1,55.2499974708558
234,279,41325,2,0,P|274:278|303:272,1,55.2499974708558
271,138,41488,2,0,P|231:139|202:145,1,55.2499974708558
20,221,41649,6,0,P|60:220|89:214,1,55.2499974708558
161,138,41811,2,0,P|201:139|230:145,1,55.2499974708558
303,236,41973,2,0,P|343:235|372:229,1,55.2499974708558
444,153,42135,2,0,P|484:154|513:160,1,55.2499974708558
310,26,42298,6,0,L|258:74,1,55.2499974708558
178,135,42460,2,0,L|226:187,1,55.2499974708558
287,267,42622,2,0,L|339:218,1,55.2499974708558
419,158,42784,2,0,L|371:106,1,55.2499974708558
327,229,42946,5,0,0:0:0:0:
349,264,43027,1,0,0:0:0:0:
386,284,43108,1,0,0:0:0:0:
426,287,43189,1,0,0:0:0:0:
463,271,43271,6,0,L|457:342,1,55.2499974708558
303,272,43433,2,0,L|309:343,1,55.2499974708558
215,374,43595,6,0,L|93:368,1,110.499994941712
112,270,43838,2,0,L|222:275,1,110.499994941712
230,177,44081,2,0,L|119:171,1,110.499994941712
126,72,44325,2,0,L|237:78,1,110.499994941712
384,81,44568,5,0,0:0:0:0:
402,117,44649,1,0,0:0:0:0:
405,158,44730,1,0,0:0:0:0:
391,197,44811,1,0,0:0:0:0:
364,228,44892,6,0,L|483:220,1,110.499994941712
253,180,45136,2,0,L|361:131,1,110.499994941712
131,172,45379,2,0,L|216:89,1,110.499994941712
13,206,45622,2,0,L|64:99,1,110.499994941712
139,278,45865,6,0,L|65:283,1,55.2499974708558
227,341,46027,2,0,L|282:336,1,55.2499974708558
365,263,46190,5,0,0:0:0:0:
448,85,46514,2,0,B|398:103|339:83|339:83|287:120|226:114,2,220.999989883423
67,117,47325,1,0,0:0:0:0:
155,263,47487,5,0,0:0:0:0:
365,364,47811,2,0,B|413:315|413:315|430:158,2,220.999989883423
268,187,48622,1,0,0:0:0:0:
440,42,48784,6,0,L|309:50,1,110.499994941712
87,63,49109,1,0,0:0:0:0:
108,277,49433,2,0,B|149:308|215:293|215:293|275:286|328:324,1,220.999989883423
430,380,49919,1,0,0:0:0:0:
407,131,50081,5,0,0:0:0:0:
80,146,50406,2,0,P|179:146|303:203,2,220.999989883423
150,320,51217,1,0,0:0:0:0:
289,193,51379,5,0,0:0:0:0:
425,247,51541,2,0,P|405:282|338:336,2,110.499994941712
289,193,52027,5,0,0:0:0:0:
174,283,52189,2,0,P|153:247|139:162,2,110.499994941712
289,193,52676,5,0,0:0:0:0:
267,48,52838,2,0,P|307:47|387:78,2,110.499994941712
109,115,53325,5,0,0:0:0:0:
213,253,53487,2,0,P|248:274|332:287,2,110.499994941712
324,41,53973,6,0,L|312:88,1,27.6249987354279
389,158,54298,2,0,L|342:146,1,27.6249987354279
272,224,54622,2,0,L|284:177,1,27.6249987354279
206,106,54947,2,0,L|253:118,1,27.6249987354279
379,46,55271,6,0,L|346:80,1,27.6249987354279
376,224,55596,2,0,L|346:196,1,27.6249987354279
197,223,55920,2,0,L|216:203,1,27.6249987354279
199,42,56245,2,0,L|233:75,1,27.6249987354279
201,179,56568,5,0,0:0:0:0:
311,205,56730,1,0,0:0:0:0:
159,98,56892,1,0,0:0:0:0:
353,286,57054,1,0,0:0:0:0:
200,23,57217,1,0,0:0:0:0:
312,361,57379,1,0,0:0:0:0:
280,0,57541,1,0,0:0:0:0:
232,384,57703,1,0,0:0:0:0:
48,199,57865,5,0,0:0:0:0:
110,172,57946,1,0,0:0:0:0:
177,184,58028,1,0,0:0:0:0:
239,210,58109,1,0,0:0:0:0:
306,198,58190,1,0,0:0:0:0:
354,152,58271,1,0,0:0:0:0:
339,88,58352,1,0,0:0:0:0:
274,74,58433,1,0,0:0:0:0:
225,118,58514,5,0,0:0:0:0:
238,184,58595,1,0,0:0:0:0:
293,221,58676,1,0,0:0:0:0:
361,226,58757,1,0,0:0:0:0:
425,201,58838,1,0,0:0:0:0:
489,218,58919,1,0,0:0:0:0:
506,280,59000,1,0,0:0:0:0:
478,339,59081,1,0,0:0:0:0:
412,344,59162,5,0,0:0:0:0:
256,192,59244,12,0,60379,0:0:0:0:
123,49,60460,6,0,B|126:60|125:72|125:72|134:86|134:86|128:98|133:115,3,59.4999981842042
336,116,60784,2,0,B|333:127|334:139|334:139|325:153|325:153|331:165|326:182,3,59.4999981842042
152,245,61109,2,0,B|155:256|154:268|154:268|163:282|163:282|157:294|162:311,3,59.4999981842042
363,294,61433,2,0,B|360:305|361:317|361:317|357:330|357:330|358:343|353:360,3,59.4999981842042
219,115,61757,6,0,B|201:105|201:105|173:103|173:103|142:94|121:100,1,85
33,137,61919,1,0,0:0:0:0:
29,245,62000,2,0,B|54:246|54:246|73:230|92:233|92:233|123:208,1,85
217,197,62163,1,0,0:0:0:0:
253,316,62244,2,0,B|233:306|233:306|215:316|197:313|197:313|176:295|163:307,1,85
217,197,62406,1,0,0:0:0:0:
326,209,62487,2,0,B|351:223|351:223|386:221|403:252|471:233,1,85
461,168,62649,5,0,0:0:0:0:
394,121,62730,1,0,0:0:0:0:
312,110,62811,1,0,0:0:0:0:
233,133,62892,1,0,0:0:0:0:
151,134,62973,1,0,0:0:0:0:
131,214,63054,6,0,B|129:257|129:257|133:279|121:296|160:312,1,85
243,276,63217,1,0,0:0:0:0:
349,293,63298,2,0,B|359:308|359:308|350:332|350:332|357:348|352:372,1,85
241,359,63460,1,0,0:0:0:0:
126,342,63541,2,0,B|129:326|129:326|121:315|120:301|120:301|121:284|132:273|132:273|126:257,1,85
189,184,63703,1,0,0:0:0:0:
324,229,63784,2,0,B|297:235|297:235|287:248|287:248|256:249|256:249|243:269,1,85
288,137,63946,1,0,0:0:0:0:
392,139,64027,6,0,B|414:136|414:136|436:149|459:133|471:142|471:142|486:141,1,85
325,37,64190,2,0,B|303:47|279:41|279:41|251:54|251:54|208:39,1,85
133,94,64352,6,0,B|132:110|143:125|122:139|141:163|141:163|140:199,1,85
117,270,64514,5,0,0:0:0:0:
220,264,64595,2,0,B|241:265|263:258|263:258|274:269|294:265|307:274|342:263,1,85
397,262,64757,1,0,0:0:0:0:
394,152,64838,2,0,B|377:159|377:159|355:162|355:162|334:172|334:172|311:170,1,85
178,169,65000,1,0,0:0:0:0:
198,68,65081,2,0,B|221:68|221:68|242:76|242:76|265:68|280:78|280:78|291:73,1,85
387,70,65244,5,0,0:0:0:0:
358,144,65325,1,0,0:0:0:0:
381,220,65406,1,0,0:0:0:0:
336,286,65487,1,0,0:0:0:0:
257,294,65568,1,0,0:0:0:0:
198,240,65649,2,0,B|183:246|183:246|156:234|141:257|119:247|119:247|98:266|79:264|79:264|44:252|18:268,2,170
437,306,66298,6,0,B|430:281|430:281|407:271|407:271|401:253|387:248|387:248|389:225|361:209|361:209|358:178|324:157,1,170
399,35,66541,6,0,B|390:60|368:73|368:73|371:92|361:124|361:124|350:107|354:149|354:149|354:168|354:168|316:196,1,170
186,176,66784,6,0,B|205:187|205:187|226:164|253:173|253:173|270:171|290:167|290:167|310:160|326:174|326:174|344:170|364:180,2,170
95,118,67190,6,0,B|71:124|56:142|56:142|50:164|59:182|59:182|68:192|71:204|71:204|59:229|59:229|75:258|100:247|104:266|104:266|118:275,1,170
208,367,67433,2,0,B|206:333|219:315|203:307|203:307|211:294|199:275|199:275|213:272|213:272|217:252|217:252|216:218|193:213,1,170
326,116,67676,2,0,B|339:140|328:159|328:159|340:175|334:193|334:193|312:216|318:246|318:246|320:267|320:267|328:286|351:264,1,170
457,336,67919,6,0,B|464:325|455:309|455:309|440:303|440:268|440:268|449:246|427:227,1,85
444,87,68081,2,0,B|451:101|451:101|441:120|441:120|453:137|448:148|448:148|452:178,1,85
346,223,68244,5,0,0:0:0:0:
275,182,68325,1,0,0:0:0:0:
203,221,68406,1,0,0:0:0:0:
126,192,68487,6,0,B|113:180|113:180|115:168|115:168|113:148|125:140|108:131|108:131|130:93,1,85
193,38,68649,1,0,0:0:0:0:
301,120,68730,2,0,B|272:130|272:130|265:125|261:137|261:137|248:138|236:140|236:140|221:160,1,85
285,237,68892,1,0,0:0:0:0:
380,246,68973,2,0,B|379:229|396:220|379:204|379:204|363:195|378:180|378:180|388:173|380:156,1,85
399,86,69136,1,0,0:0:0:0:
310,28,69217,6,0,B|288:41|266:29|266:29|249:42|230:37|230:37|207:48,1,85
79,122,69379,2,0,B|94:112|108:128|108:128|130:124|130:124|153:126|153:126|161:141,1,85
279,237,69541,6,0,B|256:228|242:239|242:239|218:243|218:243|212:224|193:242|176:246,1,85
260,339,69703,1,0,0:0:0:0:
374,304,69784,2,0,B|383:297|383:297|369:286|381:270|381:270|368:264|370:250|370:250|375:237|370:225,1,85
371,134,69946,1,0,0:0:0:0:
269,87,70027,2,0,B|264:111|264:111|276:131|276:131|267:150|270:169|270:169|259:188,1,85
191,229,70190,1,0,0:0:0:0:
134,140,70271,2,0,B|140:126|140:126|134:114|144:95|132:84|132:84|145:58|120:41,1,85
214,9,70433,1,0,0:0:0:0:
300,87,70514,2,0,B|282:97|282:97|266:88|266:88|229:105|206:93,1,85
273,187,70676,2,0,B|292:174|315:186|315:186|322:173|322:173|345:173|354:159,1,85
454,117,70838,5,0,0:0:0:0:
454,117,70919,1,0,0:0:0:0:
454,117,71000,2,0,B|454:152|454:152|459:168|459:168|450:195|457:208,1,85
366,306,71163,2,0,B|366:271|366:271|371:255|371:255|362:228|369:215,1,85
249,111,71325,2,0,B|249:146|249:146|244:162|244:162|253:189|246:202,1,85
191,306,71487,6,0,B|168:276|168:276|143:270|143:270|120:271|114:249|114:249|99:237|85:246|85:246|97:213|70:191,1,170
0,144,71730,6,0,B|37:139|37:139|55:120|55:120|65:100|87:105|87:105|105:98|104:82|104:82|127:109|160:96,1,170
235,60,71973,6,0,B|220:94|220:94|227:119|227:119|240:138|224:155|224:155|221:174|236:181|236:181|201:187|195:222,1,170
289,275,72217,5,0,0:0:0:0:
346,216,72298,1,0,0:0:0:0:
428,216,72379,2,0,B|432:202|432:202|424:183|419:169|419:169|430:154|411:141|423:115,1,85
352,57,72541,1,0,0:0:0:0:
242,138,72622,2,0,B|269:147|291:137|291:137|310:149|327:143|327:143|338:157,1,85
273,243,72784,1,0,0:0:0:0:
170,219,72865,2,0,B|142:209|142:209|122:192|99:198|99:198|126:176,1,85
110,104,73027,5,0,0:0:0:0:
181,61,73109,1,0,0:0:0:0:
254,101,73190,1,0,0:0:0:0:
326,62,73271,1,0,0:0:0:0:
381,123,73352,1,0,0:0:0:0:
445,175,73433,6,0,B|419:188|419:188|406:204|406:204|378:196|368:215|348:215,1,85
319,273,73595,1,0,0:0:0:0:
235,238,73676,2,0,B|214:230|185:239|185:239|181:230|163:222|150:235|124:222,1,85
176,142,73838,1,0,0:0:0:0:
149,59,73919,2,0,B|171:59|171:59|177:49|211:52|211:52|229:51|229:51|244:38,1,85
327,48,74081,1,0,0:0:0:0:
402,105,74163,2,0,B|392:122|392:122|377:132|377:132|391:154|386:172|386:172|393:208,1,85
291,175,74325,1,0,0:0:0:0:
335,260,74406,2,0,B|356:257|356:257|373:261|373:261|385:269|385:269|408:264|415:264|415:264|417:253,1,85
345,348,74568,5,0,0:0:0:0:
265,322,74649,1,0,0:0:0:0:
186,337,74730,5,0,0:0:0:0:
122,284,74811,1,0,0:0:0:0:
137,203,74892,1,0,0:0:0:0:
99,128,74973,2,0,B|94:115|94:115|80:110|80:110|82:89|84:78|84:78|80:62|80:62|79:40,1,85
188,77,75136,1,0,0:0:0:0:
223,164,75217,2,0,B|234:174|234:174|223:191|230:206|230:206|239:234|239:234|233:259,1,85
168,302,75379,1,0,0:0:0:0:
255,341,75460,2,0,B|263:325|263:325|279:311|294:323|294:323|321:319|345:327,1,85
421,316,75622,1,0,0:0:0:0:
364,237,75703,6,0,B|357:208|372:190|372:190|367:162|367:162|376:133,1,85
472,111,75865,2,0,B|475:96|465:85|465:85|459:65|459:65|467:58|455:35|455:35|470:19,1,85
324,38,76027,6,0,B|300:43|297:39|297:39|277:39|271:44|271:44|262:40|240:42|240:42|228:47,1,85
59,99,76190,6,0,B|82:104|85:100|85:100|105:100|111:105|111:105|120:101|142:103|142:103|154:108,1,85
320,176,76352,6,0,B|296:181|293:177|293:177|273:177|267:182|267:182|258:178|236:180|236:180|224:186,1,85
55,237,76515,6,0,B|78:242|81:238|81:238|101:238|107:243|107:243|116:239|138:241|138:241|150:247,1,85
242,292,76676,6,0,B|245:313|240:338|240:338|219:346|242:362|242:362|272:356|268:346|268:346|285:344|305:329|305:329|317:338|317:338|347:338|344:309|380:329|380:329|393:320|408:337,2,255
243,228,77325,6,0,B|242:209|242:209|249:202|245:181,1,42.0749998715973
241,33,77649,6,0,B|210:37|210:37|195:41|205:79|190:91|190:91|203:124,1,85
96,49,77811,1,0,0:0:0:0:
39,129,77892,2,0,B|66:126|66:126|94:128|92:144|92:144|122:161,1,85
168,222,78054,1,0,0:0:0:0:
248,196,78136,1,0,0:0:0:0:
321,235,78217,1,0,0:0:0:0:
393,197,78298,5,0,0:0:0:0:
420,275,78379,1,0,0:0:0:0:
480,331,78460,5,0,0:0:0:0:
402,357,78541,1,0,0:0:0:0:
321,343,78622,6,0,B|314:342|306:350|306:350|287:354|272:340|272:340|253:355|235:348|235:348|221:355,1,85
168,302,78784,1,0,0:0:0:0:
103,363,78865,2,0,B|79:364|79:364|61:350|45:360|45:360|28:351|28:351|7:362,1,85
70,274,79027,1,0,0:0:0:0:
162,237,79109,2,0,B|174:257|172:284|172:284|181:312|206:302,1,85
264,230,79271,1,0,0:0:0:0:
314,315,79352,2,0,B|330:301|333:288|333:288|352:288|374:278|374:278|399:295,1,85
452,222,79514,1,0,0:0:0:0:
370,176,79595,2,0,B|370:153|378:149|378:149|391:128|382:112|382:112|392:100|386:92|386:92|386:77,1,85
303,34,79757,5,0,0:0:0:0:
223,80,79838,1,0,0:0:0:0:
142,37,79919,2,0,B|117:50|117:50|95:48|95:48|66:47|98:77|41:64,1,85
33,151,80081,5,0,0:0:0:0:
113,188,80163,1,0,0:0:0:0:
198,169,80244,1,0,0:0:0:0:
283,188,80325,1,0,0:0:0:0:
356,233,80406,1,0,0:0:0:0:
394,309,80487,1,0,0:0:0:0:
474,342,80568,2,0,B|473:323|483:313|483:313|483:296|476:281|476:281|490:261|484:228,1,85
446,182,80730,5,0,0:0:0:0:
367,144,80811,1,0,0:0:0:0:
288,180,80892,1,0,0:0:0:0:
279,268,80973,1,0,0:0:0:0:
212,322,81054,1,0,0:0:0:0:
123,315,81136,1,0,0:0:0:0:
48,271,81217,6,0,B|54:258|45:237|45:237|61:217|51:202|51:202|46:184|58:166,1,85
143,29,81379,2,0,B|136:58|136:58|145:88|136:103|136:103|123:111|162:130,1,85
227,268,81541,2,0,B|234:242|219:235|219:235|223:215|219:193|219:193|231:175|231:175|225:158,1,85
337,33,81703,2,0,B|356:39|356:39|330:68|354:88|330:117|330:117|345:146,1,85
402,294,81865,6,0,B|386:258|353:255|353:255|338:226|338:226|316:222|311:200|290:196|290:196|286:153,1,170
209,72,82109,6,0,B|185:103|199:133|199:133|182:161|182:161|189:181|173:197|180:217|180:217|144:242,1,170
114,351,82352,6,0,B|152:355|171:328|171:328|204:329|204:329|218:312|240:319|254:303|254:303|293:321,1,170
193,173,82838,6,0,P|255:164|315:175,1,118.999996368408
406,200,83163,1,0,0:0:0:0:
309,69,83325,1,0,0:0:0:0:
148,98,83487,2,0,P|105:184|214:262,1,237.999992736817
422,266,84136,6,0,P|355:290|298:264,1,118.999996368408
125,223,84460,2,0,P|192:199|249:225,1,118.999996368408
405,315,84784,2,0,P|334:315|289:271,1,118.999996368408
141,173,85108,6,0,P|212:173|257:217,1,118.999996368408
313,317,85433,1,0,0:0:0:0:
373,190,85595,1,0,0:0:0:0:
402,89,85757,6,0,P|330:89|286:133,1,118.999996368408
230,232,86082,1,0,0:0:0:0:
170,105,86244,1,0,0:0:0:0:
75,212,86406,6,0,L|90:341,1,118.999996368408
156,136,86649,2,0,P|101:109|26:125,1,118.999996368408
185,244,86892,2,0,P|240:271|315:255,1,118.999996368408
451,180,87217,6,0,L|448:270,1,59.4999981842042
385,73,87541,1,0,0:0:0:0:
240,173,87703,6,0,L|415:178,2,118.999996368408
90,168,88190,1,0,0:0:0:0:
216,345,88676,6,0,P|278:311|292:242,1,118.999996368408
292,81,89000,2,0,P|290:151|343:198,1,118.999996368408
483,279,89325,2,0,P|435:244|377:249,1,118.999996368408
35,153,89973,6,0,L|165:160,1,118.999996368408
300,52,90298,2,0,L|170:45,1,118.999996368408
314,168,90622,2,0,L|444:175,1,118.999996368408
230,230,90946,6,0,P|211:163|223:110,1,118.999996368408
368,259,91271,2,0,P|387:326|375:379,1,118.999996368408
171,336,91595,6,0,L|231:330,1,59.4999981842042
230,230,91757,6,0,L|170:224,1,59.4999981842042
171,124,91919,6,0,L|231:118,1,59.4999981842042
230,18,92081,1,0,0:0:0:0:
356,94,92244,6,0,P|400:26|518:24,2,178.499994552612
342,196,92892,6,0,L|348:146,1,29.7499990921021
80,39,93217,6,0,B|72:52|72:52|72:72|85:90|85:90|80:109|80:109|93:136,1,85
93,209,93379,1,0,0:0:0:0:
167,171,93460,1,0,0:0:0:0:
212,240,93541,2,0,B|208:254|208:254|191:271|191:271|194:298|185:307|185:307|182:320|196:337,1,85
251,362,93703,1,0,0:0:0:0:
291,290,93784,1,0,0:0:0:0:
373,279,93865,5,0,0:0:0:0:
432,222,93946,1,0,0:0:0:0:
408,147,94027,1,0,0:0:0:0:
441,71,94109,1,0,0:0:0:0:
379,18,94190,6,0,B|359:20|359:20|350:36|330:27|330:27|312:29|299:18|281:49,1,85
211,55,94352,1,0,0:0:0:0:
177,140,94433,2,0,B|184:158|205:133|234:145|234:145|246:131|255:147|281:133,1,85
342,148,94595,1,0,0:0:0:0:
398,223,94676,2,0,B|386:221|386:221|395:245|383:261|383:261|398:276|382:294|382:294|397:323,1,85
341,364,94838,1,0,0:0:0:0:
242,358,94919,2,0,B|219:355|219:355|201:360|201:360|183:350|156:362|129:348,1,85
96,276,95081,1,0,0:0:0:0:
171,188,95163,6,0,B|165:211|183:218|183:218|190:242|183:258|183:258|192:274|185:298,1,85
287,325,95325,2,0,B|291:298|291:298|284:279|284:279|294:255|294:255|278:244|271:232,1,85
393,187,95487,6,0,B|395:197|387:214|387:214|399:217|401:231|401:231|392:246|398:261|398:261|395:280,1,85
497,222,95649,1,0,0:0:0:0:
470,117,95730,2,0,B|459:117|459:117|455:103|432:104|432:104|421:91|403:84|403:84|368:91,1,85
313,126,95892,1,0,0:0:0:0:
235,75,95973,2,0,B|235:93|210:91|210:91|196:108|178:95|178:95|158:103|139:91,1,85
81,135,96136,1,0,0:0:0:0:
159,189,96217,2,0,B|190:182|190:182|219:202|242:201|242:169,1,85
306,256,96379,1,0,0:0:0:0:
223,296,96460,6,0,B|237:285|237:285|223:325|239:331|239:331|230:354|249:379,1,85
120,264,96622,2,0,B|126:286|126:286|115:306|122:330|122:330|131:320|139:309,1,85
30,340,96784,2,0,B|8:344|8:344|9:302|19:272|19:272|5:263|25:239|2:224|2:224|32:217,2,170
274,84,97433,6,0,B|281:103|300:111|308:102|308:102|339:114|339:114|362:145|362:145|354:171|354:171|361:196|324:217,1,170
310,291,97676,2,0,B|303:272|284:264|276:273|276:273|245:261|245:261|222:230|222:230|230:204|230:204|222:178|260:158,1,170
454,156,97919,2,0,B|451:188|451:188|436:202|436:202|440:225|424:235|424:235|423:267|408:284|408:284|392:302|425:319|471:306,2,170
383,26,98406,6,0,B|352:38|352:38|332:22|319:36|287:25|274:44,1,85
258,100,98568,1,0,0:0:0:0:
197,47,98649,1,0,0:0:0:0:
142,110,98730,2,0,B|157:103|124:114|112:100|92:116|92:116|73:119|73:133,1,85
25,215,98892,1,0,0:0:0:0:
134,222,98973,2,0,B|130:253|130:253|144:271|132:297|132:297|145:312|148:338,1,85
200,357,99136,1,0,0:0:0:0:
254,293,99217,1,0,0:0:0:0:
316,348,99298,6,0,B|329:333|329:333|353:330|365:342|382:342|382:342|397:329|421:327,1,85
455,284,99460,1,0,0:0:0:0:
421,209,99541,1,0,0:0:0:0:
440,129,99622,1,0,0:0:0:0:
388,66,99703,1,0,0:0:0:0:
306,58,99784,1,0,0:0:0:0:
245,113,99865,1,0,0:0:0:0:
163,114,99946,1,0,0:0:0:0:
100,168,100027,6,0,B|117:183|117:183|132:182|146:191|165:200|165:200|169:228,1,85
187,345,100190,2,0,B|193:323|210:304|210:304|214:294|215:277|222:272|222:272|226:247,1,85
364,243,100352,2,0,B|337:251|337:251|312:231|312:231|274:228|275:205|275:205|248:220,1,85
272,86,100514,2,0,B|254:98|254:98|241:119|254:141|236:153|236:153|240:191,1,85
350,131,100676,5,0,0:0:0:0:
428,151,100757,1,0,0:0:0:0:
441,231,100838,1,0,0:0:0:0:
381,285,100919,1,0,0:0:0:0:
303,265,101000,2,0,B|281:252|281:252|266:263|249:241|249:241|229:238|229:238|205:208,1,85
146,273,101163,2,0,B|144:256|144:256|151:238|132:224|133:201|133:201|149:188,1,85
200,137,101325,5,0,0:0:0:0:
145,77,101406,1,0,0:0:0:0:
68,107,101487,1,0,0:0:0:0:
75,189,101568,1,0,0:0:0:0:
154,213,101649,2,0,B|178:213|187:227|187:227|216:228|216:228|241:235,1,85
350,178,101811,2,0,B|340:192|340:192|320:171|305:170|294:154|294:154|258:163,1,85
228,216,101973,5,0,0:0:0:0:
222,298,102054,1,0,0:0:0:0:
297,334,102136,1,0,0:0:0:0:
367,291,102217,1,0,0:0:0:0:
449,281,102298,1,0,0:0:0:0:
479,204,102379,1,0,0:0:0:0:
432,136,102460,1,0,0:0:0:0:
437,54,102541,1,0,0:0:0:0:
368,9,102622,5,0,0:0:0:0:
300,55,102703,1,0,0:0:0:0:
321,135,102784,1,0,0:0:0:0:
342,215,102865,1,0,0:0:0:0:
310,291,102946,1,0,0:0:0:0:
237,330,103027,1,0,0:0:0:0:
155,313,103109,1,0,0:0:0:0:
118,239,103190,1,0,0:0:0:0:
141,163,103271,6,0,B|96:147|54:166|42:206|45:244|77:268|77:268|112:294|157:283|185:252|185:206|161:179|161:179|250:78|250:78|196:67|196:67|292:27|292:27|260:163,1,765.000029182435
