osu file format v14

[General]
AudioFilename: audio.mp3
AudioLeadIn: 0
PreviewTime: 13038
Countdown: 0
SampleSet: Soft
StackLeniency: 0.7
Mode: 3
LetterboxInBreaks: 0
SpecialStyle: 1
WidescreenStoryboard: 0

[Editor]
Bookmarks: 13038,23587,34137,35455,46005,57873,82655,92977,105880,112473,123022,134890,145440,157308,167742,178177,182090,192412
DistanceSpacing: 1.2
BeatDivisor: 8
GridSize: 4
TimelineZoom: 3.299999

[Metadata]
Title:Quaver
TitleUnicode:Quaver
Artist:Dj Taka
ArtistUnicode:Dj Taka
Creator:ColdCR
Version:SHD
Source:REFLEC BEAT limelight
Tags:quaver dj taka
BeatmapID:1805043
BeatmapSetID:862949

[Difficulty]
HPDrainRate:7
CircleSize:4
OverallDifficulty:8
ApproachRate:5
SliderMultiplier:1.4
SliderTickRate:1

[Events]
//Background and Video events
0,0,"D7l8mHT.jpg",0,0
//Break Periods
//Storyboard Layer 0 (Background)
//Storyboard Layer 1 (Fail)
//Storyboard Layer 2 (Pass)
//Storyboard Layer 3 (Foreground)
//Storyboard Sound Samples

[TimingPoints]
1170,329.67032967033,4,2,1,15,1,0
57873,326.086956521739,4,2,1,15,1,0
82655,322.58064516129,4,2,1,15,1,0
105880,329.67032967033,4,2,1,15,1,0
157308,326.086956521739,4,2,1,15,1,0
182090,322.58064516129,4,2,1,15,1,1

[HitObjects]
64,192,1170,5,0,0:0:0:0:
192,192,1170,1,0,0:0:0:0:
320,192,1334,1,0,0:0:0:0:
448,192,1499,1,0,0:0:0:0:
64,192,1664,1,0,0:0:0:0:
448,192,2159,1,0,0:0:0:0:
64,192,2488,1,0,0:0:0:0:
320,192,2488,1,0,0:0:0:0:
448,192,2653,1,0,0:0:0:0:
320,192,2818,1,0,0:0:0:0:
192,192,2983,1,0,0:0:0:0:
64,192,3477,1,0,0:0:0:0:
192,192,3807,1,0,0:0:0:0:
320,192,3807,1,0,0:0:0:0:
448,192,3972,1,0,0:0:0:0:
64,192,4137,1,0,0:0:0:0:
320,192,4301,1,0,0:0:0:0:
64,192,4796,1,0,0:0:0:0:
192,192,5126,1,0,0:0:0:0:
320,192,5455,1,0,0:0:0:0:
448,192,5785,1,0,0:0:0:0:
320,192,5867,1,0,0:0:0:0:
64,192,5950,1,0,0:0:0:0:
192,192,6032,1,0,0:0:0:0:
320,192,6115,1,0,0:0:0:0:
64,192,6279,1,0,0:0:0:0:
448,192,6279,1,0,0:0:0:0:
192,192,6444,1,0,0:0:0:0:
448,192,6444,1,0,0:0:0:0:
320,192,6444,1,0,0:0:0:0:
192,192,6774,1,0,0:0:0:0:
64,192,6774,1,0,0:0:0:0:
192,192,7104,1,0,0:0:0:0:
320,192,7104,1,0,0:0:0:0:
320,192,7433,1,0,0:0:0:0:
448,192,7433,1,0,0:0:0:0:
64,192,7763,1,0,0:0:0:0:
320,192,7763,1,0,0:0:0:0:
192,192,8093,1,0,0:0:0:0:
448,192,8093,1,0,0:0:0:0:
320,192,8422,1,0,0:0:0:0:
64,192,8422,1,0,0:0:0:0:
192,192,8752,1,0,0:0:0:0:
320,192,8752,1,0,0:0:0:0:
64,192,8917,1,0,0:0:0:0:
192,192,8917,1,0,0:0:0:0:
192,192,9082,1,0,0:0:0:0:
64,192,9082,1,0,0:0:0:0:
64,192,9411,1,0,0:0:0:0:
320,192,9411,1,0,0:0:0:0:
320,192,9576,1,0,0:0:0:0:
448,192,9576,1,0,0:0:0:0:
448,192,9741,1,0,0:0:0:0:
320,192,9741,1,0,0:0:0:0:
320,192,10071,1,0,0:0:0:0:
192,192,10071,1,0,0:0:0:0:
448,192,10235,1,0,0:0:0:0:
192,192,10235,1,0,0:0:0:0:
64,192,10235,1,0,0:0:0:0:
192,192,10400,1,0,0:0:0:0:
448,192,10400,1,0,0:0:0:0:
64,192,10565,1,0,0:0:0:0:
320,192,10565,1,0,0:0:0:0:
448,192,10565,1,0,0:0:0:0:
64,192,10730,1,0,0:0:0:0:
320,192,10730,1,0,0:0:0:0:
192,192,10895,1,0,0:0:0:0:
320,192,10895,1,0,0:0:0:0:
320,192,11060,1,0,0:0:0:0:
448,192,11060,1,0,0:0:0:0:
192,192,11142,1,0,0:0:0:0:
64,192,11142,1,0,0:0:0:0:
320,192,11307,1,0,0:0:0:0:
448,192,11307,1,0,0:0:0:0:
192,192,11389,1,0,0:0:0:0:
64,192,11389,1,0,0:0:0:0:
320,192,11554,1,0,0:0:0:0:
448,192,11554,1,0,0:0:0:0:
64,192,11637,128,0,12213:0:0:0:0:
448,192,12213,1,0,0:0:0:0:
320,192,12296,1,0,0:0:0:0:
192,192,12378,1,0,0:0:0:0:
64,192,12461,1,0,0:0:0:0:
448,192,12543,1,0,0:0:0:0:
320,192,12626,1,0,0:0:0:0:
192,192,12708,1,0,0:0:0:0:
64,192,12790,1,0,0:0:0:0:
192,192,13038,1,0,0:0:0:0:
320,192,13038,1,0,0:0:0:0:
448,192,13202,1,0,0:0:0:0:
64,192,13202,1,0,0:0:0:0:
192,192,13367,1,0,0:0:0:0:
448,192,13367,1,0,0:0:0:0:
64,192,13532,1,0,0:0:0:0:
192,192,13532,1,0,0:0:0:0:
320,192,13697,1,0,0:0:0:0:
64,192,13697,1,0,0:0:0:0:
448,192,13862,1,0,0:0:0:0:
320,192,13862,1,0,0:0:0:0:
192,192,14027,1,0,0:0:0:0:
448,192,14027,1,0,0:0:0:0:
64,192,14191,1,0,0:0:0:0:
320,192,14191,1,0,0:0:0:0:
192,192,14356,1,0,0:0:0:0:
320,192,14356,1,0,0:0:0:0:
64,192,14521,1,0,0:0:0:0:
320,192,14521,1,0,0:0:0:0:
192,192,14686,1,0,0:0:0:0:
448,192,14686,1,0,0:0:0:0:
320,192,14851,1,0,0:0:0:0:
64,192,14851,1,0,0:0:0:0:
448,192,15016,1,0,0:0:0:0:
320,192,15016,1,0,0:0:0:0:
320,192,15180,1,0,0:0:0:0:
192,192,15180,1,0,0:0:0:0:
192,192,15345,1,0,0:0:0:0:
64,192,15345,1,0,0:0:0:0:
192,192,15510,1,0,0:0:0:0:
320,192,15510,1,0,0:0:0:0:
448,192,15675,1,0,0:0:0:0:
64,192,15675,1,0,0:0:0:0:
448,192,15840,1,0,0:0:0:0:
192,192,15840,1,0,0:0:0:0:
448,192,16005,1,0,0:0:0:0:
320,192,16005,1,0,0:0:0:0:
448,192,16170,1,0,0:0:0:0:
192,192,16170,1,0,0:0:0:0:
448,192,16334,1,0,0:0:0:0:
64,192,16334,1,0,0:0:0:0:
64,192,16499,1,0,0:0:0:0:
320,192,16499,1,0,0:0:0:0:
64,192,16664,1,0,0:0:0:0:
192,192,16664,1,0,0:0:0:0:
64,192,16829,1,0,0:0:0:0:
320,192,16829,1,0,0:0:0:0:
64,192,16994,1,0,0:0:0:0:
448,192,16994,1,0,0:0:0:0:
192,192,17159,1,0,0:0:0:0:
320,192,17159,1,0,0:0:0:0:
64,192,17323,1,0,0:0:0:0:
448,192,17323,1,0,0:0:0:0:
192,192,17488,1,0,0:0:0:0:
320,192,17488,1,0,0:0:0:0:
64,192,17653,1,0,0:0:0:0:
192,192,17653,1,0,0:0:0:0:
320,192,17818,1,0,0:0:0:0:
448,192,17818,1,0,0:0:0:0:
64,192,17983,1,0,0:0:0:0:
192,192,17983,1,0,0:0:0:0:
320,192,18148,1,0,0:0:0:0:
448,192,18148,1,0,0:0:0:0:
64,192,18312,1,0,0:0:0:0:
320,192,18312,1,0,0:0:0:0:
192,192,18312,1,0,0:0:0:0:
192,192,18477,1,0,0:0:0:0:
64,192,18477,1,0,0:0:0:0:
448,192,18642,1,0,0:0:0:0:
320,192,18642,1,0,0:0:0:0:
64,192,18807,1,0,0:0:0:0:
320,192,18807,1,0,0:0:0:0:
192,192,18972,1,0,0:0:0:0:
448,192,18972,1,0,0:0:0:0:
320,192,19137,1,0,0:0:0:0:
192,192,19137,1,0,0:0:0:0:
64,192,19301,1,0,0:0:0:0:
320,192,19301,1,0,0:0:0:0:
192,192,19466,1,0,0:0:0:0:
448,192,19466,1,0,0:0:0:0:
64,192,19631,1,0,0:0:0:0:
192,192,19631,1,0,0:0:0:0:
192,192,19796,1,0,0:0:0:0:
320,192,19796,1,0,0:0:0:0:
320,192,19961,1,0,0:0:0:0:
448,192,19961,1,0,0:0:0:0:
64,192,20126,1,0,0:0:0:0:
192,192,20126,1,0,0:0:0:0:
192,192,20290,1,0,0:0:0:0:
320,192,20290,1,0,0:0:0:0:
320,192,20455,1,0,0:0:0:0:
448,192,20455,1,0,0:0:0:0:
64,192,20620,1,0,0:0:0:0:
192,192,20620,1,0,0:0:0:0:
192,192,20785,1,0,0:0:0:0:
320,192,20785,1,0,0:0:0:0:
320,192,20950,1,0,0:0:0:0:
448,192,20950,1,0,0:0:0:0:
192,192,21115,1,0,0:0:0:0:
64,192,21115,1,0,0:0:0:0:
192,192,21279,1,0,0:0:0:0:
448,192,21279,1,0,0:0:0:0:
64,192,21444,1,0,0:0:0:0:
320,192,21444,1,0,0:0:0:0:
192,192,21609,1,0,0:0:0:0:
320,192,21609,1,0,0:0:0:0:
64,192,21774,1,0,0:0:0:0:
448,192,21774,1,0,0:0:0:0:
192,192,21939,1,0,0:0:0:0:
320,192,21939,1,0,0:0:0:0:
64,192,22104,1,0,0:0:0:0:
448,192,22104,1,0,0:0:0:0:
448,192,22268,1,0,0:0:0:0:
320,192,22268,1,0,0:0:0:0:
64,192,22433,1,0,0:0:0:0:
192,192,22433,1,0,0:0:0:0:
320,192,22598,1,0,0:0:0:0:
448,192,22598,1,0,0:0:0:0:
64,192,22763,1,0,0:0:0:0:
192,192,22763,1,0,0:0:0:0:
320,192,22928,1,0,0:0:0:0:
448,192,22928,1,0,0:0:0:0:
192,192,23010,1,0,0:0:0:0:
64,192,23010,1,0,0:0:0:0:
320,192,23175,1,0,0:0:0:0:
448,192,23175,1,0,0:0:0:0:
192,192,23257,1,0,0:0:0:0:
64,192,23257,1,0,0:0:0:0:
320,192,23422,1,0,0:0:0:0:
448,192,23422,1,0,0:0:0:0:
448,192,23587,1,0,0:0:0:0:
192,192,23587,1,0,0:0:0:0:
64,192,23587,1,0,0:0:0:0:
320,192,23670,1,0,0:0:0:0:
192,192,23752,1,0,0:0:0:0:
64,192,23752,1,0,0:0:0:0:
320,192,23834,1,0,0:0:0:0:
448,192,23917,1,0,0:0:0:0:
192,192,23917,1,0,0:0:0:0:
64,192,23999,1,0,0:0:0:0:
192,192,24082,1,0,0:0:0:0:
448,192,24082,1,0,0:0:0:0:
320,192,24164,1,0,0:0:0:0:
192,192,24246,1,0,0:0:0:0:
448,192,24246,1,0,0:0:0:0:
64,192,24329,1,0,0:0:0:0:
320,192,24411,1,0,0:0:0:0:
192,192,24411,1,0,0:0:0:0:
448,192,24494,1,0,0:0:0:0:
320,192,24576,1,0,0:0:0:0:
64,192,24576,1,0,0:0:0:0:
192,192,24659,1,0,0:0:0:0:
320,192,24741,1,0,0:0:0:0:
448,192,24741,1,0,0:0:0:0:
64,192,24823,1,0,0:0:0:0:
448,192,24906,1,0,0:0:0:0:
192,192,24906,1,0,0:0:0:0:
64,192,24988,1,0,0:0:0:0:
320,192,25071,1,0,0:0:0:0:
192,192,25071,1,0,0:0:0:0:
448,192,25153,1,0,0:0:0:0:
320,192,25235,1,0,0:0:0:0:
64,192,25235,1,0,0:0:0:0:
192,192,25318,1,0,0:0:0:0:
64,192,25400,1,0,0:0:0:0:
448,192,25400,1,0,0:0:0:0:
192,192,25483,1,0,0:0:0:0:
320,192,25565,1,0,0:0:0:0:
448,192,25565,1,0,0:0:0:0:
192,192,25648,1,0,0:0:0:0:
320,192,25730,1,0,0:0:0:0:
64,192,25730,1,0,0:0:0:0:
192,192,25812,1,0,0:0:0:0:
320,192,25895,1,0,0:0:0:0:
448,192,25895,1,0,0:0:0:0:
192,192,25977,1,0,0:0:0:0:
64,192,26060,1,0,0:0:0:0:
448,192,26060,1,0,0:0:0:0:
320,192,26142,1,0,0:0:0:0:
192,192,26224,1,0,0:0:0:0:
64,192,26224,1,0,0:0:0:0:
320,192,26307,1,0,0:0:0:0:
448,192,26389,1,0,0:0:0:0:
64,192,26389,1,0,0:0:0:0:
192,192,26472,1,0,0:0:0:0:
448,192,26554,1,0,0:0:0:0:
320,192,26554,1,0,0:0:0:0:
192,192,26637,1,0,0:0:0:0:
320,192,26719,1,0,0:0:0:0:
64,192,26719,1,0,0:0:0:0:
448,192,26801,1,0,0:0:0:0:
320,192,26884,1,0,0:0:0:0:
192,192,26884,1,0,0:0:0:0:
64,192,26966,1,0,0:0:0:0:
448,192,27049,1,0,0:0:0:0:
192,192,27049,1,0,0:0:0:0:
64,192,27131,1,0,0:0:0:0:
192,192,27213,1,0,0:0:0:0:
320,192,27213,1,0,0:0:0:0:
448,192,27296,1,0,0:0:0:0:
320,192,27378,1,0,0:0:0:0:
192,192,27378,1,0,0:0:0:0:
64,192,27461,1,0,0:0:0:0:
192,192,27543,1,0,0:0:0:0:
448,192,27543,1,0,0:0:0:0:
320,192,27626,1,0,0:0:0:0:
192,192,27708,1,0,0:0:0:0:
64,192,27708,1,0,0:0:0:0:
320,192,27790,1,0,0:0:0:0:
64,192,27873,1,0,0:0:0:0:
448,192,27873,1,0,0:0:0:0:
192,192,27955,1,0,0:0:0:0:
320,192,28038,1,0,0:0:0:0:
448,192,28038,1,0,0:0:0:0:
192,192,28120,1,0,0:0:0:0:
448,192,28202,1,0,0:0:0:0:
64,192,28202,1,0,0:0:0:0:
192,192,28367,1,0,0:0:0:0:
320,192,28367,1,0,0:0:0:0:
448,192,28532,1,0,0:0:0:0:
64,192,28532,1,0,0:0:0:0:
192,192,28697,1,0,0:0:0:0:
320,192,28697,1,0,0:0:0:0:
448,192,28862,1,0,0:0:0:0:
64,192,28862,1,0,0:0:0:0:
192,192,28944,1,0,0:0:0:0:
320,192,29027,1,0,0:0:0:0:
448,192,29027,1,0,0:0:0:0:
192,192,29109,1,0,0:0:0:0:
64,192,29191,1,0,0:0:0:0:
320,192,29191,1,0,0:0:0:0:
448,192,29274,1,0,0:0:0:0:
320,192,29356,1,0,0:0:0:0:
192,192,29356,1,0,0:0:0:0:
64,192,29439,1,0,0:0:0:0:
448,192,29521,1,0,0:0:0:0:
192,192,29521,1,0,0:0:0:0:
320,192,29604,1,0,0:0:0:0:
192,192,29686,1,0,0:0:0:0:
64,192,29686,1,0,0:0:0:0:
320,192,29768,1,0,0:0:0:0:
192,192,29851,1,0,0:0:0:0:
448,192,29851,1,0,0:0:0:0:
320,192,29933,1,0,0:0:0:0:
448,192,30016,1,0,0:0:0:0:
64,192,30016,1,0,0:0:0:0:
192,192,30098,1,0,0:0:0:0:
320,192,30180,1,0,0:0:0:0:
448,192,30180,1,0,0:0:0:0:
192,192,30263,1,0,0:0:0:0:
64,192,30345,1,0,0:0:0:0:
320,192,30345,1,0,0:0:0:0:
448,192,30428,1,0,0:0:0:0:
64,192,30510,1,0,0:0:0:0:
192,192,30510,1,0,0:0:0:0:
448,192,30593,1,0,0:0:0:0:
320,192,30675,1,0,0:0:0:0:
64,192,30675,1,0,0:0:0:0:
192,192,30757,1,0,0:0:0:0:
64,192,30840,1,0,0:0:0:0:
448,192,30840,1,0,0:0:0:0:
192,192,31005,1,0,0:0:0:0:
320,192,31005,1,0,0:0:0:0:
192,192,31334,1,0,0:0:0:0:
320,192,31334,1,0,0:0:0:0:
448,192,31499,1,0,0:0:0:0:
64,192,31499,1,0,0:0:0:0:
192,192,31582,1,0,0:0:0:0:
64,192,31664,1,0,0:0:0:0:
320,192,31664,1,0,0:0:0:0:
192,192,31746,1,0,0:0:0:0:
320,192,31829,1,0,0:0:0:0:
448,192,31829,1,0,0:0:0:0:
192,192,31911,1,0,0:0:0:0:
64,192,31994,1,0,0:0:0:0:
448,192,31994,1,0,0:0:0:0:
192,192,32076,1,0,0:0:0:0:
320,192,32159,1,0,0:0:0:0:
448,192,32159,1,0,0:0:0:0:
192,192,32241,1,0,0:0:0:0:
64,192,32323,1,0,0:0:0:0:
320,192,32323,1,0,0:0:0:0:
192,192,32406,1,0,0:0:0:0:
64,192,32488,1,0,0:0:0:0:
448,192,32488,1,0,0:0:0:0:
320,192,32571,1,0,0:0:0:0:
192,192,32653,1,0,0:0:0:0:
64,192,32653,1,0,0:0:0:0:
320,192,32735,1,0,0:0:0:0:
448,192,32818,1,0,0:0:0:0:
64,192,32818,1,0,0:0:0:0:
192,192,32818,1,0,0:0:0:0:
192,192,32983,1,0,0:0:0:0:
320,192,32983,1,0,0:0:0:0:
448,192,32983,1,0,0:0:0:0:
64,192,33148,1,0,0:0:0:0:
192,192,33148,1,0,0:0:0:0:
320,192,33148,1,0,0:0:0:0:
192,192,33312,1,0,0:0:0:0:
448,192,33312,1,0,0:0:0:0:
64,192,33312,1,0,0:0:0:0:
320,192,33477,1,0,0:0:0:0:
448,192,33477,1,0,0:0:0:0:
192,192,33560,1,0,0:0:0:0:
64,192,33560,1,0,0:0:0:0:
64,192,33724,1,0,0:0:0:0:
448,192,33724,1,0,0:0:0:0:
320,192,33807,1,0,0:0:0:0:
192,192,33807,1,0,0:0:0:0:
64,192,33972,1,0,0:0:0:0:
192,192,33972,1,0,0:0:0:0:
64,192,34137,128,0,34219:0:0:0:0:
448,192,34301,128,0,34384:0:0:0:0:
192,192,34466,128,0,34549:0:0:0:0:
320,192,34631,128,0,34713:0:0:0:0:
64,192,34796,128,0,34878:0:0:0:0:
448,192,34878,128,0,34961:0:0:0:0:
320,192,34961,128,0,35043:0:0:0:0:
192,192,35043,128,0,35126:0:0:0:0:
448,192,35126,128,0,35208:0:0:0:0:
64,192,35208,128,0,35290:0:0:0:0:
192,192,35290,128,0,35373:0:0:0:0:
448,192,35455,1,0,0:0:0:0:
320,192,35455,1,0,0:0:0:0:
64,192,35455,1,0,0:0:0:0:
192,192,35620,128,0,35702:0:0:0:0:
320,192,35785,128,0,35867:0:0:0:0:
192,192,35867,128,0,35950:0:0:0:0:
64,192,35950,128,0,36032:0:0:0:0:
320,192,36115,1,0,0:0:0:0:
448,192,36115,1,0,0:0:0:0:
192,192,36197,1,0,0:0:0:0:
64,192,36197,1,0,0:0:0:0:
320,192,36279,1,0,0:0:0:0:
448,192,36279,1,0,0:0:0:0:
192,192,36362,1,0,0:0:0:0:
64,192,36362,1,0,0:0:0:0:
320,192,36444,1,0,0:0:0:0:
448,192,36444,128,0,36527:0:0:0:0:
64,192,36609,128,0,36691:0:0:0:0:
192,192,36939,128,0,37021:0:0:0:0:
64,192,37104,1,0,0:0:0:0:
320,192,37104,1,0,0:0:0:0:
192,192,37186,1,0,0:0:0:0:
448,192,37186,1,0,0:0:0:0:
320,192,37268,1,0,0:0:0:0:
64,192,37268,1,0,0:0:0:0:
64,192,37433,1,0,0:0:0:0:
448,192,37433,1,0,0:0:0:0:
320,192,37516,1,0,0:0:0:0:
192,192,37516,1,0,0:0:0:0:
64,192,37598,1,0,0:0:0:0:
448,192,37598,1,0,0:0:0:0:
320,192,37680,1,0,0:0:0:0:
192,192,37680,1,0,0:0:0:0:
448,192,37763,1,0,0:0:0:0:
64,192,37763,128,0,37845:0:0:0:0:
320,192,37928,128,0,38010:0:0:0:0:
192,192,38257,128,0,38340:0:0:0:0:
320,192,38422,1,0,0:0:0:0:
448,192,38422,1,0,0:0:0:0:
192,192,38505,1,0,0:0:0:0:
64,192,38505,1,0,0:0:0:0:
320,192,38587,1,0,0:0:0:0:
448,192,38587,1,0,0:0:0:0:
64,192,38752,1,0,0:0:0:0:
448,192,38752,1,0,0:0:0:0:
320,192,38834,1,0,0:0:0:0:
192,192,38834,1,0,0:0:0:0:
64,192,38917,1,0,0:0:0:0:
448,192,38917,1,0,0:0:0:0:
64,192,39082,128,0,39246:0:0:0:0:
192,192,39246,128,0,39411:0:0:0:0:
448,192,39411,128,0,39741:0:0:0:0:
192,192,39741,128,0,39906:0:0:0:0:
320,192,39906,128,0,40071:0:0:0:0:
64,192,40235,128,0,40565:0:0:0:0:
320,192,40235,1,0,0:0:0:0:
448,192,40235,1,0,0:0:0:0:
448,192,40400,1,0,0:0:0:0:
320,192,40400,1,0,0:0:0:0:
320,192,40565,1,0,0:0:0:0:
448,192,40565,1,0,0:0:0:0:
192,192,40730,1,0,0:0:0:0:
320,192,40730,1,0,0:0:0:0:
448,192,40730,1,0,0:0:0:0:
64,192,40895,128,0,40977:0:0:0:0:
320,192,41060,128,0,41142:0:0:0:0:
448,192,41224,128,0,41307:0:0:0:0:
64,192,41389,1,0,0:0:0:0:
192,192,41389,1,0,0:0:0:0:
320,192,41472,1,0,0:0:0:0:
448,192,41472,1,0,0:0:0:0:
192,192,41554,1,0,0:0:0:0:
64,192,41554,128,0,41719:0:0:0:0:
320,192,41884,128,0,42049:0:0:0:0:
64,192,42213,1,0,0:0:0:0:
448,192,42213,1,0,0:0:0:0:
320,192,42296,1,0,0:0:0:0:
192,192,42296,1,0,0:0:0:0:
64,192,42378,1,0,0:0:0:0:
448,192,42378,1,0,0:0:0:0:
192,192,42461,1,0,0:0:0:0:
320,192,42461,1,0,0:0:0:0:
64,192,42543,128,0,42626:0:0:0:0:
448,192,42543,128,0,42626:0:0:0:0:
192,192,42626,128,0,42708:0:0:0:0:
320,192,42626,128,0,42708:0:0:0:0:
64,192,42708,128,0,42790:0:0:0:0:
320,192,42873,128,0,43038:0:0:0:0:
448,192,42873,1,0,0:0:0:0:
192,192,43202,128,0,43367:0:0:0:0:
64,192,43202,1,0,0:0:0:0:
448,192,43532,128,0,43615:0:0:0:0:
192,192,43697,1,0,0:0:0:0:
64,192,43697,1,0,0:0:0:0:
320,192,43779,1,0,0:0:0:0:
448,192,43779,1,0,0:0:0:0:
192,192,43862,1,0,0:0:0:0:
64,192,43862,128,0,43944:0:0:0:0:
448,192,44027,128,0,44191:0:0:0:0:
192,192,44191,128,0,44356:0:0:0:0:
64,192,44521,128,0,44604:0:0:0:0:
192,192,44686,1,0,0:0:0:0:
448,192,44686,1,0,0:0:0:0:
64,192,44851,1,0,0:0:0:0:
320,192,44851,1,0,0:0:0:0:
320,192,45016,1,0,0:0:0:0:
448,192,45016,1,0,0:0:0:0:
64,192,45180,1,0,0:0:0:0:
192,192,45180,1,0,0:0:0:0:
448,192,45345,1,0,0:0:0:0:
64,192,45345,1,0,0:0:0:0:
192,192,45428,1,0,0:0:0:0:
320,192,45428,1,0,0:0:0:0:
448,192,45593,1,0,0:0:0:0:
320,192,45593,1,0,0:0:0:0:
192,192,45675,1,0,0:0:0:0:
64,192,45675,1,0,0:0:0:0:
64,192,45840,1,0,0:0:0:0:
448,192,45840,1,0,0:0:0:0:
64,192,46005,1,0,0:0:0:0:
320,192,46005,1,0,0:0:0:0:
192,192,46005,1,0,0:0:0:0:
448,192,46087,1,0,0:0:0:0:
320,192,46170,1,0,0:0:0:0:
192,192,46252,1,0,0:0:0:0:
64,192,46334,1,0,0:0:0:0:
448,192,46334,1,0,0:0:0:0:
320,192,46417,1,0,0:0:0:0:
192,192,46499,1,0,0:0:0:0:
320,192,46582,1,0,0:0:0:0:
192,192,46664,1,0,0:0:0:0:
64,192,46664,1,0,0:0:0:0:
320,192,46746,1,0,0:0:0:0:
448,192,46829,1,0,0:0:0:0:
64,192,46911,1,0,0:0:0:0:
192,192,46994,1,0,0:0:0:0:
320,192,46994,1,0,0:0:0:0:
448,192,47076,1,0,0:0:0:0:
64,192,47159,1,0,0:0:0:0:
192,192,47241,1,0,0:0:0:0:
320,192,47323,1,0,0:0:0:0:
448,192,47323,1,0,0:0:0:0:
192,192,47406,1,0,0:0:0:0:
64,192,47406,1,0,0:0:0:0:
320,192,47488,1,0,0:0:0:0:
448,192,47488,1,0,0:0:0:0:
192,192,47571,1,0,0:0:0:0:
64,192,47571,1,0,0:0:0:0:
320,192,47653,1,0,0:0:0:0:
448,192,47653,1,0,0:0:0:0:
192,192,47735,1,0,0:0:0:0:
64,192,47735,1,0,0:0:0:0:
320,192,47818,1,0,0:0:0:0:
448,192,47900,1,0,0:0:0:0:
64,192,47983,1,0,0:0:0:0:
192,192,47983,1,0,0:0:0:0:
448,192,48065,1,0,0:0:0:0:
320,192,48148,1,0,0:0:0:0:
192,192,48230,1,0,0:0:0:0:
448,192,48312,1,0,0:0:0:0:
320,192,48312,1,0,0:0:0:0:
64,192,48395,1,0,0:0:0:0:
192,192,48477,1,0,0:0:0:0:
320,192,48560,1,0,0:0:0:0:
448,192,48642,1,0,0:0:0:0:
192,192,48642,1,0,0:0:0:0:
64,192,48724,1,0,0:0:0:0:
448,192,48807,1,0,0:0:0:0:
320,192,48889,1,0,0:0:0:0:
192,192,48972,1,0,0:0:0:0:
64,192,48972,1,0,0:0:0:0:
320,192,49054,1,0,0:0:0:0:
448,192,49137,1,0,0:0:0:0:
64,192,49219,1,0,0:0:0:0:
192,192,49301,1,0,0:0:0:0:
320,192,49301,1,0,0:0:0:0:
64,192,49384,1,0,0:0:0:0:
448,192,49466,1,0,0:0:0:0:
320,192,49549,1,0,0:0:0:0:
192,192,49631,1,0,0:0:0:0:
64,192,49631,1,0,0:0:0:0:
320,192,49713,1,0,0:0:0:0:
448,192,49796,1,0,0:0:0:0:
320,192,49878,1,0,0:0:0:0:
64,192,49961,1,0,0:0:0:0:
448,192,49961,1,0,0:0:0:0:
320,192,50043,1,0,0:0:0:0:
192,192,50043,1,0,0:0:0:0:
64,192,50126,1,0,0:0:0:0:
448,192,50126,1,0,0:0:0:0:
320,192,50208,1,0,0:0:0:0:
192,192,50208,1,0,0:0:0:0:
64,192,50290,1,0,0:0:0:0:
448,192,50290,1,0,0:0:0:0:
320,192,50373,1,0,0:0:0:0:
192,192,50373,1,0,0:0:0:0:
64,192,50455,1,0,0:0:0:0:
192,192,50538,1,0,0:0:0:0:
320,192,50620,1,0,0:0:0:0:
448,192,50620,1,0,0:0:0:0:
64,192,50785,1,0,0:0:0:0:
320,192,50785,1,0,0:0:0:0:
192,192,50950,1,0,0:0:0:0:
320,192,50950,1,0,0:0:0:0:
320,192,51115,1,0,0:0:0:0:
448,192,51115,1,0,0:0:0:0:
64,192,51279,1,0,0:0:0:0:
192,192,51279,1,0,0:0:0:0:
320,192,51279,1,0,0:0:0:0:
448,192,51362,1,0,0:0:0:0:
320,192,51444,1,0,0:0:0:0:
192,192,51527,1,0,0:0:0:0:
64,192,51609,1,0,0:0:0:0:
320,192,51609,1,0,0:0:0:0:
448,192,51691,1,0,0:0:0:0:
64,192,51774,1,0,0:0:0:0:
192,192,51856,1,0,0:0:0:0:
320,192,51939,1,0,0:0:0:0:
448,192,51939,1,0,0:0:0:0:
192,192,52021,1,0,0:0:0:0:
64,192,52104,1,0,0:0:0:0:
448,192,52186,1,0,0:0:0:0:
320,192,52268,1,0,0:0:0:0:
192,192,52268,1,0,0:0:0:0:
64,192,52351,1,0,0:0:0:0:
448,192,52433,1,0,0:0:0:0:
320,192,52516,1,0,0:0:0:0:
192,192,52598,1,0,0:0:0:0:
64,192,52598,1,0,0:0:0:0:
320,192,52680,1,0,0:0:0:0:
448,192,52680,1,0,0:0:0:0:
192,192,52763,1,0,0:0:0:0:
64,192,52763,1,0,0:0:0:0:
320,192,52845,1,0,0:0:0:0:
448,192,52845,1,0,0:0:0:0:
192,192,52928,1,0,0:0:0:0:
64,192,52928,1,0,0:0:0:0:
320,192,53010,1,0,0:0:0:0:
448,192,53010,1,0,0:0:0:0:
192,192,53093,1,0,0:0:0:0:
64,192,53093,1,0,0:0:0:0:
448,192,53175,1,0,0:0:0:0:
64,192,53175,1,0,0:0:0:0:
192,192,53257,1,0,0:0:0:0:
320,192,53257,1,0,0:0:0:0:
64,192,53340,1,0,0:0:0:0:
448,192,53340,1,0,0:0:0:0:
320,192,53422,1,0,0:0:0:0:
192,192,53422,1,0,0:0:0:0:
64,192,53505,1,0,0:0:0:0:
448,192,53505,1,0,0:0:0:0:
192,192,53587,1,0,0:0:0:0:
320,192,53587,128,0,53917:0:0:0:0:
64,192,53917,128,0,54082:0:0:0:0:
448,192,54082,128,0,54246:0:0:0:0:
192,192,54246,128,0,54411:0:0:0:0:
64,192,54411,128,0,54576:0:0:0:0:
320,192,54576,128,0,54741:0:0:0:0:
448,192,54741,128,0,54906:0:0:0:0:
192,192,54906,128,0,55071:0:0:0:0:
64,192,55071,128,0,55235:0:0:0:0:
192,192,55235,1,0,0:0:0:0:
448,192,55235,1,0,0:0:0:0:
320,192,55235,1,0,0:0:0:0:
64,192,55400,1,0,0:0:0:0:
192,192,55400,1,0,0:0:0:0:
320,192,55400,1,0,0:0:0:0:
448,192,55400,1,0,0:0:0:0:
448,192,55730,1,0,0:0:0:0:
320,192,55730,1,0,0:0:0:0:
192,192,55730,1,0,0:0:0:0:
64,192,55730,1,0,0:0:0:0:
64,192,55895,1,0,0:0:0:0:
192,192,55895,1,0,0:0:0:0:
320,192,55895,1,0,0:0:0:0:
448,192,55895,1,0,0:0:0:0:
320,192,56224,1,0,0:0:0:0:
448,192,56224,1,0,0:0:0:0:
192,192,56224,1,0,0:0:0:0:
64,192,56224,1,0,0:0:0:0:
64,192,56389,1,0,0:0:0:0:
192,192,56389,1,0,0:0:0:0:
320,192,56389,1,0,0:0:0:0:
448,192,56389,1,0,0:0:0:0:
448,192,56719,1,0,0:0:0:0:
320,192,56719,1,0,0:0:0:0:
192,192,56719,1,0,0:0:0:0:
64,192,56719,1,0,0:0:0:0:
64,192,56884,1,0,0:0:0:0:
192,192,56884,1,0,0:0:0:0:
320,192,56884,1,0,0:0:0:0:
448,192,56884,1,0,0:0:0:0:
192,192,57213,1,0,0:0:0:0:
320,192,57213,1,0,0:0:0:0:
448,192,57213,1,0,0:0:0:0:
64,192,57213,1,0,0:0:0:0:
64,192,57873,1,0,0:0:0:0:
320,192,57873,1,0,0:0:0:0:
320,192,58036,1,0,0:0:0:0:
192,192,58036,1,0,0:0:0:0:
448,192,58199,1,0,0:0:0:0:
64,192,58199,1,0,0:0:0:0:
64,192,58362,1,0,0:0:0:0:
192,192,58362,1,0,0:0:0:0:
320,192,58525,1,0,0:0:0:0:
192,192,58525,1,0,0:0:0:0:
448,192,58688,1,0,0:0:0:0:
64,192,58688,1,0,0:0:0:0:
192,192,58851,1,0,0:0:0:0:
320,192,58851,1,0,0:0:0:0:
64,192,59014,1,0,0:0:0:0:
320,192,59014,1,0,0:0:0:0:
192,192,59177,1,0,0:0:0:0:
448,192,59177,1,0,0:0:0:0:
320,192,59340,1,0,0:0:0:0:
192,192,59340,1,0,0:0:0:0:
64,192,59503,1,0,0:0:0:0:
448,192,59503,1,0,0:0:0:0:
448,192,59666,1,0,0:0:0:0:
192,192,59666,1,0,0:0:0:0:
192,192,59829,1,0,0:0:0:0:
64,192,59829,1,0,0:0:0:0:
448,192,59992,1,0,0:0:0:0:
320,192,59992,1,0,0:0:0:0:
64,192,60155,1,0,0:0:0:0:
192,192,60155,1,0,0:0:0:0:
64,192,60318,1,0,0:0:0:0:
320,192,60318,1,0,0:0:0:0:
448,192,60481,1,0,0:0:0:0:
320,192,60481,1,0,0:0:0:0:
448,192,60644,1,0,0:0:0:0:
192,192,60644,1,0,0:0:0:0:
448,192,60807,1,0,0:0:0:0:
64,192,60807,1,0,0:0:0:0:
64,192,60970,1,0,0:0:0:0:
192,192,60970,1,0,0:0:0:0:
64,192,61133,1,0,0:0:0:0:
320,192,61133,1,0,0:0:0:0:
64,192,61296,1,0,0:0:0:0:
448,192,61296,1,0,0:0:0:0:
448,192,61459,1,0,0:0:0:0:
320,192,61459,1,0,0:0:0:0:
448,192,61623,1,0,0:0:0:0:
192,192,61623,1,0,0:0:0:0:
448,192,61786,1,0,0:0:0:0:
64,192,61786,1,0,0:0:0:0:
320,192,61949,1,0,0:0:0:0:
192,192,61949,1,0,0:0:0:0:
64,192,62112,1,0,0:0:0:0:
448,192,62112,1,0,0:0:0:0:
320,192,62275,1,0,0:0:0:0:
192,192,62275,1,0,0:0:0:0:
448,192,62438,1,0,0:0:0:0:
320,192,62438,1,0,0:0:0:0:
192,192,62601,1,0,0:0:0:0:
64,192,62601,1,0,0:0:0:0:
320,192,62764,1,0,0:0:0:0:
448,192,62764,1,0,0:0:0:0:
192,192,62927,1,0,0:0:0:0:
64,192,62927,1,0,0:0:0:0:
448,192,63090,1,0,0:0:0:0:
192,192,63090,1,0,0:0:0:0:
320,192,63090,1,0,0:0:0:0:
64,192,63253,1,0,0:0:0:0:
192,192,63253,1,0,0:0:0:0:
320,192,63416,1,0,0:0:0:0:
192,192,63416,1,0,0:0:0:0:
448,192,63579,1,0,0:0:0:0:
64,192,63579,1,0,0:0:0:0:
192,192,63742,1,0,0:0:0:0:
448,192,63742,1,0,0:0:0:0:
64,192,63905,1,0,0:0:0:0:
320,192,63905,1,0,0:0:0:0:
192,192,64068,1,0,0:0:0:0:
320,192,64068,1,0,0:0:0:0:
64,192,64231,1,0,0:0:0:0:
448,192,64231,1,0,0:0:0:0:
448,192,64394,1,0,0:0:0:0:
320,192,64394,1,0,0:0:0:0:
320,192,64557,1,0,0:0:0:0:
192,192,64557,1,0,0:0:0:0:
64,192,64720,1,0,0:0:0:0:
192,192,64720,1,0,0:0:0:0:
192,192,64883,1,0,0:0:0:0:
320,192,64883,1,0,0:0:0:0:
448,192,65046,1,0,0:0:0:0:
320,192,65046,1,0,0:0:0:0:
192,192,65209,1,0,0:0:0:0:
64,192,65209,1,0,0:0:0:0:
192,192,65373,1,0,0:0:0:0:
320,192,65373,1,0,0:0:0:0:
320,192,65536,1,0,0:0:0:0:
448,192,65536,1,0,0:0:0:0:
192,192,65699,1,0,0:0:0:0:
320,192,65699,1,0,0:0:0:0:
64,192,65862,1,0,0:0:0:0:
320,192,65862,1,0,0:0:0:0:
192,192,66025,1,0,0:0:0:0:
320,192,66025,1,0,0:0:0:0:
64,192,66188,1,0,0:0:0:0:
448,192,66188,1,0,0:0:0:0:
320,192,66351,1,0,0:0:0:0:
64,192,66351,1,0,0:0:0:0:
192,192,66514,1,0,0:0:0:0:
320,192,66514,1,0,0:0:0:0:
448,192,66677,1,0,0:0:0:0:
64,192,66677,1,0,0:0:0:0:
192,192,66840,1,0,0:0:0:0:
448,192,66840,1,0,0:0:0:0:
64,192,67003,1,0,0:0:0:0:
192,192,67003,1,0,0:0:0:0:
320,192,67166,1,0,0:0:0:0:
448,192,67166,1,0,0:0:0:0:
192,192,67329,1,0,0:0:0:0:
64,192,67329,1,0,0:0:0:0:
320,192,67492,1,0,0:0:0:0:
448,192,67492,1,0,0:0:0:0:
64,192,67655,1,0,0:0:0:0:
192,192,67655,1,0,0:0:0:0:
320,192,67737,1,0,0:0:0:0:
448,192,67737,1,0,0:0:0:0:
64,192,67900,1,0,0:0:0:0:
448,192,67900,1,0,0:0:0:0:
320,192,67981,1,0,0:0:0:0:
192,192,67981,1,0,0:0:0:0:
64,192,68144,1,0,0:0:0:0:
192,192,68185,1,0,0:0:0:0:
320,192,68226,1,0,0:0:0:0:
448,192,68267,1,0,0:0:0:0:
64,192,68307,1,0,0:0:0:0:
192,192,68307,1,0,0:0:0:0:
320,192,68389,1,0,0:0:0:0:
192,192,68470,1,0,0:0:0:0:
448,192,68470,1,0,0:0:0:0:
64,192,68552,1,0,0:0:0:0:
192,192,68633,1,0,0:0:0:0:
320,192,68633,1,0,0:0:0:0:
448,192,68715,1,0,0:0:0:0:
64,192,68796,1,0,0:0:0:0:
192,192,68796,1,0,0:0:0:0:
320,192,68878,1,0,0:0:0:0:
64,192,68959,1,0,0:0:0:0:
448,192,68959,1,0,0:0:0:0:
192,192,69041,1,0,0:0:0:0:
320,192,69123,1,0,0:0:0:0:
448,192,69123,1,0,0:0:0:0:
192,192,69204,1,0,0:0:0:0:
64,192,69286,1,0,0:0:0:0:
320,192,69286,1,0,0:0:0:0:
192,192,69367,1,0,0:0:0:0:
320,192,69449,1,0,0:0:0:0:
448,192,69449,1,0,0:0:0:0:
192,192,69530,1,0,0:0:0:0:
64,192,69612,1,0,0:0:0:0:
320,192,69612,1,0,0:0:0:0:
448,192,69693,1,0,0:0:0:0:
192,192,69775,1,0,0:0:0:0:
64,192,69775,1,0,0:0:0:0:
320,192,69856,1,0,0:0:0:0:
192,192,69938,1,0,0:0:0:0:
448,192,69938,1,0,0:0:0:0:
64,192,70019,1,0,0:0:0:0:
320,192,70101,1,0,0:0:0:0:
448,192,70101,1,0,0:0:0:0:
192,192,70182,1,0,0:0:0:0:
64,192,70264,1,0,0:0:0:0:
320,192,70264,1,0,0:0:0:0:
192,192,70345,1,0,0:0:0:0:
320,192,70427,1,0,0:0:0:0:
448,192,70427,1,0,0:0:0:0:
192,192,70508,1,0,0:0:0:0:
64,192,70590,1,0,0:0:0:0:
320,192,70590,1,0,0:0:0:0:
448,192,70671,1,0,0:0:0:0:
64,192,70753,1,0,0:0:0:0:
192,192,70753,1,0,0:0:0:0:
320,192,70834,1,0,0:0:0:0:
192,192,70916,1,0,0:0:0:0:
448,192,70916,1,0,0:0:0:0:
64,192,70998,1,0,0:0:0:0:
192,192,71079,1,0,0:0:0:0:
320,192,71079,1,0,0:0:0:0:
448,192,71161,1,0,0:0:0:0:
64,192,71242,1,0,0:0:0:0:
320,192,71242,1,0,0:0:0:0:
192,192,71324,1,0,0:0:0:0:
64,192,71405,1,0,0:0:0:0:
448,192,71405,1,0,0:0:0:0:
192,192,71487,1,0,0:0:0:0:
320,192,71568,1,0,0:0:0:0:
448,192,71568,1,0,0:0:0:0:
192,192,71650,1,0,0:0:0:0:
64,192,71731,1,0,0:0:0:0:
320,192,71731,1,0,0:0:0:0:
448,192,71813,1,0,0:0:0:0:
64,192,71894,1,0,0:0:0:0:
192,192,71894,1,0,0:0:0:0:
320,192,71976,1,0,0:0:0:0:
192,192,72057,1,0,0:0:0:0:
448,192,72057,1,0,0:0:0:0:
64,192,72139,1,0,0:0:0:0:
320,192,72220,1,0,0:0:0:0:
448,192,72220,1,0,0:0:0:0:
192,192,72302,1,0,0:0:0:0:
320,192,72383,1,0,0:0:0:0:
448,192,72383,1,0,0:0:0:0:
192,192,72465,1,0,0:0:0:0:
64,192,72546,1,0,0:0:0:0:
320,192,72546,1,0,0:0:0:0:
448,192,72628,1,0,0:0:0:0:
64,192,72709,1,0,0:0:0:0:
192,192,72709,1,0,0:0:0:0:
320,192,72791,1,0,0:0:0:0:
64,192,72873,1,0,0:0:0:0:
448,192,72873,1,0,0:0:0:0:
192,192,73036,1,0,0:0:0:0:
320,192,73036,1,0,0:0:0:0:
64,192,73199,1,0,0:0:0:0:
448,192,73199,1,0,0:0:0:0:
320,192,73362,1,0,0:0:0:0:
192,192,73362,1,0,0:0:0:0:
64,192,73525,1,0,0:0:0:0:
320,192,73525,1,0,0:0:0:0:
448,192,73525,1,0,0:0:0:0:
192,192,73606,1,0,0:0:0:0:
64,192,73688,1,0,0:0:0:0:
448,192,73688,1,0,0:0:0:0:
320,192,73769,1,0,0:0:0:0:
192,192,73851,1,0,0:0:0:0:
64,192,73851,1,0,0:0:0:0:
320,192,73932,1,0,0:0:0:0:
192,192,74014,1,0,0:0:0:0:
448,192,74014,1,0,0:0:0:0:
64,192,74095,1,0,0:0:0:0:
320,192,74177,1,0,0:0:0:0:
448,192,74177,1,0,0:0:0:0:
192,192,74258,1,0,0:0:0:0:
64,192,74340,1,0,0:0:0:0:
320,192,74340,1,0,0:0:0:0:
448,192,74421,1,0,0:0:0:0:
64,192,74503,1,0,0:0:0:0:
192,192,74503,1,0,0:0:0:0:
320,192,74584,1,0,0:0:0:0:
192,192,74666,1,0,0:0:0:0:
64,192,74666,1,0,0:0:0:0:
320,192,74748,1,0,0:0:0:0:
192,192,74829,1,0,0:0:0:0:
448,192,74829,1,0,0:0:0:0:
64,192,74911,1,0,0:0:0:0:
192,192,74992,1,0,0:0:0:0:
320,192,74992,1,0,0:0:0:0:
64,192,75074,1,0,0:0:0:0:
448,192,75155,1,0,0:0:0:0:
320,192,75155,1,0,0:0:0:0:
192,192,75237,1,0,0:0:0:0:
64,192,75318,1,0,0:0:0:0:
448,192,75318,1,0,0:0:0:0:
192,192,75400,1,0,0:0:0:0:
64,192,75481,1,0,0:0:0:0:
448,192,75481,1,0,0:0:0:0:
320,192,75563,1,0,0:0:0:0:
192,192,75644,1,0,0:0:0:0:
64,192,75644,1,0,0:0:0:0:
192,192,75970,1,0,0:0:0:0:
64,192,75970,1,0,0:0:0:0:
320,192,76133,1,0,0:0:0:0:
448,192,76133,1,0,0:0:0:0:
192,192,76215,1,0,0:0:0:0:
64,192,76296,1,0,0:0:0:0:
320,192,76296,1,0,0:0:0:0:
448,192,76378,1,0,0:0:0:0:
192,192,76459,1,0,0:0:0:0:
320,192,76459,1,0,0:0:0:0:
64,192,76541,1,0,0:0:0:0:
448,192,76623,1,0,0:0:0:0:
320,192,76623,1,0,0:0:0:0:
192,192,76704,1,0,0:0:0:0:
64,192,76786,1,0,0:0:0:0:
448,192,76786,1,0,0:0:0:0:
192,192,76867,1,0,0:0:0:0:
320,192,76949,1,0,0:0:0:0:
64,192,76949,1,0,0:0:0:0:
448,192,77030,1,0,0:0:0:0:
192,192,77112,1,0,0:0:0:0:
64,192,77112,1,0,0:0:0:0:
320,192,77193,1,0,0:0:0:0:
192,192,77275,1,0,0:0:0:0:
448,192,77275,1,0,0:0:0:0:
64,192,77356,1,0,0:0:0:0:
192,192,77438,1,0,0:0:0:0:
320,192,77438,1,0,0:0:0:0:
64,192,77601,1,0,0:0:0:0:
448,192,77601,1,0,0:0:0:0:
320,192,77764,1,0,0:0:0:0:
192,192,77764,1,0,0:0:0:0:
64,192,77927,1,0,0:0:0:0:
448,192,77927,1,0,0:0:0:0:
320,192,78090,1,0,0:0:0:0:
192,192,78090,1,0,0:0:0:0:
448,192,78171,1,0,0:0:0:0:
64,192,78171,1,0,0:0:0:0:
192,192,78334,1,0,0:0:0:0:
64,192,78334,1,0,0:0:0:0:
448,192,78416,1,0,0:0:0:0:
320,192,78416,1,0,0:0:0:0:
64,192,78579,1,0,0:0:0:0:
192,192,78579,1,0,0:0:0:0:
448,192,78742,1,0,0:0:0:0:
320,192,78824,1,0,0:0:0:0:
64,192,78905,1,0,0:0:0:0:
320,192,78987,1,0,0:0:0:0:
192,192,79068,1,0,0:0:0:0:
448,192,79150,1,0,0:0:0:0:
192,192,79231,1,0,0:0:0:0:
64,192,79313,1,0,0:0:0:0:
320,192,79394,1,0,0:0:0:0:
448,192,79476,1,0,0:0:0:0:
320,192,79557,1,0,0:0:0:0:
64,192,79639,1,0,0:0:0:0:
320,192,79720,1,0,0:0:0:0:
192,192,79802,1,0,0:0:0:0:
64,192,79883,1,0,0:0:0:0:
320,192,79965,1,0,0:0:0:0:
192,192,80046,1,0,0:0:0:0:
64,192,80087,1,0,0:0:0:0:
448,192,80128,1,0,0:0:0:0:
320,192,80169,1,0,0:0:0:0:
192,192,80209,1,0,0:0:0:0:
64,192,80250,1,0,0:0:0:0:
448,192,80291,1,0,0:0:0:0:
320,192,80332,1,0,0:0:0:0:
64,192,80373,1,0,0:0:0:0:
192,192,80413,1,0,0:0:0:0:
320,192,80454,1,0,0:0:0:0:
448,192,80495,1,0,0:0:0:0:
320,192,80536,1,0,0:0:0:0:
192,192,80576,1,0,0:0:0:0:
64,192,80617,1,0,0:0:0:0:
192,192,80658,1,0,0:0:0:0:
320,192,80699,1,0,0:0:0:0:
448,192,80699,1,0,0:0:0:0:
192,192,80739,1,0,0:0:0:0:
64,192,80739,1,0,0:0:0:0:
320,192,80780,1,0,0:0:0:0:
448,192,80780,1,0,0:0:0:0:
192,192,80821,1,0,0:0:0:0:
64,192,80821,1,0,0:0:0:0:
320,192,80862,1,0,0:0:0:0:
448,192,80862,1,0,0:0:0:0:
192,192,80902,1,0,0:0:0:0:
64,192,80902,1,0,0:0:0:0:
320,192,80943,1,0,0:0:0:0:
448,192,80943,1,0,0:0:0:0:
192,192,80984,1,0,0:0:0:0:
64,192,80984,1,0,0:0:0:0:
320,192,81025,1,0,0:0:0:0:
448,192,81025,1,0,0:0:0:0:
192,192,81106,1,0,0:0:0:0:
448,192,81188,1,0,0:0:0:0:
320,192,81269,1,0,0:0:0:0:
64,192,81351,1,0,0:0:0:0:
192,192,81351,1,0,0:0:0:0:
448,192,81351,1,0,0:0:0:0:
64,192,82655,1,0,0:0:0:0:
320,192,82655,1,0,0:0:0:0:
320,192,82816,1,0,0:0:0:0:
192,192,82816,1,0,0:0:0:0:
64,192,82977,1,0,0:0:0:0:
448,192,82977,1,0,0:0:0:0:
192,192,83138,1,0,0:0:0:0:
448,192,83138,1,0,0:0:0:0:
64,192,83300,1,0,0:0:0:0:
320,192,83300,1,0,0:0:0:0:
448,192,83461,1,0,0:0:0:0:
320,192,83461,1,0,0:0:0:0:
448,192,83622,1,0,0:0:0:0:
64,192,83622,1,0,0:0:0:0:
64,192,83784,1,0,0:0:0:0:
192,192,83784,1,0,0:0:0:0:
192,192,83945,1,0,0:0:0:0:
448,192,83945,1,0,0:0:0:0:
64,192,84106,1,0,0:0:0:0:
320,192,84106,1,0,0:0:0:0:
448,192,84267,1,0,0:0:0:0:
64,192,84267,1,0,0:0:0:0:
192,192,84429,1,0,0:0:0:0:
64,192,84429,1,0,0:0:0:0:
320,192,84590,1,0,0:0:0:0:
448,192,84590,1,0,0:0:0:0:
64,192,84751,1,0,0:0:0:0:
320,192,84751,1,0,0:0:0:0:
192,192,84913,1,0,0:0:0:0:
320,192,84913,1,0,0:0:0:0:
64,192,85074,1,0,0:0:0:0:
192,192,85074,1,0,0:0:0:0:
448,192,85235,1,0,0:0:0:0:
192,192,85235,1,0,0:0:0:0:
192,192,85396,1,0,0:0:0:0:
64,192,85396,1,0,0:0:0:0:
192,192,85558,1,0,0:0:0:0:
448,192,85558,1,0,0:0:0:0:
320,192,85719,1,0,0:0:0:0:
448,192,85719,1,0,0:0:0:0:
320,192,85880,1,0,0:0:0:0:
64,192,85880,1,0,0:0:0:0:
320,192,86042,1,0,0:0:0:0:
192,192,86042,1,0,0:0:0:0:
64,192,86203,1,0,0:0:0:0:
320,192,86203,1,0,0:0:0:0:
192,192,86364,1,0,0:0:0:0:
320,192,86364,1,0,0:0:0:0:
192,192,86525,1,0,0:0:0:0:
448,192,86525,1,0,0:0:0:0:
320,192,86687,1,0,0:0:0:0:
64,192,86687,1,0,0:0:0:0:
192,192,86848,1,0,0:0:0:0:
448,192,86848,1,0,0:0:0:0:
64,192,87009,1,0,0:0:0:0:
320,192,87009,1,0,0:0:0:0:
448,192,87171,1,0,0:0:0:0:
64,192,87171,1,0,0:0:0:0:
192,192,87332,1,0,0:0:0:0:
320,192,87332,1,0,0:0:0:0:
64,192,87493,1,0,0:0:0:0:
448,192,87493,1,0,0:0:0:0:
320,192,87655,1,0,0:0:0:0:
192,192,87655,1,0,0:0:0:0:
64,192,87816,1,0,0:0:0:0:
320,192,87816,1,0,0:0:0:0:
192,192,87816,1,0,0:0:0:0:
192,192,87977,1,0,0:0:0:0:
320,192,87977,1,0,0:0:0:0:
64,192,88138,1,0,0:0:0:0:
448,192,88138,1,0,0:0:0:0:
320,192,88300,1,0,0:0:0:0:
64,192,88300,1,0,0:0:0:0:
192,192,88461,1,0,0:0:0:0:
448,192,88461,1,0,0:0:0:0:
64,192,88622,1,0,0:0:0:0:
192,192,88622,1,0,0:0:0:0:
192,192,88784,1,0,0:0:0:0:
448,192,88784,1,0,0:0:0:0:
320,192,88945,1,0,0:0:0:0:
192,192,88945,1,0,0:0:0:0:
192,192,89106,1,0,0:0:0:0:
64,192,89106,1,0,0:0:0:0:
320,192,89267,1,0,0:0:0:0:
192,192,89267,1,0,0:0:0:0:
64,192,89429,1,0,0:0:0:0:
192,192,89429,1,0,0:0:0:0:
192,192,89590,1,0,0:0:0:0:
320,192,89590,1,0,0:0:0:0:
448,192,89751,1,0,0:0:0:0:
320,192,89751,1,0,0:0:0:0:
192,192,89913,1,0,0:0:0:0:
320,192,89913,1,0,0:0:0:0:
448,192,90074,1,0,0:0:0:0:
320,192,90074,1,0,0:0:0:0:
192,192,90235,1,0,0:0:0:0:
320,192,90235,1,0,0:0:0:0:
64,192,90396,1,0,0:0:0:0:
192,192,90396,1,0,0:0:0:0:
192,192,90558,1,0,0:0:0:0:
448,192,90558,1,0,0:0:0:0:
192,192,90719,1,0,0:0:0:0:
320,192,90719,1,0,0:0:0:0:
64,192,90880,1,0,0:0:0:0:
192,192,90880,1,0,0:0:0:0:
192,192,91042,1,0,0:0:0:0:
448,192,91042,1,0,0:0:0:0:
320,192,91203,1,0,0:0:0:0:
192,192,91203,1,0,0:0:0:0:
64,192,91364,1,0,0:0:0:0:
320,192,91364,1,0,0:0:0:0:
192,192,91525,1,0,0:0:0:0:
320,192,91525,1,0,0:0:0:0:
448,192,91687,1,0,0:0:0:0:
64,192,91687,1,0,0:0:0:0:
192,192,91848,1,0,0:0:0:0:
320,192,91848,1,0,0:0:0:0:
64,192,92009,1,0,0:0:0:0:
448,192,92009,1,0,0:0:0:0:
320,192,92171,1,0,0:0:0:0:
192,192,92171,1,0,0:0:0:0:
64,192,92332,1,0,0:0:0:0:
192,192,92332,1,0,0:0:0:0:
320,192,92413,1,0,0:0:0:0:
448,192,92413,1,0,0:0:0:0:
448,192,92654,1,0,0:0:0:0:
320,192,92654,1,0,0:0:0:0:
192,192,92735,1,0,0:0:0:0:
64,192,92735,1,0,0:0:0:0:
448,192,92816,1,0,0:0:0:0:
320,192,92856,1,0,0:0:0:0:
192,192,92896,1,0,0:0:0:0:
64,192,92937,1,0,0:0:0:0:
320,192,92977,1,0,0:0:0:0:
448,192,92977,1,0,0:0:0:0:
192,192,93058,1,0,0:0:0:0:
64,192,93138,1,0,0:0:0:0:
320,192,93138,1,0,0:0:0:0:
192,192,93219,1,0,0:0:0:0:
448,192,93300,1,0,0:0:0:0:
64,192,93380,1,0,0:0:0:0:
192,192,93461,1,0,0:0:0:0:
320,192,93461,1,0,0:0:0:0:
64,192,93542,1,0,0:0:0:0:
448,192,93622,1,0,0:0:0:0:
320,192,93622,1,0,0:0:0:0:
64,192,93703,1,0,0:0:0:0:
192,192,93784,1,0,0:0:0:0:
320,192,93784,1,0,0:0:0:0:
448,192,93864,1,0,0:0:0:0:
320,192,93945,1,0,0:0:0:0:
64,192,93945,1,0,0:0:0:0:
192,192,94025,1,0,0:0:0:0:
64,192,94106,1,0,0:0:0:0:
448,192,94106,1,0,0:0:0:0:
320,192,94187,1,0,0:0:0:0:
192,192,94267,1,0,0:0:0:0:
64,192,94267,1,0,0:0:0:0:
320,192,94348,1,0,0:0:0:0:
192,192,94429,1,0,0:0:0:0:
64,192,94429,1,0,0:0:0:0:
320,192,94509,1,0,0:0:0:0:
192,192,94590,1,0,0:0:0:0:
448,192,94590,1,0,0:0:0:0:
64,192,94671,1,0,0:0:0:0:
192,192,94751,1,0,0:0:0:0:
320,192,94751,1,0,0:0:0:0:
448,192,94832,1,0,0:0:0:0:
64,192,94913,1,0,0:0:0:0:
192,192,94913,1,0,0:0:0:0:
320,192,94993,1,0,0:0:0:0:
448,192,95074,1,0,0:0:0:0:
192,192,95074,1,0,0:0:0:0:
64,192,95154,1,0,0:0:0:0:
192,192,95235,1,0,0:0:0:0:
320,192,95235,1,0,0:0:0:0:
448,192,95316,1,0,0:0:0:0:
64,192,95396,1,0,0:0:0:0:
320,192,95396,1,0,0:0:0:0:
448,192,95477,1,0,0:0:0:0:
320,192,95558,1,0,0:0:0:0:
192,192,95558,1,0,0:0:0:0:
64,192,95638,1,0,0:0:0:0:
448,192,95719,1,0,0:0:0:0:
320,192,95719,1,0,0:0:0:0:
192,192,95800,1,0,0:0:0:0:
64,192,95880,1,0,0:0:0:0:
448,192,95880,1,0,0:0:0:0:
192,192,95961,1,0,0:0:0:0:
320,192,96042,1,0,0:0:0:0:
448,192,96042,1,0,0:0:0:0:
192,192,96122,1,0,0:0:0:0:
64,192,96203,1,0,0:0:0:0:
320,192,96203,1,0,0:0:0:0:
192,192,96284,1,0,0:0:0:0:
320,192,96364,1,0,0:0:0:0:
448,192,96364,1,0,0:0:0:0:
192,192,96445,1,0,0:0:0:0:
64,192,96525,1,0,0:0:0:0:
448,192,96525,1,0,0:0:0:0:
320,192,96606,1,0,0:0:0:0:
192,192,96687,1,0,0:0:0:0:
64,192,96687,1,0,0:0:0:0:
320,192,96767,1,0,0:0:0:0:
64,192,96848,1,0,0:0:0:0:
448,192,96848,1,0,0:0:0:0:
192,192,96929,1,0,0:0:0:0:
320,192,97009,1,0,0:0:0:0:
448,192,97009,1,0,0:0:0:0:
64,192,97090,1,0,0:0:0:0:
192,192,97171,1,0,0:0:0:0:
320,192,97171,1,0,0:0:0:0:
448,192,97251,1,0,0:0:0:0:
64,192,97332,1,0,0:0:0:0:
192,192,97332,1,0,0:0:0:0:
320,192,97413,1,0,0:0:0:0:
64,192,97493,1,0,0:0:0:0:
448,192,97493,1,0,0:0:0:0:
192,192,97654,1,0,0:0:0:0:
320,192,97654,1,0,0:0:0:0:
64,192,97816,1,0,0:0:0:0:
448,192,97816,1,0,0:0:0:0:
320,192,97977,1,0,0:0:0:0:
192,192,97977,1,0,0:0:0:0:
64,192,98138,1,0,0:0:0:0:
192,192,98138,1,0,0:0:0:0:
320,192,98138,1,0,0:0:0:0:
448,192,98219,1,0,0:0:0:0:
192,192,98300,1,0,0:0:0:0:
64,192,98380,1,0,0:0:0:0:
320,192,98461,1,0,0:0:0:0:
64,192,98542,1,0,0:0:0:0:
448,192,98622,1,0,0:0:0:0:
192,192,98703,1,0,0:0:0:0:
320,192,98784,1,0,0:0:0:0:
64,192,98864,1,0,0:0:0:0:
320,192,98945,1,0,0:0:0:0:
192,192,99025,1,0,0:0:0:0:
448,192,99106,1,0,0:0:0:0:
192,192,99187,1,0,0:0:0:0:
64,192,99267,1,0,0:0:0:0:
320,192,99348,1,0,0:0:0:0:
192,192,99429,1,0,0:0:0:0:
64,192,99509,1,0,0:0:0:0:
320,192,99590,1,0,0:0:0:0:
192,192,99671,1,0,0:0:0:0:
448,192,99751,1,0,0:0:0:0:
192,192,99832,1,0,0:0:0:0:
64,192,99913,1,0,0:0:0:0:
320,192,99993,1,0,0:0:0:0:
192,192,100074,1,0,0:0:0:0:
448,192,100154,1,0,0:0:0:0:
64,192,100235,1,0,0:0:0:0:
192,192,100235,1,0,0:0:0:0:
320,192,100316,1,0,0:0:0:0:
448,192,100396,1,0,0:0:0:0:
192,192,100396,1,0,0:0:0:0:
320,192,100477,1,0,0:0:0:0:
64,192,100558,1,0,0:0:0:0:
192,192,100558,1,0,0:0:0:0:
320,192,100638,1,0,0:0:0:0:
64,192,100719,1,0,0:0:0:0:
192,192,100719,1,0,0:0:0:0:
448,192,100719,1,0,0:0:0:0:
320,192,100800,1,0,0:0:0:0:
64,192,100880,1,0,0:0:0:0:
448,192,100961,1,0,0:0:0:0:
192,192,101042,1,0,0:0:0:0:
448,192,101122,1,0,0:0:0:0:
320,192,101203,1,0,0:0:0:0:
192,192,101203,1,0,0:0:0:0:
64,192,101284,1,0,0:0:0:0:
448,192,101364,1,0,0:0:0:0:
320,192,101364,1,0,0:0:0:0:
192,192,101364,1,0,0:0:0:0:
64,192,101445,1,0,0:0:0:0:
320,192,101525,1,0,0:0:0:0:
192,192,101606,1,0,0:0:0:0:
448,192,101687,1,0,0:0:0:0:
64,192,101767,1,0,0:0:0:0:
192,192,101848,1,0,0:0:0:0:
320,192,101848,1,0,0:0:0:0:
64,192,102009,1,0,0:0:0:0:
448,192,102009,1,0,0:0:0:0:
320,192,102009,1,0,0:0:0:0:
64,192,102171,1,0,0:0:0:0:
192,192,102171,1,0,0:0:0:0:
320,192,102332,1,0,0:0:0:0:
448,192,102332,1,0,0:0:0:0:
192,192,102332,1,0,0:0:0:0:
192,192,102493,1,0,0:0:0:0:
320,192,102493,1,0,0:0:0:0:
320,192,102654,1,0,0:0:0:0:
448,192,102654,1,0,0:0:0:0:
192,192,102735,1,0,0:0:0:0:
64,192,102735,1,0,0:0:0:0:
448,192,102896,1,0,0:0:0:0:
64,192,102896,1,0,0:0:0:0:
192,192,102977,1,0,0:0:0:0:
320,192,102977,1,0,0:0:0:0:
192,192,103138,1,0,0:0:0:0:
64,192,103138,1,0,0:0:0:0:
448,192,103300,1,0,0:0:0:0:
320,192,103300,1,0,0:0:0:0:
192,192,103300,1,0,0:0:0:0:
64,192,103461,1,0,0:0:0:0:
192,192,103461,1,0,0:0:0:0:
320,192,103461,1,0,0:0:0:0:
448,192,103622,1,0,0:0:0:0:
192,192,103622,1,0,0:0:0:0:
64,192,103622,1,0,0:0:0:0:
192,192,103784,1,0,0:0:0:0:
320,192,103784,1,0,0:0:0:0:
64,192,103784,1,0,0:0:0:0:
448,192,103945,1,0,0:0:0:0:
64,192,103945,1,0,0:0:0:0:
320,192,103945,1,0,0:0:0:0:
64,192,104106,1,0,0:0:0:0:
192,192,104106,1,0,0:0:0:0:
320,192,104267,1,0,0:0:0:0:
448,192,104267,1,0,0:0:0:0:
64,192,104429,128,0,105316:0:0:0:0:
192,192,104429,128,0,105316:0:0:0:0:
320,192,104429,128,0,105316:0:0:0:0:
448,192,104429,128,0,105316:0:0:0:0:
320,192,105880,128,0,106044:0:0:0:0:
192,192,105880,1,0,0:0:0:0:
64,192,105880,1,0,0:0:0:0:
192,192,106044,128,0,106209:0:0:0:0:
448,192,106209,128,0,106374:0:0:0:0:
192,192,106374,128,0,106539:0:0:0:0:
64,192,106539,128,0,106704:0:0:0:0:
320,192,106704,128,0,106869:0:0:0:0:
192,192,106869,128,0,107033:0:0:0:0:
448,192,107033,128,0,107198:0:0:0:0:
192,192,107198,128,0,107363:0:0:0:0:
64,192,107363,128,0,107528:0:0:0:0:
320,192,107528,128,0,107693:0:0:0:0:
448,192,107693,128,0,107858:0:0:0:0:
64,192,107858,128,0,108022:0:0:0:0:
320,192,108022,128,0,108187:0:0:0:0:
448,192,108187,128,0,108352:0:0:0:0:
192,192,108352,1,0,0:0:0:0:
64,192,108352,1,0,0:0:0:0:
448,192,108517,1,0,0:0:0:0:
64,192,108517,1,0,0:0:0:0:
320,192,108572,1,0,0:0:0:0:
192,192,108627,1,0,0:0:0:0:
64,192,108682,1,0,0:0:0:0:
448,192,108737,1,0,0:0:0:0:
320,192,108792,1,0,0:0:0:0:
192,192,108847,1,0,0:0:0:0:
64,192,108901,1,0,0:0:0:0:
448,192,108956,1,0,0:0:0:0:
320,192,109011,1,0,0:0:0:0:
192,192,109011,1,0,0:0:0:0:
64,192,109066,1,0,0:0:0:0:
448,192,109121,1,0,0:0:0:0:
320,192,109176,1,0,0:0:0:0:
64,192,109176,1,0,0:0:0:0:
192,192,109231,1,0,0:0:0:0:
320,192,109286,1,0,0:0:0:0:
448,192,109341,1,0,0:0:0:0:
64,192,109396,1,0,0:0:0:0:
192,192,109451,1,0,0:0:0:0:
320,192,109506,1,0,0:0:0:0:
64,192,109561,1,0,0:0:0:0:
448,192,109561,1,0,0:0:0:0:
192,192,109616,1,0,0:0:0:0:
320,192,109671,1,0,0:0:0:0:
448,192,109671,1,0,0:0:0:0:
64,192,109726,1,0,0:0:0:0:
192,192,109781,1,0,0:0:0:0:
320,192,109836,1,0,0:0:0:0:
448,192,109836,1,0,0:0:0:0:
192,192,109890,1,0,0:0:0:0:
64,192,109945,1,0,0:0:0:0:
320,192,110000,1,0,0:0:0:0:
448,192,110000,1,0,0:0:0:0:
192,192,110055,1,0,0:0:0:0:
64,192,110110,1,0,0:0:0:0:
320,192,110165,1,0,0:0:0:0:
448,192,110165,1,0,0:0:0:0:
192,192,110220,1,0,0:0:0:0:
64,192,110275,1,0,0:0:0:0:
320,192,110330,1,0,0:0:0:0:
448,192,110330,128,0,110989:0:0:0:0:
192,192,110385,1,0,0:0:0:0:
64,192,110440,1,0,0:0:0:0:
64,192,111154,128,0,111319:0:0:0:0:
320,192,111319,128,0,111484:0:0:0:0:
192,192,111484,128,0,111649:0:0:0:0:
448,192,111649,1,0,0:0:0:0:
320,192,111731,1,0,0:0:0:0:
64,192,111814,1,0,0:0:0:0:
192,192,111896,1,0,0:0:0:0:
448,192,111978,1,0,0:0:0:0:
320,192,112061,1,0,0:0:0:0:
192,192,112143,128,0,112473:0:0:0:0:
320,192,112473,128,0,112638:0:0:0:0:
448,192,112473,1,0,0:0:0:0:
192,192,112638,128,0,112803:0:0:0:0:
64,192,112803,128,0,112967:0:0:0:0:
448,192,112803,1,0,0:0:0:0:
320,192,112967,128,0,113132:0:0:0:0:
448,192,113132,128,0,113297:0:0:0:0:
192,192,113132,1,0,0:0:0:0:
64,192,113297,128,0,113462:0:0:0:0:
192,192,113462,128,0,113627:0:0:0:0:
320,192,113462,1,0,0:0:0:0:
448,192,113627,128,0,113792:0:0:0:0:
192,192,113792,128,0,113956:0:0:0:0:
320,192,113792,1,0,0:0:0:0:
320,192,113956,128,0,114121:0:0:0:0:
64,192,114121,128,0,114286:0:0:0:0:
192,192,114121,1,0,0:0:0:0:
320,192,114286,128,0,114451:0:0:0:0:
448,192,114451,128,0,114616:0:0:0:0:
192,192,114451,1,0,0:0:0:0:
192,192,114616,128,0,114781:0:0:0:0:
64,192,114781,128,0,114945:0:0:0:0:
320,192,114781,1,0,0:0:0:0:
192,192,114945,128,0,115110:0:0:0:0:
448,192,115110,128,0,115275:0:0:0:0:
320,192,115110,1,0,0:0:0:0:
320,192,115275,128,0,115440:0:0:0:0:
192,192,115440,128,0,115605:0:0:0:0:
448,192,115440,1,0,0:0:0:0:
64,192,115605,128,0,115770:0:0:0:0:
320,192,115770,128,0,115934:0:0:0:0:
192,192,115770,1,0,0:0:0:0:
192,192,115934,128,0,116099:0:0:0:0:
64,192,116099,128,0,116264:0:0:0:0:
448,192,116099,1,0,0:0:0:0:
320,192,116264,128,0,116429:0:0:0:0:
64,192,116429,128,0,116594:0:0:0:0:
192,192,116429,1,0,0:0:0:0:
448,192,116594,128,0,116759:0:0:0:0:
64,192,116759,128,0,116923:0:0:0:0:
320,192,116759,1,0,0:0:0:0:
448,192,116923,128,0,117088:0:0:0:0:
192,192,117088,128,0,117253:0:0:0:0:
320,192,117088,1,0,0:0:0:0:
320,192,117253,128,0,117418:0:0:0:0:
64,192,117253,1,0,0:0:0:0:
192,192,117418,128,0,117583:0:0:0:0:
448,192,117418,1,0,0:0:0:0:
320,192,117583,128,0,117748:0:0:0:0:
64,192,117583,1,0,0:0:0:0:
448,192,117748,128,0,117912:0:0:0:0:
64,192,117748,1,0,0:0:0:0:
192,192,117748,1,0,0:0:0:0:
320,192,117912,128,0,118077:0:0:0:0:
64,192,118077,128,0,118242:0:0:0:0:
192,192,118077,1,0,0:0:0:0:
448,192,118242,128,0,118407:0:0:0:0:
192,192,118407,128,0,118572:0:0:0:0:
320,192,118407,1,0,0:0:0:0:
320,192,118572,128,0,118737:0:0:0:0:
64,192,118737,128,0,118901:0:0:0:0:
192,192,118737,1,0,0:0:0:0:
192,192,118901,128,0,119066:0:0:0:0:
448,192,118901,1,0,0:0:0:0:
448,192,119066,128,0,119231:0:0:0:0:
320,192,119066,1,0,0:0:0:0:
320,192,119231,128,0,119396:0:0:0:0:
64,192,119396,128,0,119561:0:0:0:0:
192,192,119396,1,0,0:0:0:0:
192,192,119561,128,0,119726:0:0:0:0:
448,192,119726,128,0,119890:0:0:0:0:
320,192,119726,1,0,0:0:0:0:
320,192,119890,128,0,120055:0:0:0:0:
64,192,119890,1,0,0:0:0:0:
64,192,120055,128,0,120220:0:0:0:0:
192,192,120220,128,0,120385:0:0:0:0:
448,192,120220,1,0,0:0:0:0:
448,192,120385,128,0,120550:0:0:0:0:
320,192,120385,1,0,0:0:0:0:
320,192,120550,128,0,120715:0:0:0:0:
64,192,120715,128,0,120880:0:0:0:0:
192,192,120715,1,0,0:0:0:0:
320,192,120880,128,0,121044:0:0:0:0:
192,192,121044,128,0,121209:0:0:0:0:
448,192,121044,1,0,0:0:0:0:
448,192,121209,128,0,121374:0:0:0:0:
64,192,121374,128,0,121539:0:0:0:0:
192,192,121374,1,0,0:0:0:0:
320,192,121539,128,0,121704:0:0:0:0:
192,192,121704,1,0,0:0:0:0:
64,192,121704,1,0,0:0:0:0:
448,192,121704,128,0,121869:0:0:0:0:
192,192,121869,128,0,122033:0:0:0:0:
64,192,122033,128,0,122198:0:0:0:0:
320,192,122198,128,0,122363:0:0:0:0:
448,192,122363,128,0,122528:0:0:0:0:
192,192,122528,128,0,122693:0:0:0:0:
64,192,122693,128,0,122858:0:0:0:0:
320,192,122858,128,0,123022:0:0:0:0:
64,192,123022,128,0,124341:0:0:0:0:
448,192,123022,1,0,0:0:0:0:
192,192,123105,1,0,0:0:0:0:
320,192,123187,1,0,0:0:0:0:
448,192,123270,1,0,0:0:0:0:
192,192,123352,1,0,0:0:0:0:
320,192,123434,1,0,0:0:0:0:
448,192,123517,1,0,0:0:0:0:
192,192,123599,1,0,0:0:0:0:
320,192,123682,1,0,0:0:0:0:
448,192,123764,1,0,0:0:0:0:
192,192,123847,1,0,0:0:0:0:
320,192,123929,1,0,0:0:0:0:
448,192,124011,1,0,0:0:0:0:
320,192,124094,1,0,0:0:0:0:
192,192,124176,1,0,0:0:0:0:
320,192,124259,1,0,0:0:0:0:
448,192,124341,128,0,125660:0:0:0:0:
192,192,124341,1,0,0:0:0:0:
320,192,124423,1,0,0:0:0:0:
192,192,124506,1,0,0:0:0:0:
64,192,124588,1,0,0:0:0:0:
320,192,124671,1,0,0:0:0:0:
192,192,124753,1,0,0:0:0:0:
64,192,124836,1,0,0:0:0:0:
320,192,124918,1,0,0:0:0:0:
192,192,125000,1,0,0:0:0:0:
64,192,125083,1,0,0:0:0:0:
320,192,125165,1,0,0:0:0:0:
192,192,125248,1,0,0:0:0:0:
64,192,125330,1,0,0:0:0:0:
320,192,125412,1,0,0:0:0:0:
192,192,125495,1,0,0:0:0:0:
64,192,125577,1,0,0:0:0:0:
320,192,125660,1,0,0:0:0:0:
192,192,125660,128,0,126978:0:0:0:0:
64,192,125742,1,0,0:0:0:0:
320,192,125825,1,0,0:0:0:0:
448,192,125907,1,0,0:0:0:0:
64,192,125989,1,0,0:0:0:0:
320,192,126072,1,0,0:0:0:0:
448,192,126154,1,0,0:0:0:0:
64,192,126237,1,0,0:0:0:0:
320,192,126319,1,0,0:0:0:0:
448,192,126401,1,0,0:0:0:0:
64,192,126484,1,0,0:0:0:0:
320,192,126566,1,0,0:0:0:0:
448,192,126649,1,0,0:0:0:0:
64,192,126731,1,0,0:0:0:0:
320,192,126814,1,0,0:0:0:0:
448,192,126896,1,0,0:0:0:0:
320,192,126978,128,0,128297:0:0:0:0:
64,192,126978,1,0,0:0:0:0:
192,192,127061,1,0,0:0:0:0:
448,192,127143,1,0,0:0:0:0:
64,192,127226,1,0,0:0:0:0:
192,192,127308,1,0,0:0:0:0:
448,192,127390,1,0,0:0:0:0:
64,192,127473,1,0,0:0:0:0:
192,192,127555,1,0,0:0:0:0:
448,192,127638,1,0,0:0:0:0:
64,192,127638,1,0,0:0:0:0:
64,192,127803,1,0,0:0:0:0:
192,192,127803,1,0,0:0:0:0:
192,192,127967,1,0,0:0:0:0:
448,192,127967,1,0,0:0:0:0:
64,192,128132,1,0,0:0:0:0:
448,192,128132,1,0,0:0:0:0:
64,192,128297,128,0,129616:0:0:0:0:
448,192,128297,1,0,0:0:0:0:
192,192,128297,1,0,0:0:0:0:
320,192,128380,1,0,0:0:0:0:
192,192,128462,1,0,0:0:0:0:
448,192,128544,1,0,0:0:0:0:
320,192,128627,1,0,0:0:0:0:
192,192,128709,1,0,0:0:0:0:
448,192,128792,1,0,0:0:0:0:
320,192,128874,1,0,0:0:0:0:
192,192,128956,1,0,0:0:0:0:
448,192,129039,1,0,0:0:0:0:
320,192,129121,1,0,0:0:0:0:
192,192,129204,1,0,0:0:0:0:
448,192,129286,1,0,0:0:0:0:
320,192,129369,1,0,0:0:0:0:
192,192,129451,1,0,0:0:0:0:
448,192,129533,1,0,0:0:0:0:
320,192,129616,128,0,130934:0:0:0:0:
192,192,129616,1,0,0:0:0:0:
448,192,129698,1,0,0:0:0:0:
64,192,129781,1,0,0:0:0:0:
192,192,129863,1,0,0:0:0:0:
448,192,129945,1,0,0:0:0:0:
64,192,130028,1,0,0:0:0:0:
192,192,130110,1,0,0:0:0:0:
448,192,130193,1,0,0:0:0:0:
64,192,130275,1,0,0:0:0:0:
192,192,130275,1,0,0:0:0:0:
192,192,130440,1,0,0:0:0:0:
448,192,130440,1,0,0:0:0:0:
64,192,130770,1,0,0:0:0:0:
192,192,130770,1,0,0:0:0:0:
448,192,130934,128,0,132253:0:0:0:0:
192,192,130934,1,0,0:0:0:0:
64,192,130934,1,0,0:0:0:0:
320,192,131017,1,0,0:0:0:0:
192,192,131099,1,0,0:0:0:0:
64,192,131182,1,0,0:0:0:0:
320,192,131264,1,0,0:0:0:0:
192,192,131347,1,0,0:0:0:0:
64,192,131429,1,0,0:0:0:0:
320,192,131511,1,0,0:0:0:0:
192,192,131594,1,0,0:0:0:0:
64,192,131676,1,0,0:0:0:0:
320,192,131759,1,0,0:0:0:0:
192,192,131841,1,0,0:0:0:0:
64,192,131923,1,0,0:0:0:0:
320,192,132006,1,0,0:0:0:0:
192,192,132088,1,0,0:0:0:0:
64,192,132171,1,0,0:0:0:0:
320,192,132253,1,0,0:0:0:0:
192,192,132253,1,0,0:0:0:0:
64,192,132418,1,0,0:0:0:0:
448,192,132418,1,0,0:0:0:0:
192,192,132583,1,0,0:0:0:0:
320,192,132583,1,0,0:0:0:0:
64,192,132748,1,0,0:0:0:0:
448,192,132748,1,0,0:0:0:0:
448,192,132912,1,0,0:0:0:0:
320,192,132912,1,0,0:0:0:0:
192,192,132995,1,0,0:0:0:0:
64,192,132995,1,0,0:0:0:0:
448,192,133160,1,0,0:0:0:0:
320,192,133160,1,0,0:0:0:0:
192,192,133242,1,0,0:0:0:0:
64,192,133242,1,0,0:0:0:0:
192,192,133407,1,0,0:0:0:0:
448,192,133407,1,0,0:0:0:0:
64,192,133572,128,0,134890:0:0:0:0:
448,192,133737,128,0,133901:0:0:0:0:
192,192,133901,128,0,134066:0:0:0:0:
320,192,134066,128,0,134231:0:0:0:0:
448,192,134231,128,0,134396:0:0:0:0:
320,192,134396,128,0,134561:0:0:0:0:
192,192,134561,128,0,134726:0:0:0:0:
448,192,134726,128,0,134890:0:0:0:0:
192,192,134890,1,0,0:0:0:0:
448,192,134973,1,0,0:0:0:0:
320,192,135055,1,0,0:0:0:0:
192,192,135138,1,0,0:0:0:0:
64,192,135220,1,0,0:0:0:0:
320,192,135220,1,0,0:0:0:0:
448,192,135220,1,0,0:0:0:0:
192,192,135303,1,0,0:0:0:0:
448,192,135385,1,0,0:0:0:0:
64,192,135467,1,0,0:0:0:0:
192,192,135550,1,0,0:0:0:0:
320,192,135632,1,0,0:0:0:0:
448,192,135715,1,0,0:0:0:0:
320,192,135797,1,0,0:0:0:0:
192,192,135880,1,0,0:0:0:0:
64,192,135880,1,0,0:0:0:0:
448,192,135880,1,0,0:0:0:0:
320,192,135962,1,0,0:0:0:0:
192,192,136044,1,0,0:0:0:0:
448,192,136127,1,0,0:0:0:0:
320,192,136209,1,0,0:0:0:0:
192,192,136292,1,0,0:0:0:0:
64,192,136374,1,0,0:0:0:0:
448,192,136456,1,0,0:0:0:0:
320,192,136539,1,0,0:0:0:0:
192,192,136539,1,0,0:0:0:0:
64,192,136539,1,0,0:0:0:0:
448,192,136621,1,0,0:0:0:0:
192,192,136704,1,0,0:0:0:0:
64,192,136786,1,0,0:0:0:0:
192,192,136869,1,0,0:0:0:0:
448,192,136951,1,0,0:0:0:0:
64,192,137033,1,0,0:0:0:0:
192,192,137116,1,0,0:0:0:0:
320,192,137198,1,0,0:0:0:0:
448,192,137198,1,0,0:0:0:0:
64,192,137198,1,0,0:0:0:0:
192,192,137281,1,0,0:0:0:0:
448,192,137363,1,0,0:0:0:0:
320,192,137445,1,0,0:0:0:0:
192,192,137528,1,0,0:0:0:0:
64,192,137610,1,0,0:0:0:0:
320,192,137693,1,0,0:0:0:0:
448,192,137775,1,0,0:0:0:0:
64,192,137858,1,0,0:0:0:0:
320,192,137858,1,0,0:0:0:0:
192,192,137858,1,0,0:0:0:0:
448,192,137940,1,0,0:0:0:0:
320,192,138022,1,0,0:0:0:0:
64,192,138105,1,0,0:0:0:0:
192,192,138187,1,0,0:0:0:0:
448,192,138270,1,0,0:0:0:0:
320,192,138352,1,0,0:0:0:0:
64,192,138434,1,0,0:0:0:0:
192,192,138517,1,0,0:0:0:0:
448,192,138517,1,0,0:0:0:0:
320,192,138517,1,0,0:0:0:0:
64,192,138599,1,0,0:0:0:0:
448,192,138682,1,0,0:0:0:0:
320,192,138764,1,0,0:0:0:0:
64,192,138847,1,0,0:0:0:0:
192,192,138929,1,0,0:0:0:0:
448,192,139011,1,0,0:0:0:0:
320,192,139094,1,0,0:0:0:0:
64,192,139176,1,0,0:0:0:0:
192,192,139176,1,0,0:0:0:0:
448,192,139176,1,0,0:0:0:0:
320,192,139259,1,0,0:0:0:0:
192,192,139341,1,0,0:0:0:0:
448,192,139423,1,0,0:0:0:0:
192,192,139506,1,0,0:0:0:0:
64,192,139506,1,0,0:0:0:0:
320,192,139671,1,0,0:0:0:0:
448,192,139671,1,0,0:0:0:0:
192,192,139836,1,0,0:0:0:0:
64,192,139836,1,0,0:0:0:0:
320,192,140000,1,0,0:0:0:0:
448,192,140000,1,0,0:0:0:0:
64,192,140165,1,0,0:0:0:0:
192,192,140165,1,0,0:0:0:0:
320,192,140165,1,0,0:0:0:0:
448,192,140248,1,0,0:0:0:0:
320,192,140330,1,0,0:0:0:0:
64,192,140412,1,0,0:0:0:0:
192,192,140495,1,0,0:0:0:0:
448,192,140577,1,0,0:0:0:0:
320,192,140660,1,0,0:0:0:0:
192,192,140742,1,0,0:0:0:0:
320,192,140825,1,0,0:0:0:0:
192,192,140907,1,0,0:0:0:0:
64,192,140989,1,0,0:0:0:0:
448,192,141072,1,0,0:0:0:0:
320,192,141154,1,0,0:0:0:0:
192,192,141154,1,0,0:0:0:0:
64,192,141154,1,0,0:0:0:0:
448,192,141237,1,0,0:0:0:0:
320,192,141319,1,0,0:0:0:0:
192,192,141401,1,0,0:0:0:0:
64,192,141484,1,0,0:0:0:0:
320,192,141566,1,0,0:0:0:0:
192,192,141649,1,0,0:0:0:0:
64,192,141731,1,0,0:0:0:0:
320,192,141814,1,0,0:0:0:0:
192,192,141814,1,0,0:0:0:0:
448,192,141814,1,0,0:0:0:0:
64,192,141896,1,0,0:0:0:0:
192,192,141978,1,0,0:0:0:0:
448,192,142061,1,0,0:0:0:0:
64,192,142143,1,0,0:0:0:0:
320,192,142143,1,0,0:0:0:0:
192,192,142308,1,0,0:0:0:0:
448,192,142308,1,0,0:0:0:0:
448,192,142638,1,0,0:0:0:0:
320,192,142638,1,0,0:0:0:0:
192,192,142803,1,0,0:0:0:0:
64,192,142803,1,0,0:0:0:0:
320,192,142885,1,0,0:0:0:0:
448,192,142967,1,0,0:0:0:0:
192,192,143050,1,0,0:0:0:0:
64,192,143132,1,0,0:0:0:0:
320,192,143132,1,0,0:0:0:0:
448,192,143132,1,0,0:0:0:0:
192,192,143215,1,0,0:0:0:0:
320,192,143297,1,0,0:0:0:0:
64,192,143380,1,0,0:0:0:0:
192,192,143462,1,0,0:0:0:0:
448,192,143544,1,0,0:0:0:0:
320,192,143627,1,0,0:0:0:0:
64,192,143709,1,0,0:0:0:0:
192,192,143792,1,0,0:0:0:0:
320,192,143792,1,0,0:0:0:0:
448,192,143792,1,0,0:0:0:0:
64,192,143874,1,0,0:0:0:0:
192,192,143956,1,0,0:0:0:0:
320,192,144039,1,0,0:0:0:0:
192,192,144121,1,0,0:0:0:0:
64,192,144121,1,0,0:0:0:0:
320,192,144286,1,0,0:0:0:0:
448,192,144286,1,0,0:0:0:0:
192,192,144451,1,0,0:0:0:0:
64,192,144451,1,0,0:0:0:0:
320,192,144616,1,0,0:0:0:0:
448,192,144616,1,0,0:0:0:0:
64,192,144781,1,0,0:0:0:0:
448,192,144781,1,0,0:0:0:0:
192,192,144863,1,0,0:0:0:0:
320,192,144863,1,0,0:0:0:0:
64,192,145028,1,0,0:0:0:0:
192,192,145028,1,0,0:0:0:0:
320,192,145110,1,0,0:0:0:0:
448,192,145110,1,0,0:0:0:0:
192,192,145275,1,0,0:0:0:0:
64,192,145275,1,0,0:0:0:0:
192,192,145440,1,0,0:0:0:0:
64,192,145440,1,0,0:0:0:0:
448,192,145440,1,0,0:0:0:0:
320,192,145522,1,0,0:0:0:0:
192,192,145605,1,0,0:0:0:0:
64,192,145605,1,0,0:0:0:0:
320,192,145687,1,0,0:0:0:0:
64,192,145770,1,0,0:0:0:0:
448,192,145770,1,0,0:0:0:0:
192,192,145852,1,0,0:0:0:0:
320,192,145934,1,0,0:0:0:0:
448,192,145934,1,0,0:0:0:0:
192,192,146017,1,0,0:0:0:0:
64,192,146099,1,0,0:0:0:0:
320,192,146099,1,0,0:0:0:0:
448,192,146182,1,0,0:0:0:0:
64,192,146264,1,0,0:0:0:0:
192,192,146264,1,0,0:0:0:0:
320,192,146347,1,0,0:0:0:0:
192,192,146429,1,0,0:0:0:0:
64,192,146429,1,0,0:0:0:0:
448,192,146511,1,0,0:0:0:0:
192,192,146594,1,0,0:0:0:0:
320,192,146594,1,0,0:0:0:0:
64,192,146676,1,0,0:0:0:0:
448,192,146759,1,0,0:0:0:0:
320,192,146759,1,0,0:0:0:0:
192,192,146841,1,0,0:0:0:0:
64,192,146841,1,0,0:0:0:0:
320,192,146923,1,0,0:0:0:0:
448,192,146923,1,0,0:0:0:0:
192,192,147006,1,0,0:0:0:0:
64,192,147006,1,0,0:0:0:0:
320,192,147088,1,0,0:0:0:0:
448,192,147088,1,0,0:0:0:0:
64,192,147171,1,0,0:0:0:0:
448,192,147253,1,0,0:0:0:0:
192,192,147253,1,0,0:0:0:0:
320,192,147336,1,0,0:0:0:0:
448,192,147418,1,0,0:0:0:0:
64,192,147418,1,0,0:0:0:0:
192,192,147500,1,0,0:0:0:0:
64,192,147583,1,0,0:0:0:0:
320,192,147583,1,0,0:0:0:0:
448,192,147665,1,0,0:0:0:0:
320,192,147748,1,0,0:0:0:0:
192,192,147748,1,0,0:0:0:0:
64,192,147830,1,0,0:0:0:0:
192,192,147912,1,0,0:0:0:0:
448,192,147912,1,0,0:0:0:0:
320,192,147995,1,0,0:0:0:0:
192,192,148077,1,0,0:0:0:0:
64,192,148077,1,0,0:0:0:0:
320,192,148160,1,0,0:0:0:0:
448,192,148160,1,0,0:0:0:0:
192,192,148242,1,0,0:0:0:0:
64,192,148242,1,0,0:0:0:0:
320,192,148325,1,0,0:0:0:0:
448,192,148325,1,0,0:0:0:0:
192,192,148407,1,0,0:0:0:0:
64,192,148407,1,0,0:0:0:0:
320,192,148489,1,0,0:0:0:0:
448,192,148489,1,0,0:0:0:0:
192,192,148572,1,0,0:0:0:0:
64,192,148572,1,0,0:0:0:0:
320,192,148654,1,0,0:0:0:0:
448,192,148654,1,0,0:0:0:0:
192,192,148737,1,0,0:0:0:0:
64,192,148737,1,0,0:0:0:0:
320,192,148819,1,0,0:0:0:0:
448,192,148901,1,0,0:0:0:0:
64,192,148901,1,0,0:0:0:0:
192,192,148984,1,0,0:0:0:0:
320,192,149066,1,0,0:0:0:0:
448,192,149066,1,0,0:0:0:0:
192,192,149149,1,0,0:0:0:0:
64,192,149231,1,0,0:0:0:0:
320,192,149231,1,0,0:0:0:0:
192,192,149314,1,0,0:0:0:0:
64,192,149396,1,0,0:0:0:0:
448,192,149396,1,0,0:0:0:0:
192,192,149478,1,0,0:0:0:0:
320,192,149561,1,0,0:0:0:0:
448,192,149561,1,0,0:0:0:0:
192,192,149643,1,0,0:0:0:0:
64,192,149726,1,0,0:0:0:0:
320,192,149726,1,0,0:0:0:0:
192,192,149808,1,0,0:0:0:0:
448,192,149890,1,0,0:0:0:0:
64,192,149890,1,0,0:0:0:0:
320,192,149973,1,0,0:0:0:0:
192,192,150055,1,0,0:0:0:0:
64,192,150055,1,0,0:0:0:0:
320,192,150220,1,0,0:0:0:0:
448,192,150220,1,0,0:0:0:0:
192,192,150385,1,0,0:0:0:0:
64,192,150385,1,0,0:0:0:0:
320,192,150550,1,0,0:0:0:0:
448,192,150550,1,0,0:0:0:0:
64,192,150715,1,0,0:0:0:0:
192,192,150715,1,0,0:0:0:0:
320,192,150715,1,0,0:0:0:0:
448,192,150797,1,0,0:0:0:0:
320,192,150880,1,0,0:0:0:0:
192,192,150880,1,0,0:0:0:0:
64,192,150962,1,0,0:0:0:0:
448,192,151044,1,0,0:0:0:0:
320,192,151044,1,0,0:0:0:0:
192,192,151127,1,0,0:0:0:0:
448,192,151209,1,0,0:0:0:0:
64,192,151209,1,0,0:0:0:0:
192,192,151292,1,0,0:0:0:0:
320,192,151374,1,0,0:0:0:0:
448,192,151374,1,0,0:0:0:0:
192,192,151456,1,0,0:0:0:0:
64,192,151539,1,0,0:0:0:0:
320,192,151539,1,0,0:0:0:0:
448,192,151621,1,0,0:0:0:0:
64,192,151704,1,0,0:0:0:0:
320,192,151704,1,0,0:0:0:0:
192,192,151786,1,0,0:0:0:0:
64,192,151869,1,0,0:0:0:0:
448,192,151869,1,0,0:0:0:0:
320,192,151951,1,0,0:0:0:0:
192,192,152033,1,0,0:0:0:0:
64,192,152033,1,0,0:0:0:0:
320,192,152116,1,0,0:0:0:0:
448,192,152116,1,0,0:0:0:0:
192,192,152198,1,0,0:0:0:0:
64,192,152198,1,0,0:0:0:0:
320,192,152281,1,0,0:0:0:0:
448,192,152281,1,0,0:0:0:0:
192,192,152363,1,0,0:0:0:0:
64,192,152363,1,0,0:0:0:0:
320,192,152445,1,0,0:0:0:0:
192,192,152528,1,0,0:0:0:0:
448,192,152528,1,0,0:0:0:0:
64,192,152610,1,0,0:0:0:0:
192,192,152693,1,0,0:0:0:0:
320,192,152693,1,0,0:0:0:0:
448,192,152775,1,0,0:0:0:0:
64,192,152858,1,0,0:0:0:0:
320,192,152858,1,0,0:0:0:0:
192,192,152940,1,0,0:0:0:0:
64,192,153022,1,0,0:0:0:0:
448,192,153022,1,0,0:0:0:0:
320,192,153105,1,0,0:0:0:0:
192,192,153187,1,0,0:0:0:0:
64,192,153187,1,0,0:0:0:0:
320,192,153270,1,0,0:0:0:0:
192,192,153352,1,0,0:0:0:0:
448,192,153352,1,0,0:0:0:0:
64,192,153517,1,0,0:0:0:0:
192,192,153517,1,0,0:0:0:0:
448,192,153682,1,0,0:0:0:0:
192,192,153682,1,0,0:0:0:0:
192,192,153847,1,0,0:0:0:0:
320,192,153847,1,0,0:0:0:0:
64,192,154011,1,0,0:0:0:0:
448,192,154011,1,0,0:0:0:0:
192,192,154176,1,0,0:0:0:0:
448,192,154176,1,0,0:0:0:0:
192,192,154341,1,0,0:0:0:0:
64,192,154341,1,0,0:0:0:0:
448,192,154506,1,0,0:0:0:0:
192,192,154506,1,0,0:0:0:0:
192,192,154671,1,0,0:0:0:0:
320,192,154671,1,0,0:0:0:0:
64,192,154671,1,0,0:0:0:0:
448,192,154671,1,0,0:0:0:0:
448,192,154836,1,0,0:0:0:0:
64,192,154836,1,0,0:0:0:0:
192,192,154836,1,0,0:0:0:0:
320,192,154836,1,0,0:0:0:0:
448,192,155165,1,0,0:0:0:0:
192,192,155165,1,0,0:0:0:0:
320,192,155165,1,0,0:0:0:0:
64,192,155165,1,0,0:0:0:0:
64,192,155330,1,0,0:0:0:0:
448,192,155330,1,0,0:0:0:0:
320,192,155330,1,0,0:0:0:0:
192,192,155330,1,0,0:0:0:0:
64,192,155660,1,0,0:0:0:0:
320,192,155660,1,0,0:0:0:0:
448,192,155660,1,0,0:0:0:0:
192,192,155660,1,0,0:0:0:0:
448,192,155825,1,0,0:0:0:0:
320,192,155825,1,0,0:0:0:0:
192,192,155825,1,0,0:0:0:0:
64,192,155825,1,0,0:0:0:0:
448,192,156154,1,0,0:0:0:0:
320,192,156154,1,0,0:0:0:0:
192,192,156154,1,0,0:0:0:0:
64,192,156154,1,0,0:0:0:0:
64,192,156319,1,0,0:0:0:0:
192,192,156319,1,0,0:0:0:0:
320,192,156319,1,0,0:0:0:0:
448,192,156319,1,0,0:0:0:0:
448,192,156649,1,0,0:0:0:0:
320,192,156649,1,0,0:0:0:0:
192,192,156649,1,0,0:0:0:0:
64,192,156649,1,0,0:0:0:0:
64,192,157308,1,0,0:0:0:0:
192,192,157308,1,0,0:0:0:0:
448,192,157471,1,0,0:0:0:0:
192,192,157471,1,0,0:0:0:0:
192,192,157634,1,0,0:0:0:0:
320,192,157634,1,0,0:0:0:0:
64,192,157797,1,0,0:0:0:0:
448,192,157797,1,0,0:0:0:0:
448,192,157960,1,0,0:0:0:0:
320,192,157960,1,0,0:0:0:0:
64,192,158123,1,0,0:0:0:0:
320,192,158123,1,0,0:0:0:0:
192,192,158286,1,0,0:0:0:0:
448,192,158286,1,0,0:0:0:0:
320,192,158449,1,0,0:0:0:0:
192,192,158449,1,0,0:0:0:0:
64,192,158612,1,0,0:0:0:0:
320,192,158612,1,0,0:0:0:0:
192,192,158775,1,0,0:0:0:0:
448,192,158775,1,0,0:0:0:0:
64,192,158938,1,0,0:0:0:0:
320,192,158938,1,0,0:0:0:0:
192,192,159101,1,0,0:0:0:0:
448,192,159101,1,0,0:0:0:0:
320,192,159264,1,0,0:0:0:0:
192,192,159264,1,0,0:0:0:0:
64,192,159427,1,0,0:0:0:0:
192,192,159427,1,0,0:0:0:0:
448,192,159590,1,0,0:0:0:0:
192,192,159590,1,0,0:0:0:0:
320,192,159753,1,0,0:0:0:0:
448,192,159753,1,0,0:0:0:0:
192,192,159916,1,0,0:0:0:0:
448,192,159916,1,0,0:0:0:0:
192,192,160079,1,0,0:0:0:0:
320,192,160079,1,0,0:0:0:0:
192,192,160242,1,0,0:0:0:0:
64,192,160242,1,0,0:0:0:0:
192,192,160405,1,0,0:0:0:0:
448,192,160405,1,0,0:0:0:0:
448,192,160568,1,0,0:0:0:0:
320,192,160568,1,0,0:0:0:0:
448,192,160731,1,0,0:0:0:0:
192,192,160731,1,0,0:0:0:0:
448,192,160894,1,0,0:0:0:0:
64,192,160894,1,0,0:0:0:0:
448,192,161058,1,0,0:0:0:0:
320,192,161058,1,0,0:0:0:0:
448,192,161221,1,0,0:0:0:0:
192,192,161221,1,0,0:0:0:0:
64,192,161384,1,0,0:0:0:0:
320,192,161384,1,0,0:0:0:0:
448,192,161547,1,0,0:0:0:0:
192,192,161547,1,0,0:0:0:0:
64,192,161710,1,0,0:0:0:0:
320,192,161710,1,0,0:0:0:0:
448,192,161873,1,0,0:0:0:0:
320,192,161873,1,0,0:0:0:0:
192,192,162036,1,0,0:0:0:0:
64,192,162036,1,0,0:0:0:0:
320,192,162199,1,0,0:0:0:0:
448,192,162199,1,0,0:0:0:0:
192,192,162362,1,0,0:0:0:0:
64,192,162362,1,0,0:0:0:0:
448,192,162525,1,0,0:0:0:0:
320,192,162525,1,0,0:0:0:0:
192,192,162525,1,0,0:0:0:0:
64,192,162688,1,0,0:0:0:0:
320,192,162688,1,0,0:0:0:0:
192,192,162851,1,0,0:0:0:0:
320,192,162851,1,0,0:0:0:0:
192,192,163014,1,0,0:0:0:0:
64,192,163014,1,0,0:0:0:0:
448,192,163177,1,0,0:0:0:0:
192,192,163177,1,0,0:0:0:0:
192,192,163340,1,0,0:0:0:0:
320,192,163340,1,0,0:0:0:0:
64,192,163503,1,0,0:0:0:0:
320,192,163503,1,0,0:0:0:0:
192,192,163666,1,0,0:0:0:0:
448,192,163666,1,0,0:0:0:0:
448,192,163829,1,0,0:0:0:0:
320,192,163829,1,0,0:0:0:0:
192,192,163992,1,0,0:0:0:0:
64,192,163992,1,0,0:0:0:0:
320,192,164155,1,0,0:0:0:0:
448,192,164155,1,0,0:0:0:0:
320,192,164318,1,0,0:0:0:0:
192,192,164318,1,0,0:0:0:0:
64,192,164481,1,0,0:0:0:0:
192,192,164481,1,0,0:0:0:0:
448,192,164644,1,0,0:0:0:0:
320,192,164644,1,0,0:0:0:0:
64,192,164808,1,0,0:0:0:0:
192,192,164808,1,0,0:0:0:0:
320,192,164971,1,0,0:0:0:0:
192,192,164971,1,0,0:0:0:0:
320,192,165134,1,0,0:0:0:0:
448,192,165134,1,0,0:0:0:0:
192,192,165297,1,0,0:0:0:0:
64,192,165297,1,0,0:0:0:0:
320,192,165460,1,0,0:0:0:0:
448,192,165460,1,0,0:0:0:0:
64,192,165623,1,0,0:0:0:0:
320,192,165623,1,0,0:0:0:0:
192,192,165786,1,0,0:0:0:0:
320,192,165786,1,0,0:0:0:0:
448,192,165949,1,0,0:0:0:0:
320,192,165949,1,0,0:0:0:0:
64,192,166112,1,0,0:0:0:0:
320,192,166112,1,0,0:0:0:0:
448,192,166275,1,0,0:0:0:0:
64,192,166275,1,0,0:0:0:0:
192,192,166438,1,0,0:0:0:0:
64,192,166601,1,0,0:0:0:0:
320,192,166764,1,0,0:0:0:0:
192,192,166927,1,0,0:0:0:0:
448,192,167090,1,0,0:0:0:0:
320,192,167090,1,0,0:0:0:0:
192,192,167172,1,0,0:0:0:0:
64,192,167172,1,0,0:0:0:0:
448,192,167335,1,0,0:0:0:0:
64,192,167335,1,0,0:0:0:0:
192,192,167416,1,0,0:0:0:0:
320,192,167416,1,0,0:0:0:0:
448,192,167579,1,0,0:0:0:0:
320,192,167620,1,0,0:0:0:0:
64,192,167661,1,0,0:0:0:0:
192,192,167702,1,0,0:0:0:0:
448,192,167742,1,0,0:0:0:0:
320,192,167742,1,0,0:0:0:0:
192,192,167824,1,0,0:0:0:0:
64,192,167905,1,0,0:0:0:0:
320,192,167905,1,0,0:0:0:0:
448,192,167987,1,0,0:0:0:0:
64,192,168068,1,0,0:0:0:0:
192,192,168068,1,0,0:0:0:0:
320,192,168150,1,0,0:0:0:0:
192,192,168231,1,0,0:0:0:0:
448,192,168231,1,0,0:0:0:0:
64,192,168313,1,0,0:0:0:0:
192,192,168394,1,0,0:0:0:0:
320,192,168394,1,0,0:0:0:0:
448,192,168476,1,0,0:0:0:0:
64,192,168558,1,0,0:0:0:0:
320,192,168558,1,0,0:0:0:0:
192,192,168639,1,0,0:0:0:0:
64,192,168721,1,0,0:0:0:0:
448,192,168721,1,0,0:0:0:0:
192,192,168802,1,0,0:0:0:0:
320,192,168884,1,0,0:0:0:0:
448,192,168884,1,0,0:0:0:0:
192,192,168965,1,0,0:0:0:0:
64,192,169047,1,0,0:0:0:0:
320,192,169047,1,0,0:0:0:0:
448,192,169128,1,0,0:0:0:0:
192,192,169210,1,0,0:0:0:0:
320,192,169210,1,0,0:0:0:0:
64,192,169291,1,0,0:0:0:0:
192,192,169373,1,0,0:0:0:0:
448,192,169373,1,0,0:0:0:0:
320,192,169454,1,0,0:0:0:0:
64,192,169536,1,0,0:0:0:0:
192,192,169536,1,0,0:0:0:0:
320,192,169617,1,0,0:0:0:0:
192,192,169699,1,0,0:0:0:0:
448,192,169699,1,0,0:0:0:0:
64,192,169780,1,0,0:0:0:0:
192,192,169862,1,0,0:0:0:0:
320,192,169862,1,0,0:0:0:0:
448,192,169943,1,0,0:0:0:0:
64,192,170025,1,0,0:0:0:0:
192,192,170025,1,0,0:0:0:0:
320,192,170106,1,0,0:0:0:0:
192,192,170188,1,0,0:0:0:0:
448,192,170188,1,0,0:0:0:0:
64,192,170269,1,0,0:0:0:0:
192,192,170351,1,0,0:0:0:0:
320,192,170351,1,0,0:0:0:0:
448,192,170433,1,0,0:0:0:0:
64,192,170514,1,0,0:0:0:0:
192,192,170514,1,0,0:0:0:0:
320,192,170596,1,0,0:0:0:0:
192,192,170677,1,0,0:0:0:0:
448,192,170677,1,0,0:0:0:0:
64,192,170759,1,0,0:0:0:0:
192,192,170840,1,0,0:0:0:0:
320,192,170840,1,0,0:0:0:0:
448,192,170922,1,0,0:0:0:0:
64,192,171003,1,0,0:0:0:0:
192,192,171003,1,0,0:0:0:0:
320,192,171085,1,0,0:0:0:0:
192,192,171166,1,0,0:0:0:0:
448,192,171166,1,0,0:0:0:0:
64,192,171248,1,0,0:0:0:0:
192,192,171329,1,0,0:0:0:0:
320,192,171329,1,0,0:0:0:0:
448,192,171411,1,0,0:0:0:0:
64,192,171492,1,0,0:0:0:0:
192,192,171492,1,0,0:0:0:0:
320,192,171574,1,0,0:0:0:0:
64,192,171655,1,0,0:0:0:0:
192,192,171655,1,0,0:0:0:0:
320,192,171737,1,0,0:0:0:0:
448,192,171818,1,0,0:0:0:0:
192,192,171818,1,0,0:0:0:0:
64,192,171900,1,0,0:0:0:0:
448,192,171981,1,0,0:0:0:0:
192,192,171981,1,0,0:0:0:0:
64,192,172063,1,0,0:0:0:0:
320,192,172144,1,0,0:0:0:0:
448,192,172144,1,0,0:0:0:0:
192,192,172226,1,0,0:0:0:0:
64,192,172308,1,0,0:0:0:0:
320,192,172308,1,0,0:0:0:0:
448,192,172471,1,0,0:0:0:0:
192,192,172471,1,0,0:0:0:0:
64,192,172634,1,0,0:0:0:0:
320,192,172634,1,0,0:0:0:0:
448,192,172797,1,0,0:0:0:0:
192,192,172797,1,0,0:0:0:0:
320,192,172960,1,0,0:0:0:0:
64,192,172960,1,0,0:0:0:0:
448,192,172960,1,0,0:0:0:0:
192,192,173041,1,0,0:0:0:0:
64,192,173123,1,0,0:0:0:0:
448,192,173123,1,0,0:0:0:0:
320,192,173204,1,0,0:0:0:0:
192,192,173286,1,0,0:0:0:0:
448,192,173286,1,0,0:0:0:0:
64,192,173367,1,0,0:0:0:0:
192,192,173449,1,0,0:0:0:0:
320,192,173449,1,0,0:0:0:0:
448,192,173530,1,0,0:0:0:0:
64,192,173612,1,0,0:0:0:0:
192,192,173612,1,0,0:0:0:0:
320,192,173693,1,0,0:0:0:0:
192,192,173775,1,0,0:0:0:0:
448,192,173775,1,0,0:0:0:0:
64,192,173856,1,0,0:0:0:0:
192,192,173938,1,0,0:0:0:0:
320,192,173938,1,0,0:0:0:0:
448,192,174019,1,0,0:0:0:0:
64,192,174101,1,0,0:0:0:0:
320,192,174101,1,0,0:0:0:0:
448,192,174183,1,0,0:0:0:0:
320,192,174264,1,0,0:0:0:0:
192,192,174264,1,0,0:0:0:0:
64,192,174346,1,0,0:0:0:0:
192,192,174427,1,0,0:0:0:0:
448,192,174427,1,0,0:0:0:0:
320,192,174509,1,0,0:0:0:0:
64,192,174590,1,0,0:0:0:0:
192,192,174590,1,0,0:0:0:0:
320,192,174672,1,0,0:0:0:0:
64,192,174753,1,0,0:0:0:0:
448,192,174753,1,0,0:0:0:0:
192,192,174835,1,0,0:0:0:0:
320,192,174916,1,0,0:0:0:0:
448,192,174916,1,0,0:0:0:0:
192,192,174998,1,0,0:0:0:0:
64,192,175079,1,0,0:0:0:0:
320,192,175079,1,0,0:0:0:0:
320,192,175405,1,0,0:0:0:0:
448,192,175405,1,0,0:0:0:0:
64,192,175568,1,0,0:0:0:0:
192,192,175568,1,0,0:0:0:0:
320,192,175650,1,0,0:0:0:0:
448,192,175731,1,0,0:0:0:0:
192,192,175731,1,0,0:0:0:0:
64,192,175813,1,0,0:0:0:0:
192,192,175894,1,0,0:0:0:0:
320,192,175894,1,0,0:0:0:0:
448,192,175976,1,0,0:0:0:0:
64,192,176058,1,0,0:0:0:0:
320,192,176058,1,0,0:0:0:0:
448,192,176139,1,0,0:0:0:0:
320,192,176221,1,0,0:0:0:0:
64,192,176221,1,0,0:0:0:0:
192,192,176302,1,0,0:0:0:0:
64,192,176384,1,0,0:0:0:0:
448,192,176384,1,0,0:0:0:0:
192,192,176465,1,0,0:0:0:0:
320,192,176547,1,0,0:0:0:0:
448,192,176547,1,0,0:0:0:0:
192,192,176628,1,0,0:0:0:0:
64,192,176710,1,0,0:0:0:0:
320,192,176710,1,0,0:0:0:0:
192,192,176791,1,0,0:0:0:0:
320,192,176873,1,0,0:0:0:0:
448,192,176873,1,0,0:0:0:0:
192,192,177036,1,0,0:0:0:0:
64,192,177036,1,0,0:0:0:0:
320,192,177199,1,0,0:0:0:0:
448,192,177199,1,0,0:0:0:0:
192,192,177362,1,0,0:0:0:0:
64,192,177362,1,0,0:0:0:0:
448,192,177525,1,0,0:0:0:0:
192,192,177525,1,0,0:0:0:0:
64,192,177606,1,0,0:0:0:0:
320,192,177606,1,0,0:0:0:0:
64,192,177769,1,0,0:0:0:0:
448,192,177769,1,0,0:0:0:0:
320,192,177851,1,0,0:0:0:0:
192,192,177851,1,0,0:0:0:0:
64,192,178014,1,0,0:0:0:0:
192,192,178014,1,0,0:0:0:0:
448,192,178177,1,0,0:0:0:0:
192,192,178259,1,0,0:0:0:0:
64,192,178340,1,0,0:0:0:0:
320,192,178422,1,0,0:0:0:0:
64,192,178503,1,0,0:0:0:0:
448,192,178585,1,0,0:0:0:0:
192,192,178666,1,0,0:0:0:0:
320,192,178748,1,0,0:0:0:0:
64,192,178829,1,0,0:0:0:0:
320,192,178911,1,0,0:0:0:0:
192,192,178992,1,0,0:0:0:0:
448,192,179074,1,0,0:0:0:0:
192,192,179155,1,0,0:0:0:0:
64,192,179237,1,0,0:0:0:0:
320,192,179318,1,0,0:0:0:0:
192,192,179400,1,0,0:0:0:0:
448,192,179481,1,0,0:0:0:0:
320,192,179522,1,0,0:0:0:0:
64,192,179563,1,0,0:0:0:0:
192,192,179604,1,0,0:0:0:0:
320,192,179644,1,0,0:0:0:0:
448,192,179685,1,0,0:0:0:0:
192,192,179726,1,0,0:0:0:0:
64,192,179767,1,0,0:0:0:0:
448,192,179808,1,0,0:0:0:0:
320,192,179848,1,0,0:0:0:0:
192,192,179889,1,0,0:0:0:0:
64,192,179930,1,0,0:0:0:0:
448,192,179971,1,0,0:0:0:0:
320,192,180011,1,0,0:0:0:0:
64,192,180052,1,0,0:0:0:0:
192,192,180093,1,0,0:0:0:0:
448,192,180134,1,0,0:0:0:0:
320,192,180134,1,0,0:0:0:0:
192,192,180174,1,0,0:0:0:0:
64,192,180174,1,0,0:0:0:0:
320,192,180215,1,0,0:0:0:0:
448,192,180215,1,0,0:0:0:0:
192,192,180256,1,0,0:0:0:0:
64,192,180256,1,0,0:0:0:0:
320,192,180297,1,0,0:0:0:0:
448,192,180297,1,0,0:0:0:0:
192,192,180337,1,0,0:0:0:0:
64,192,180337,1,0,0:0:0:0:
320,192,180378,1,0,0:0:0:0:
448,192,180378,1,0,0:0:0:0:
192,192,180419,1,0,0:0:0:0:
64,192,180419,1,0,0:0:0:0:
320,192,180460,1,0,0:0:0:0:
448,192,180460,1,0,0:0:0:0:
448,192,180541,1,0,0:0:0:0:
320,192,180623,1,0,0:0:0:0:
192,192,180704,1,0,0:0:0:0:
448,192,182090,1,0,0:0:0:0:
192,192,182090,1,0,0:0:0:0:
64,192,182251,1,0,0:0:0:0:
192,192,182251,1,0,0:0:0:0:
320,192,182412,1,0,0:0:0:0:
192,192,182412,1,0,0:0:0:0:
448,192,182412,1,0,0:0:0:0:
64,192,182573,1,0,0:0:0:0:
320,192,182573,1,0,0:0:0:0:
192,192,182735,1,0,0:0:0:0:
320,192,182735,1,0,0:0:0:0:
64,192,182896,1,0,0:0:0:0:
448,192,182896,1,0,0:0:0:0:
192,192,183057,1,0,0:0:0:0:
448,192,183057,1,0,0:0:0:0:
64,192,183057,1,0,0:0:0:0:
64,192,183219,1,0,0:0:0:0:
320,192,183219,1,0,0:0:0:0:
320,192,183380,1,0,0:0:0:0:
448,192,183380,1,0,0:0:0:0:
64,192,183541,1,0,0:0:0:0:
192,192,183541,1,0,0:0:0:0:
192,192,183702,1,0,0:0:0:0:
448,192,183702,1,0,0:0:0:0:
320,192,183702,1,0,0:0:0:0:
64,192,183864,1,0,0:0:0:0:
192,192,183864,1,0,0:0:0:0:
320,192,184025,1,0,0:0:0:0:
192,192,184025,1,0,0:0:0:0:
448,192,184186,1,0,0:0:0:0:
192,192,184186,1,0,0:0:0:0:
64,192,184348,1,0,0:0:0:0:
192,192,184348,1,0,0:0:0:0:
320,192,184348,1,0,0:0:0:0:
448,192,184509,1,0,0:0:0:0:
192,192,184509,1,0,0:0:0:0:
448,192,184670,1,0,0:0:0:0:
64,192,184670,1,0,0:0:0:0:
192,192,184831,1,0,0:0:0:0:
320,192,184831,1,0,0:0:0:0:
64,192,184993,1,0,0:0:0:0:
320,192,184993,1,0,0:0:0:0:
448,192,184993,1,0,0:0:0:0:
192,192,185154,1,0,0:0:0:0:
448,192,185154,1,0,0:0:0:0:
64,192,185315,1,0,0:0:0:0:
192,192,185315,1,0,0:0:0:0:
192,192,185477,1,0,0:0:0:0:
448,192,185477,1,0,0:0:0:0:
64,192,185638,1,0,0:0:0:0:
320,192,185638,1,0,0:0:0:0:
192,192,185638,1,0,0:0:0:0:
448,192,185799,1,0,0:0:0:0:
192,192,185799,1,0,0:0:0:0:
64,192,185960,1,0,0:0:0:0:
192,192,185960,1,0,0:0:0:0:
64,192,186122,1,0,0:0:0:0:
320,192,186122,1,0,0:0:0:0:
64,192,186283,1,0,0:0:0:0:
320,192,186283,1,0,0:0:0:0:
448,192,186283,1,0,0:0:0:0:
448,192,186444,1,0,0:0:0:0:
320,192,186444,1,0,0:0:0:0:
192,192,186606,1,0,0:0:0:0:
448,192,186606,1,0,0:0:0:0:
320,192,186606,1,0,0:0:0:0:
64,192,186606,1,0,0:0:0:0:
64,192,186767,1,0,0:0:0:0:
192,192,186767,1,0,0:0:0:0:
448,192,186767,1,0,0:0:0:0:
320,192,186767,1,0,0:0:0:0:
448,192,186928,1,0,0:0:0:0:
320,192,186928,1,0,0:0:0:0:
192,192,186928,1,0,0:0:0:0:
64,192,186928,1,0,0:0:0:0:
64,192,187090,1,0,0:0:0:0:
192,192,187090,1,0,0:0:0:0:
320,192,187090,1,0,0:0:0:0:
448,192,187090,1,0,0:0:0:0:
448,192,187251,1,0,0:0:0:0:
192,192,187251,1,0,0:0:0:0:
192,192,187412,1,0,0:0:0:0:
64,192,187412,1,0,0:0:0:0:
192,192,187573,1,0,0:0:0:0:
448,192,187573,1,0,0:0:0:0:
320,192,187573,1,0,0:0:0:0:
320,192,187735,1,0,0:0:0:0:
192,192,187735,1,0,0:0:0:0:
64,192,187896,1,0,0:0:0:0:
320,192,187896,1,0,0:0:0:0:
448,192,188057,1,0,0:0:0:0:
192,192,188057,1,0,0:0:0:0:
64,192,188219,1,0,0:0:0:0:
192,192,188219,1,0,0:0:0:0:
320,192,188219,1,0,0:0:0:0:
192,192,188380,1,0,0:0:0:0:
320,192,188380,1,0,0:0:0:0:
64,192,188541,1,0,0:0:0:0:
192,192,188541,1,0,0:0:0:0:
192,192,188702,1,0,0:0:0:0:
320,192,188702,1,0,0:0:0:0:
448,192,188864,1,0,0:0:0:0:
320,192,188864,1,0,0:0:0:0:
64,192,188864,1,0,0:0:0:0:
320,192,189025,1,0,0:0:0:0:
192,192,189025,1,0,0:0:0:0:
64,192,189186,1,0,0:0:0:0:
192,192,189186,1,0,0:0:0:0:
320,192,189348,1,0,0:0:0:0:
192,192,189348,1,0,0:0:0:0:
448,192,189509,1,0,0:0:0:0:
320,192,189509,1,0,0:0:0:0:
192,192,189670,1,0,0:0:0:0:
320,192,189670,1,0,0:0:0:0:
64,192,189831,1,0,0:0:0:0:
192,192,189831,1,0,0:0:0:0:
448,192,189993,1,0,0:0:0:0:
192,192,189993,1,0,0:0:0:0:
192,192,190154,1,0,0:0:0:0:
320,192,190154,1,0,0:0:0:0:
448,192,190154,1,0,0:0:0:0:
64,192,190315,1,0,0:0:0:0:
320,192,190315,1,0,0:0:0:0:
448,192,190477,1,0,0:0:0:0:
192,192,190477,1,0,0:0:0:0:
64,192,190638,1,0,0:0:0:0:
192,192,190638,1,0,0:0:0:0:
320,192,190799,1,0,0:0:0:0:
192,192,190799,1,0,0:0:0:0:
448,192,190799,1,0,0:0:0:0:
192,192,190960,1,0,0:0:0:0:
448,192,190960,1,0,0:0:0:0:
64,192,191122,1,0,0:0:0:0:
448,192,191122,1,0,0:0:0:0:
320,192,191122,1,0,0:0:0:0:
64,192,191283,1,0,0:0:0:0:
192,192,191283,1,0,0:0:0:0:
320,192,191283,1,0,0:0:0:0:
448,192,191444,1,0,0:0:0:0:
320,192,191444,1,0,0:0:0:0:
192,192,191444,1,0,0:0:0:0:
64,192,191606,1,0,0:0:0:0:
192,192,191606,1,0,0:0:0:0:
320,192,191606,1,0,0:0:0:0:
448,192,191767,1,0,0:0:0:0:
320,192,191767,1,0,0:0:0:0:
192,192,191767,1,0,0:0:0:0:
320,192,191848,1,0,0:0:0:0:
448,192,191848,1,0,0:0:0:0:
64,192,191848,1,0,0:0:0:0:
64,192,192090,1,0,0:0:0:0:
192,192,192090,1,0,0:0:0:0:
320,192,192090,1,0,0:0:0:0:
64,192,192170,1,0,0:0:0:0:
192,192,192170,1,0,0:0:0:0:
448,192,192170,1,0,0:0:0:0:
448,192,192251,1,0,0:0:0:0:
320,192,192291,1,0,0:0:0:0:
192,192,192331,1,0,0:0:0:0:
64,192,192372,1,0,0:0:0:0:
320,192,192412,1,0,0:0:0:0:
448,192,192412,1,0,0:0:0:0:
192,192,192493,1,0,0:0:0:0:
64,192,192573,1,0,0:0:0:0:
448,192,192573,1,0,0:0:0:0:
320,192,192654,1,0,0:0:0:0:
448,192,192735,1,0,0:0:0:0:
64,192,192735,1,0,0:0:0:0:
192,192,192735,1,0,0:0:0:0:
320,192,192815,1,0,0:0:0:0:
448,192,192896,1,0,0:0:0:0:
64,192,192896,1,0,0:0:0:0:
192,192,192977,1,0,0:0:0:0:
64,192,193057,1,0,0:0:0:0:
320,192,193057,1,0,0:0:0:0:
192,192,193138,1,0,0:0:0:0:
320,192,193219,1,0,0:0:0:0:
448,192,193219,1,0,0:0:0:0:
64,192,193299,1,0,0:0:0:0:
192,192,193380,1,0,0:0:0:0:
320,192,193380,1,0,0:0:0:0:
448,192,193380,1,0,0:0:0:0:
64,192,193460,1,0,0:0:0:0:
192,192,193541,1,0,0:0:0:0:
320,192,193541,1,0,0:0:0:0:
64,192,193622,1,0,0:0:0:0:
320,192,193702,1,0,0:0:0:0:
192,192,193702,1,0,0:0:0:0:
448,192,193783,1,0,0:0:0:0:
64,192,193864,1,0,0:0:0:0:
192,192,193864,1,0,0:0:0:0:
320,192,193944,1,0,0:0:0:0:
64,192,194025,1,0,0:0:0:0:
192,192,194025,1,0,0:0:0:0:
448,192,194025,1,0,0:0:0:0:
320,192,194106,1,0,0:0:0:0:
192,192,194186,1,0,0:0:0:0:
64,192,194186,1,0,0:0:0:0:
320,192,194267,1,0,0:0:0:0:
448,192,194348,1,0,0:0:0:0:
192,192,194348,1,0,0:0:0:0:
64,192,194428,1,0,0:0:0:0:
192,192,194509,1,0,0:0:0:0:
320,192,194509,1,0,0:0:0:0:
448,192,194590,1,0,0:0:0:0:
320,192,194670,1,0,0:0:0:0:
192,192,194670,1,0,0:0:0:0:
64,192,194670,1,0,0:0:0:0:
448,192,194751,1,0,0:0:0:0:
320,192,194831,1,0,0:0:0:0:
64,192,194831,1,0,0:0:0:0:
192,192,194912,1,0,0:0:0:0:
320,192,194993,1,0,0:0:0:0:
448,192,194993,1,0,0:0:0:0:
64,192,195073,1,0,0:0:0:0:
448,192,195154,1,0,0:0:0:0:
320,192,195154,1,0,0:0:0:0:
192,192,195235,1,0,0:0:0:0:
64,192,195315,1,0,0:0:0:0:
320,192,195315,1,0,0:0:0:0:
448,192,195315,1,0,0:0:0:0:
192,192,195396,1,0,0:0:0:0:
320,192,195477,1,0,0:0:0:0:
64,192,195477,1,0,0:0:0:0:
192,192,195557,1,0,0:0:0:0:
64,192,195638,1,0,0:0:0:0:
448,192,195638,1,0,0:0:0:0:
320,192,195719,1,0,0:0:0:0:
192,192,195799,1,0,0:0:0:0:
64,192,195799,1,0,0:0:0:0:
320,192,195880,1,0,0:0:0:0:
448,192,195960,1,0,0:0:0:0:
192,192,195960,1,0,0:0:0:0:
64,192,195960,1,0,0:0:0:0:
320,192,196041,1,0,0:0:0:0:
64,192,196122,1,0,0:0:0:0:
448,192,196122,1,0,0:0:0:0:
320,192,196202,1,0,0:0:0:0:
192,192,196283,1,0,0:0:0:0:
64,192,196283,1,0,0:0:0:0:
320,192,196364,1,0,0:0:0:0:
448,192,196444,1,0,0:0:0:0:
192,192,196444,1,0,0:0:0:0:
320,192,196525,1,0,0:0:0:0:
64,192,196606,1,0,0:0:0:0:
192,192,196606,1,0,0:0:0:0:
448,192,196606,1,0,0:0:0:0:
320,192,196686,1,0,0:0:0:0:
192,192,196767,1,0,0:0:0:0:
448,192,196767,1,0,0:0:0:0:
64,192,196848,1,0,0:0:0:0:
192,192,196928,1,0,0:0:0:0:
320,192,196928,1,0,0:0:0:0:
448,192,196928,1,0,0:0:0:0:
64,192,196928,1,0,0:0:0:0:
64,192,197090,1,0,0:0:0:0:
320,192,197090,1,0,0:0:0:0:
448,192,197090,1,0,0:0:0:0:
192,192,197090,1,0,0:0:0:0:
64,192,197251,1,0,0:0:0:0:
192,192,197251,1,0,0:0:0:0:
448,192,197251,1,0,0:0:0:0:
320,192,197251,1,0,0:0:0:0:
448,192,197412,1,0,0:0:0:0:
320,192,197412,1,0,0:0:0:0:
192,192,197412,1,0,0:0:0:0:
64,192,197412,1,0,0:0:0:0:
448,192,197573,1,0,0:0:0:0:
192,192,197654,1,0,0:0:0:0:
64,192,197735,1,0,0:0:0:0:
192,192,197815,1,0,0:0:0:0:
448,192,197896,1,0,0:0:0:0:
320,192,197977,1,0,0:0:0:0:
64,192,198057,1,0,0:0:0:0:
320,192,198138,1,0,0:0:0:0:
448,192,198219,1,0,0:0:0:0:
192,192,198299,1,0,0:0:0:0:
448,192,198380,1,0,0:0:0:0:
64,192,198460,1,0,0:0:0:0:
192,192,198541,1,0,0:0:0:0:
448,192,198622,1,0,0:0:0:0:
192,192,198702,1,0,0:0:0:0:
320,192,198783,1,0,0:0:0:0:
64,192,198864,1,0,0:0:0:0:
448,192,198944,1,0,0:0:0:0:
320,192,199025,1,0,0:0:0:0:
64,192,199106,1,0,0:0:0:0:
192,192,199186,1,0,0:0:0:0:
448,192,199267,1,0,0:0:0:0:
192,192,199348,1,0,0:0:0:0:
64,192,199428,1,0,0:0:0:0:
320,192,199509,1,0,0:0:0:0:
192,192,199590,1,0,0:0:0:0:
320,192,199670,1,0,0:0:0:0:
64,192,199670,1,0,0:0:0:0:
448,192,199670,1,0,0:0:0:0:
448,192,199831,1,0,0:0:0:0:
192,192,199831,1,0,0:0:0:0:
64,192,199831,1,0,0:0:0:0:
448,192,199993,1,0,0:0:0:0:
320,192,199993,1,0,0:0:0:0:
64,192,199993,1,0,0:0:0:0:
448,192,200154,1,0,0:0:0:0:
320,192,200154,1,0,0:0:0:0:
192,192,200154,1,0,0:0:0:0:
64,192,200154,1,0,0:0:0:0:
320,192,200235,1,0,0:0:0:0:
64,192,200315,1,0,0:0:0:0:
192,192,200396,1,0,0:0:0:0:
320,192,200477,1,0,0:0:0:0:
192,192,200557,1,0,0:0:0:0:
64,192,200638,1,0,0:0:0:0:
320,192,200638,1,0,0:0:0:0:
448,192,200638,1,0,0:0:0:0:
192,192,200719,1,0,0:0:0:0:
320,192,200799,1,0,0:0:0:0:
448,192,200799,1,0,0:0:0:0:
64,192,200799,1,0,0:0:0:0:
192,192,200799,1,0,0:0:0:0:
320,192,200880,1,0,0:0:0:0:
64,192,200960,1,0,0:0:0:0:
320,192,201041,1,0,0:0:0:0:
448,192,201122,1,0,0:0:0:0:
192,192,201202,1,0,0:0:0:0:
64,192,201283,1,0,0:0:0:0:
320,192,201283,1,0,0:0:0:0:
448,192,201283,1,0,0:0:0:0:
64,192,201444,1,0,0:0:0:0:
192,192,201444,1,0,0:0:0:0:
320,192,201444,1,0,0:0:0:0:
448,192,201444,1,0,0:0:0:0:
448,192,201606,1,0,0:0:0:0:
320,192,201606,1,0,0:0:0:0:
192,192,201606,1,0,0:0:0:0:
64,192,201767,1,0,0:0:0:0:
192,192,201767,1,0,0:0:0:0:
320,192,201767,1,0,0:0:0:0:
448,192,201767,1,0,0:0:0:0:
64,192,201928,1,0,0:0:0:0:
192,192,201928,1,0,0:0:0:0:
448,192,201928,1,0,0:0:0:0:
320,192,202089,1,0,0:0:0:0:
192,192,202089,1,0,0:0:0:0:
64,192,202089,1,0,0:0:0:0:
448,192,202089,1,0,0:0:0:0:
192,192,202251,1,0,0:0:0:0:
320,192,202251,1,0,0:0:0:0:
448,192,202251,1,0,0:0:0:0:
64,192,202412,1,0,0:0:0:0:
192,192,202412,1,0,0:0:0:0:
320,192,202412,1,0,0:0:0:0:
448,192,202412,1,0,0:0:0:0:
448,192,202735,1,0,0:0:0:0:
320,192,202735,1,0,0:0:0:0:
64,192,202735,1,0,0:0:0:0:
192,192,202735,1,0,0:0:0:0:
64,192,202896,1,0,0:0:0:0:
192,192,202896,1,0,0:0:0:0:
320,192,202896,1,0,0:0:0:0:
448,192,202896,1,0,0:0:0:0:
448,192,203057,1,0,0:0:0:0:
320,192,203057,1,0,0:0:0:0:
192,192,203057,1,0,0:0:0:0:
64,192,203057,1,0,0:0:0:0:
64,192,203219,1,0,0:0:0:0:
192,192,203219,1,0,0:0:0:0:
320,192,203219,1,0,0:0:0:0:
448,192,203219,1,0,0:0:0:0:
448,192,203380,1,0,0:0:0:0:
320,192,203380,1,0,0:0:0:0:
192,192,203380,1,0,0:0:0:0:
64,192,203380,1,0,0:0:0:0:
64,192,203541,1,0,0:0:0:0:
192,192,203541,1,0,0:0:0:0:
448,192,203541,1,0,0:0:0:0:
192,192,203702,1,0,0:0:0:0:
320,192,203702,1,0,0:0:0:0:
448,192,203702,1,0,0:0:0:0:
192,192,203864,1,0,0:0:0:0:
64,192,203864,1,0,0:0:0:0:
320,192,203864,1,0,0:0:0:0:
448,192,203864,1,0,0:0:0:0:
