osu file format v14

[General]
AudioFilename: audio.mp3
AudioLeadIn: 0
PreviewTime: 86542
Countdown: 0
SampleSet: Soft
StackLeniency: 0.2
Mode: 0
LetterboxInBreaks: 0
WidescreenStoryboard: 1

[Editor]
Bookmarks: 20113,22847,23216,24842,39029,43758,48192,48487,53216,57946,62675,67404,76862,120162,120606,121295
DistanceSpacing: 1.3
BeatDivisor: 4
GridSize: 32
TimelineZoom: 2.7

[Metadata]
Title:T.R.A.P.
TitleUnicode:T.R.A.P.
Artist:DJ Raisei
ArtistUnicode:DJ Raisei
Creator:PaRaDogi
Version:Extreme
Source:osu! World Cup 2022
Tags:azer bluirre respirte 0ppinosu daycore strategas Halgoh electronic instrumental hardcore trap owc2022gfnm4 owc osu world cup grand finals gf nm4 fa featured artist mg mappers' guild mpg
BeatmapID:4164086
BeatmapSetID:2002366

[Difficulty]
HPDrainRate:5
CircleSize:4
OverallDifficulty:9
ApproachRate:9.6
SliderMultiplier:1.8
SliderTickRate:0.5

[Events]
//Background and Video events
0,0,"sexy girl.jpg",0,0
//Break Periods
2,67604,71624
//Storyboard Layer 0 (Background)
//Storyboard Layer 1 (Fail)
//Storyboard Layer 2 (Pass)
//Storyboard Layer 3 (Foreground)
//Storyboard Layer 4 (Overlay)
//Storyboard Sound Samples

[TimingPoints]
15,295.566502463054,4,2,1,22,1,0
310,-100,4,2,1,33,0,0
606,-100,4,2,1,44,0,0
901,-100,4,2,1,55,0,0
1197,-100,4,2,1,60,0,0
5926,-133.333333333333,4,2,1,65,0,0
8290,-133.333333333333,4,2,1,70,0,0
10655,-55.5555555555556,4,2,1,80,0,0
11394,-100,4,2,2,80,0,0
11837,-100,4,2,1,80,0,0
13019,-55.5555555555556,4,2,1,80,0,0
14497,-55.5555555555556,4,2,2,80,0,0
14793,-55.5555555555556,4,2,1,80,0,0
16271,-55.5555555555556,4,2,2,80,0,0
16566,-55.5555555555556,4,2,1,80,0,0
18525,-55.5555555555556,4,2,1,80,0,0
18562,-55.5555555555556,4,2,1,80,0,0
18599,-55.5555555555556,4,2,1,80,0,0
18636,-55.5555555555556,4,2,1,80,0,0
18673,-55.5555555555556,4,2,1,80,0,0
18710,-55.5555555555556,4,2,1,80,0,0
18746,-55.5555555555556,4,2,1,80,0,0
18783,-55.5555555555556,4,2,1,80,0,0
19226,-55.5555555555556,4,2,3,80,0,0
19522,-55.5555555555556,4,2,1,80,0,0
19670,-55.5555555555556,4,2,2,80,0,0
19817,-285.714285714284,4,2,1,80,0,0
20113,-55.5555555555556,4,2,1,80,0,0
20556,-285.714285714284,4,2,1,40,0,0
20630,-285.714285714284,4,2,1,15,0,0
20704,-285.714285714284,4,2,1,40,0,0
20778,-285.714285714284,4,2,1,15,0,0
20852,-285.714285714284,4,2,1,40,0,0
20926,-285.714285714284,4,2,1,15,0,0
21000,-285.714285714284,4,2,1,40,0,0
21148,-133.333333333333,4,2,1,50,0,0
21221,-133.333333333333,4,2,1,25,0,0
21295,-133.333333333333,4,2,1,50,0,0
21368,-133.333333333333,4,2,1,25,0,0
21443,-133.333333333333,4,2,1,50,0,0
21516,-133.333333333333,4,2,1,25,0,0
21591,-133.333333333333,4,2,1,50,0,0
21739,-133.333333333333,4,2,1,60,0,0
21813,-133.333333333333,4,2,1,35,0,0
21886,-133.333333333333,4,2,1,60,0,0
21960,-133.333333333333,4,2,1,35,0,0
22034,-285.714285714284,4,2,1,60,0,0
22108,-285.714285714284,4,2,1,35,0,0
22551,-285.714285714284,4,2,5,35,0,0
22625,-133.333333333333,4,2,6,35,0,0
22699,-133.333333333333,4,2,1,35,0,0
22847,-133.333333333333,4,2,1,65,0,0
23586,-133.333333333333,4,2,1,65,0,0
23660,-133.333333333333,4,2,1,65,0,0
23808,-66.6666666666667,4,2,1,55,0,0
23955,-66.6666666666667,4,2,1,63,0,0
24103,-66.6666666666667,4,2,1,70,0,0
24251,-66.6666666666667,4,2,1,75,0,0
24399,-66.6666666666667,4,2,1,78,0,0
24473,-66.6666666666667,4,2,1,79,0,0
24547,-66.6666666666667,4,2,1,80,0,0
24842,-55.5555555555556,4,2,1,90,0,0
26320,-76.9230769230769,4,2,1,90,0,0
28980,-55.5555555555556,4,2,4,90,0,0
29017,-55.5555555555556,4,2,1,68,0,0
29054,-55.5555555555556,4,2,1,71,0,0
29091,-55.5555555555556,4,2,1,74,0,0
29128,-55.5555555555556,4,2,1,77,0,0
29165,-55.5555555555556,4,2,1,80,0,0
29202,-55.5555555555556,4,2,1,84,0,0
29239,-55.5555555555556,4,2,1,88,0,0
29276,-55.5555555555556,4,2,1,90,0,0
29313,-55.5555555555556,4,2,1,88,0,0
29349,-55.5555555555556,4,2,1,84,0,0
29386,-55.5555555555556,4,2,1,80,0,0
29423,-55.5555555555556,4,2,1,77,0,0
29460,-55.5555555555556,4,2,1,74,0,0
29497,-55.5555555555556,4,2,1,71,0,0
29571,-55.5555555555556,4,2,1,90,0,0
30458,-76.9230769230769,4,2,1,90,0,0
33709,-133.333333333333,4,2,4,85,0,0
33728,-133.333333333333,4,2,1,90,0,0
33820,-133.333333333333,4,2,1,90,0,0
33857,-133.333333333333,4,2,1,90,0,0
33894,-133.333333333333,4,2,1,90,0,0
33930,-133.333333333333,4,2,1,90,0,0
33968,-133.333333333333,4,2,1,90,0,0
34004,-133.333333333333,4,2,1,90,0,0
34042,-133.333333333333,4,2,1,90,0,0
34078,-133.333333333333,4,2,1,90,0,0
34116,-133.333333333333,4,2,1,90,0,0
34153,-133.333333333333,4,2,1,90,0,0
34300,-55.5555555555556,4,2,1,90,0,0
34744,-222.222222222221,4,2,1,80,0,0
34817,-222.222222222221,4,2,1,55,0,0
34891,-222.222222222221,4,2,1,80,0,0
34964,-222.222222222221,4,2,1,55,0,0
35039,-222.222222222221,4,2,1,80,0,0
35112,-222.222222222221,4,2,1,55,0,0
35335,-222.222222222221,4,2,1,80,0,0
35408,-222.222222222221,4,2,1,55,0,0
35482,-222.222222222221,4,2,1,80,0,0
35555,-222.222222222221,4,2,1,55,0,0
35630,-222.222222222221,4,2,1,80,0,0
35703,-222.222222222221,4,2,1,55,0,0
35778,-222.222222222221,4,2,1,80,0,0
35851,-222.222222222221,4,2,1,55,0,0
35926,-222.222222222221,4,2,1,80,0,0
35999,-222.222222222221,4,2,1,55,0,0
36074,-222.222222222221,4,2,1,80,0,0
36147,-222.222222222221,4,2,1,55,0,0
36221,-222.222222222221,4,2,1,85,0,0
36517,-222.222222222221,4,2,2,85,0,0
36665,-55.5555555555556,4,2,1,85,0,0
37256,-76.9230769230769,4,2,1,85,0,0
38475,-76.9230769230769,4,2,1,68,0,0
38512,-76.9230769230769,4,2,1,71,0,0
38549,-76.9230769230769,4,2,1,74,0,0
38586,-76.9230769230769,4,2,1,77,0,0
38623,-76.9230769230769,4,2,1,80,0,0
38660,-76.9230769230769,4,2,1,84,0,0
38697,-76.9230769230769,4,2,1,88,0,0
38734,-76.9230769230769,4,2,1,90,0,0
38771,-76.9230769230769,4,2,1,88,0,0
38807,-76.9230769230769,4,2,1,84,0,0
38844,-76.9230769230769,4,2,1,80,0,0
38881,-76.9230769230769,4,2,1,77,0,0
38918,-76.9230769230769,4,2,1,74,0,0
38955,-76.9230769230769,4,2,1,71,0,0
39029,-55.5555555555556,4,2,1,90,0,0
39620,-76.9230769230769,4,2,1,90,0,0
43019,-76.9230769230769,4,2,4,85,0,0
43056,-76.9230769230769,4,2,1,83,0,0
43093,-76.9230769230769,4,2,1,81,0,0
43130,-76.9230769230769,4,2,1,79,0,0
43167,-76.9230769230769,4,2,1,77,0,0
43204,-76.9230769230769,4,2,1,75,0,0
43241,-76.9230769230769,4,2,1,73,0,0
43278,-76.9230769230769,4,2,1,71,0,0
43315,-76.9230769230769,4,2,1,69,0,0
43352,-76.9230769230769,4,2,1,67,0,0
43389,-76.9230769230769,4,2,1,65,0,0
43426,-76.9230769230769,4,2,1,63,0,0
43463,-76.9230769230769,4,2,1,61,0,0
43500,-76.9230769230769,4,2,1,59,0,0
43537,-76.9230769230769,4,2,1,57,0,0
43574,-76.9230769230769,4,2,1,55,0,0
43611,-76.9230769230769,4,2,1,53,0,0
43648,-76.9230769230769,4,2,1,51,0,0
43684,-76.9230769230769,4,2,1,49,0,0
43721,-76.9230769230769,4,2,1,47,0,0
43758,-55.5555555555556,4,2,1,85,0,0
44645,-133.333333333333,4,2,3,65,0,0
44941,-55.5555555555556,4,2,1,85,0,0
46862,-133.333333333333,4,2,1,85,0,0
47305,-133.333333333333,4,2,5,85,0,0
48192,-399.999999999997,4,2,5,85,0,0
48487,-83.3333333333333,4,2,2,90,0,0
52921,-83.3333333333333,4,2,3,90,0,0
53216,-55.5555555555556,4,2,1,90,0,0
53660,-83.3333333333333,4,2,1,90,0,0
57946,-43.4782608695652,4,2,2,90,0,0
62379,-666.666666666658,4,2,5,90,0,0
62527,-666.666666666658,4,2,2,90,0,0
62675,-50,4,2,1,90,0,0
62970,-66.6666666666667,4,2,1,90,0,0
66813,-66.6666666666667,4,2,4,90,0,0
66837,-66.6666666666667,4,2,1,90,0,0
66849,-66.6666666666667,4,2,1,90,0,0
66862,-66.6666666666667,4,2,1,90,0,0
66886,-66.6666666666667,4,2,1,90,0,0
66911,-66.6666666666667,4,2,1,90,0,0
66923,-66.6666666666667,4,2,1,90,0,0
66960,-66.6666666666667,4,2,1,90,0,0
66997,-66.6666666666667,4,2,1,90,0,0
67010,-66.6666666666667,4,2,1,90,0,0
67034,-66.6666666666667,4,2,1,90,0,0
67059,-66.6666666666667,4,2,1,90,0,0
67071,-66.6666666666667,4,2,1,90,0,0
67108,-66.6666666666667,4,2,1,90,0,0
67145,-66.6666666666667,4,2,1,90,0,0
67158,-66.6666666666667,4,2,1,90,0,0
67182,-66.6666666666667,4,2,1,90,0,0
67207,-66.6666666666667,4,2,1,90,0,0
67219,-66.6666666666667,4,2,1,90,0,0
67256,-66.6666666666667,4,2,1,90,0,0
67293,-66.6666666666667,4,2,1,90,0,0
67306,-66.6666666666667,4,2,1,90,0,0
67330,-66.6666666666667,4,2,1,90,0,0
67355,-66.6666666666667,4,2,1,90,0,0
67404,-66.6666666666667,4,2,1,70,0,0
67478,-66.6666666666667,4,2,1,70,0,0
70360,-66.6666666666667,4,2,1,70,0,0
70655,-66.6666666666667,4,2,1,70,0,0
72133,-66.6666666666667,4,2,1,70,0,0
72428,-66.6666666666667,4,2,3,80,0,0
74349,-133.333333333333,4,2,3,80,0,0
76566,-133.333333333333,4,2,1,85,0,0
81591,-133.333333333333,4,2,1,87,0,0
82773,-133.333333333333,4,2,1,88,0,0
83955,-133.333333333333,4,2,1,89,0,0
85138,-133.333333333333,4,2,3,90,0,0
86320,-133.333333333333,4,2,1,90,0,0
86615,-133.333333333333,4,2,2,90,0,0
86689,-133.333333333333,4,2,3,90,0,0
86911,-133.333333333333,4,2,2,90,0,0
87207,-399.999999999997,4,2,1,90,0,0
87502,-55.5555555555556,4,2,1,100,0,0
87798,-66.6666666666667,4,2,1,100,0,0
89867,-83.3333333333333,4,2,1,100,0,0
92231,-66.6666666666667,4,2,1,100,0,0
99325,-83.3333333333333,4,2,1,100,0,0
101689,-55.5555555555556,4,2,1,100,0,0
101837,-133.333333333333,4,2,1,100,0,0
101985,-55.5555555555556,4,2,1,100,0,0
102133,-133.333333333333,4,2,1,100,0,0
102428,-133.333333333333,4,2,1,100,0,0
102872,-50,4,2,1,100,0,0
103463,-133.333333333333,4,2,1,100,0,0
106418,-55.5555555555556,4,2,1,100,0,0
107158,-55.5555555555556,4,2,1,100,0,0
107601,-55.5555555555556,4,2,1,100,0,0
110335,-55.5555555555556,4,2,3,100,0,0
110556,-55.5555555555556,4,2,2,100,0,0
110852,-666.666666666658,4,2,1,100,0,0
111148,-83.3333333333333,4,2,2,100,0,0
113512,-55.5555555555556,4,2,1,100,0,0
113881,-83.3333333333333,4,2,1,100,0,0
115877,-83.3333333333333,4,2,4,100,0,0
116024,-83.3333333333333,4,2,1,100,0,0
117946,-83.3333333333333,4,2,1,100,0,0
120901,-83.3333333333333,4,2,6,100,0,0
120976,-83.3333333333333,4,2,1,100,0,0
121049,-83.3333333333333,4,2,6,100,0,0

[Colours]
Combo1 : 255,168,185
Combo2 : 176,204,225

[HitObjects]
31,15,1197,5,4,0:0:0:0:
108,21,1345,1,2,0:0:0:0:
154,79,1492,1,2,0:0:0:0:
137,152,1640,1,2,0:0:0:0:
73,190,1788,1,2,0:0:0:0:
2,168,1936,1,2,0:0:0:0:
2,168,2231,5,2,0:0:0:0:
73,190,2379,1,2,0:0:0:0:
116,248,2527,1,2,0:0:0:0:
120,321,2675,1,2,0:0:0:0:
84,383,2822,1,2,0:0:0:0:
84,383,3118,5,2,0:0:0:0:
84,383,3414,5,2,0:0:0:0:
120,321,3561,1,2,0:0:0:0:
176,292,3709,1,2,0:0:0:0:
225,293,3857,1,2,0:0:0:0:
257,305,4005,1,2,0:0:0:0:
257,305,4300,5,2,0:0:0:0:
275,327,4448,1,2,0:0:0:0:
305,339,4596,1,2,0:0:0:0:
341,342,4744,1,2,0:0:0:0:
383,318,4891,1,2,0:0:0:0:
407,254,5039,1,2,0:0:0:0:
372,194,5187,1,2,0:0:0:0:
298,185,5335,1,2,0:0:0:0:
242,236,5482,1,2,0:0:0:0:
170,218,5630,1,2,0:0:0:0:
143,150,5778,1,2,0:0:0:0:
193,93,5926,6,0,L|268:111,1,67.5000025749208,10|2,0:2|0:2,0:0:0:0:
50,40,6221,2,0,L|129:23,1,67.5000025749208,10|2,0:2|0:2,0:0:0:0:
302,34,6517,2,0,L|377:19,1,67.5000025749208,10|2,0:2|0:2,0:0:0:0:
262,197,6813,2,0,L|337:215,1,67.5000025749208,8|2,0:0|0:2,0:0:0:0:
397,127,7108,2,0,L|472:112,1,67.5000025749208,10|2,0:2|0:2,0:0:0:0:
365,289,7404,2,0,L|440:307,1,67.5000025749208,10|2,0:2|0:2,0:0:0:0:
215,359,7699,2,0,L|290:344,1,67.5000025749208,8|2,0:2|0:0,0:0:0:0:
418,215,7995,2,0,L|493:233,1,67.5000025749208,8|2,0:0|0:2,0:0:0:0:
256,16,8290,5,10,0:2:0:0:
256,16,8438,1,10,0:2:0:0:
244,24,8586,1,10,0:2:0:0:
268,43,8734,1,10,0:2:0:0:
205,67,8881,1,10,0:2:0:0:
306,104,9029,1,10,0:2:0:0:
166,142,9177,1,8,0:0:0:0:
354,204,9325,1,10,0:0:0:0:
199,371,9473,5,10,0:0:0:0:
250,359,9547,1,8,0:0:0:0:
277,313,9620,1,10,0:0:0:0:
262,263,9694,1,8,0:0:0:0:
211,244,9768,6,0,L|201:292,3,33.7500012874604,10|8|10|8,0:0|0:0|0:0|0:0,0:0:0:0:
127,316,10064,6,0,L|118:291,8,16.8750006437302,8|8|8|8|8|8|8|8|12,0:3|0:3|0:3|0:3|0:3|0:3|0:3|0:3|0:2,0:0:0:0:
122,340,10655,6,0,B|11:82|11:82|130:149,1,404.999987640381,4|0,3:0|0:0,0:0:0:0:
118,222,11098,2,0,B|171:28|171:28|107:46,1,242.999992584229,4|0,3:0|0:0,0:0:0:0:
64,82,11394,2,0,L|21:61,4,45,8|8|8|4|4,0:3|0:3|0:3|0:3|0:3,0:0:0:0:
259,1,11837,5,0,3:0:0:0:
316,56,11985,1,2,0:0:0:0:
276,155,12133,2,0,B|261:151|261:151|236:68,1,90,2|2,0:0|0:0,0:0:0:0:
356,126,12428,2,0,B|379:116|379:116|451:167,1,90,2|2,0:0|0:0,0:0:0:0:
342,207,12724,1,2,0:1:0:0:
190,370,13019,6,0,B|475:344|475:344|314:297,1,404.999987640381,4|0,3:0|0:0,0:0:0:0:
294,347,13463,2,0,B|185:298|185:298|238:285,1,161.999995056153,4|0,3:0|0:0,0:0:0:0:
299,269,13684,2,0,B|338:159|338:159|274:217,1,161.999995056153,4|0,3:0|0:0,0:0:0:0:
229,212,13906,2,0,L|170:190,8,40.4999987640381,4|0|0|0|0|0|0|0|0,3:0|0:0|0:0|0:0|0:0|0:0|0:0|0:0|0:0,0:0:0:0:
422,145,14349,5,2,0:1:0:0:
425,134,14423,1,0,0:0:0:0:
427,124,14497,1,8,0:3:0:0:
489,81,14645,1,4,0:3:0:0:
469,379,14793,6,0,B|283:310|283:310|304:255,1,242.999992584229,4|0,3:3|0:0,0:0:0:0:
375,267,15088,2,0,B|424:124|424:124|274:76,1,242.999992584229,4|0,3:3|0:0,0:0:0:0:
257,146,15384,6,0,B|485:224|485:224|531:58,1,404.999987640381,4|0,3:3|0:0,0:0:0:0:
457,56,15827,2,0,L|443:108,8,40.4999987640381,4|0|0|0|0|0|0|0|0,3:0|0:0|0:0|0:0|0:0|0:0|0:0|0:0|0:0,0:0:0:0:
300,23,16271,5,8,0:3:0:0:
336,96,16418,1,4,0:3:0:0:
158,242,16566,6,0,B|219:13|219:13|60:118,1,404.999987640381,4|0,3:0|0:0,0:0:0:0:
76,183,17010,2,0,B|273:232|273:232|250:337,1,242.999992584229,4|0,3:0|0:0,0:0:0:0:
223,333,17305,2,0,B|98:352|98:352|136:312,1,161.999995056153,4|0,3:0|0:0,0:0:0:0:
163,257,17527,2,0,L|204:89,1,161.999995056153,4|0,3:0|0:0,0:0:0:0:
250,41,17748,6,0,B|265:36|265:36|339:58,1,80.9999975280763,4|0,3:0|0:0,0:0:0:0:
494,8,17896,1,4,3:0:0:0:
479,34,17970,1,4,3:0:0:0:
480,198,18118,1,4,3:0:0:0:
499,226,18192,1,4,3:0:0:0:
277,118,18340,2,0,L|300:204,1,80.9999975280763,4|0,3:0|0:0,0:0:0:0:
430,364,18487,1,4,3:0:0:0:
442,331,18561,1,4,3:0:0:0:
218,200,18709,1,4,3:0:0:0:
211,177,18783,2,0,L|121:154,1,80.9999975280763,4|0,3:0|0:0,0:0:0:0:
259,353,18931,6,0,L|303:174,1,161.999995056153,4|0,3:0|0:0,0:0:0:0:
76,101,19226,1,0,3:0:0:0:
72,89,19300,1,0,3:0:0:0:
69,79,19374,1,8,0:0:0:0:
5,196,19522,1,8,0:0:0:0:
56,254,19670,1,0,0:0:0:0:
10,372,19817,6,0,L|58:359,1,47.2499985580445,14|0,0:1|0:0,0:0:0:0:
117,311,20113,6,0,B|367:388|367:388|305:230,1,404.999987640381,4|0,3:0|0:0,0:0:0:0:
237,245,20556,6,0,L|229:273,6,15.7499995193482,2|2|2|2|2|2|2,0:0|0:0|0:0|0:0|0:0|0:0|0:0,0:0:0:0:
391,172,21148,6,0,L|401:207,6,33.7500012874604,2|2|2|2|2|2|2,0:0|0:0|0:0|0:0|0:0|0:0|0:0,0:0:0:0:
256,25,21739,5,2,0:0:0:0:
243,29,21813,1,2,0:0:0:0:
230,33,21886,1,2,0:0:0:0:
217,37,21960,1,2,0:0:0:0:
209,40,22034,1,2,0:0:0:0:
205,42,22108,6,2,L|187:130,1,78.7499975967408,2|0,0:0|0:0,0:1:0:0:
125,180,22551,5,2,0:0:0:0:
128,189,22625,6,0,L|148:255,1,67.5000025749208,2|0,0:0|0:0,0:0:0:0:
130,330,22847,6,0,P|132:336|126:328,4,33.7500012874604,2|2|2|2|2,0:0|0:0|0:0|0:0|0:0,0:0:0:0:
202,374,23290,6,0,P|252:367|277:270,1,135.000005149842,2|2,0:0|0:0,0:0:0:0:
354,240,23660,6,0,L|369:191,1,33.7500012874604,2|0,0:0|0:0,0:0:0:0:
504,82,23808,6,0,B|363:32|363:32|439:194|439:194|283:131,1,472.500018024445,8|0,0:0|0:0,0:0:0:0:
239,95,24399,6,0,L|261:20,2,67.5000025749208,0|0|12,3:0|3:0|3:2,0:0:0:0:
222,367,24842,6,0,B|136:46|136:46|107:182,1,404.999987640381,4|0,3:0|0:0,0:0:0:0:
162,185,25285,2,0,L|245:200,1,80.9999975280763,2|0,0:1|0:0,0:0:0:0:
411,150,25433,5,8,0:0:0:0:
415,143,25507,1,0,0:0:0:0:
416,135,25581,1,2,0:0:0:0:
409,121,25655,1,0,0:0:0:0:
381,107,25729,1,2,0:0:0:0:
346,115,25803,1,0,0:0:0:0:
326,149,25877,1,2,0:0:0:0:
340,193,25950,1,0,0:0:0:0:
383,209,26024,1,2,0:0:0:0:
412,252,26098,1,0,0:0:0:0:
412,309,26172,1,2,0:0:0:0:
372,344,26246,1,0,0:0:0:0:
314,341,26320,6,0,L|298:281,1,58.4999973220826,2|0,0:0|0:0,0:0:0:0:
180,133,26468,1,2,3:2:0:0:
165,179,26542,1,2,3:2:0:0:
151,224,26615,2,0,L|131:293,1,58.4999973220826,10|0,0:2|0:0,0:0:0:0:
25,126,26763,2,0,L|7:66,1,58.4999973220826,2|0,0:3|0:0,0:0:0:0:
206,40,26911,2,0,L|276:63,1,58.4999973220826,2|0,0:3|0:0,0:0:0:0:
48,209,27059,2,0,L|-10:227,1,58.4999973220826,2|0,0:3|0:0,0:0:0:0:
129,10,27207,5,0,3:0:0:0:
227,302,27354,2,0,L|176:119,1,175.499991966248,2|0,0:1|0:0,0:0:0:0:
247,169,27650,1,2,0:0:0:0:
241,184,27724,1,2,0:0:0:0:
236,200,27798,1,8,0:0:0:0:
192,374,27946,1,2,0:0:0:0:
134,280,28093,1,0,0:0:0:0:
344,211,28241,1,2,0:0:0:0:
331,214,28315,1,2,0:0:0:0:
316,217,28389,5,2,0:0:0:0:
104,365,28537,1,2,0:0:0:0:
278,378,28684,2,0,L|291:308,1,58.4999973220826,0|0,3:0|0:0,0:0:0:0:
410,158,28832,1,2,0:0:0:0:
420,122,28906,1,2,0:0:0:0:
432,82,28980,6,0,B|406:26|342:1|268:45|273:121|273:121|284:116|284:116|303:155|293:205|208:305|57:192|164:54,1,566.999982696534,10|2,0:0|0:0,0:0:0:0:
204,34,29571,6,0,B|117:2|117:2|273:355|273:355|157:288,1,566.999982696534,4|0,3:0|0:0,0:0:0:0:
149,247,30162,2,0,L|246:205,1,80.9999975280763,8|0,0:0|0:0,0:0:0:0:
438,294,30310,1,2,0:0:0:0:
434,307,30384,1,2,0:0:0:0:
431,320,30458,2,0,L|418:382,1,58.4999973220826,2|2,0:0|0:0,0:0:0:0:
305,199,30606,2,0,L|270:129,1,58.4999973220826,2|0,3:2|0:0,0:0:0:0:
437,7,30753,5,2,0:0:0:0:
415,19,30827,1,0,0:0:0:0:
398,46,30901,1,2,0:2:0:0:
402,87,30975,1,2,0:2:0:0:
432,113,31049,2,0,L|492:125,1,58.4999973220826,2|2,0:2|0:2,0:0:0:0:
336,284,31197,1,2,3:2:0:0:
283,300,31271,1,0,3:2:0:0:
233,317,31345,2,0,L|169:337,1,58.4999973220826,8|0,0:2|0:0,0:0:0:0:
17,153,31492,2,0,L|79:168,1,58.4999973220826,2|0,0:3|0:0,0:0:0:0:
112,384,31640,2,0,B|99:381|99:381|46:245,1,116.999994644165,2|2,0:3|0:3,0:0:0:0:
206,28,31936,6,0,B|210:41|210:41|153:260,1,233.999989288331,4|0,3:0|0:0,0:0:0:0:
113,91,32379,2,0,L|95:23,1,58.4999973220826,2|0,0:1|0:0,0:0:0:0:
254,202,32527,1,8,0:0:0:0:
73,166,32675,1,2,0:0:0:0:
312,70,32822,2,0,B|304:74|304:74|268:123,1,58.4999973220826,0|0,3:0|0:0,0:0:0:0:
102,365,32970,6,0,P|176:375|214:266,1,175.499991966248,2|0,0:1|0:0,0:0:0:0:
298,270,33266,1,2,0:1:0:0:
193,108,33414,1,0,3:0:0:0:
309,351,33561,1,2,0:3:0:0:
331,357,33635,1,2,0:3:0:0:
352,366,33709,2,0,L|399:350,7,33.7500012874604,10|0|2|2|2|2|2|2,0:0|0:0|0:0|0:0|0:0|0:0|0:0|0:0,0:0:0:0:
435,296,34300,6,0,B|465:332|461:361|461:361|510:135|510:135|489:193|489:193|396:258,1,404.999987640381,4|0,3:0|0:0,0:0:0:0:
379,233,34744,6,0,L|371:198,6,20.2499993820191,2|2|2|2|2|2|0,0:0|0:0|0:0|0:0|0:0|0:0|0:0,0:0:0:0:
298,240,35335,6,0,L|290:275,5,20.2499993820191,2|2|2|2|2|2,0:0|0:0|0:0|0:0|0:0|0:0,0:0:0:0:
216,236,35778,1,2,0:0:0:0:
216,236,35852,1,2,0:0:0:0:
216,236,35926,2,0,L|208:201,1,20.2499993820191,2|2,0:0|0:0,0:0:0:0:
137,242,36074,1,2,0:0:0:0:
137,242,36148,1,2,0:0:0:0:
137,242,36221,2,0,L|133:254,2,10.1249996910095,0|0|0,3:0|3:0|3:0,0:0:0:0:
55,237,36369,6,0,L|36:184,1,40.4999987640381,8|8,0:0|0:3,0:0:0:0:
118,117,36665,6,0,B|106:60|65:30|65:30|139:13|222:51|235:106|237:166|206:225,1,404.999987640381,4|0,3:0|0:0,0:0:0:0:
270,163,37108,1,0,0:0:0:0:
248,351,37256,2,0,P|187:250|234:199,1,175.499991966248,2|0,3:1|0:0,0:0:0:0:
270,163,37551,2,0,P|325:185|340:253,1,116.999994644165,2|0,0:1|0:0,0:0:0:0:
420,379,37847,6,0,P|428:286|501:241,1,175.499991966248,2|0,3:1|0:0,0:0:0:0:
343,236,38143,2,0,P|368:167|336:122,1,116.999994644165,2|0,0:1|0:0,0:0:0:0:
512,15,38438,2,0,P|483:67|485:76,1,58.4999973220826,2|2,3:1|0:0,0:0:0:0:
282,183,38586,1,2,0:0:0:0:
274,172,38660,2,0,L|256:113,1,58.4999973220826,2|2,0:0|0:0,0:0:0:0:
426,0,38808,1,2,0:0:0:0:
418,11,38882,2,0,L|400:70,1,58.4999973220826,2|2,0:0|0:0,0:0:0:0:
512,213,39029,6,0,B|56:88|56:88|150:59,1,566.999982696534,4|0,3:0|0:0,0:0:0:0:
200,2,39620,2,0,P|275:38|235:129,1,175.499991966248,0|0,3:0|0:0,0:0:0:0:
181,133,39916,2,0,L|239:353,1,175.499991966248,10|0,0:0|0:0,0:0:0:0:
181,365,40212,6,0,P|93:348|89:269,1,175.499991966248,0|0,3:0|0:0,0:0:0:0:
144,224,40507,2,0,L|330:278,1,175.499991966248,10|0,0:0|0:0,0:0:0:0:
356,338,40803,2,0,P|421:309|410:216,1,175.499991966248,0|0,3:0|0:0,0:0:0:0:
372,152,41098,2,0,P|334:201|340:214,1,58.4999973220826,10|0,0:0|0:0,0:0:0:0:
434,368,41246,1,0,3:0:0:0:
328,63,41394,6,0,P|419:81|449:180,2,175.499991966248,8|8|8,3:2|3:2|3:2,0:0:0:0:
149,11,41985,2,0,B|140:21|140:21|178:128,1,116.999994644165,8|0,3:2|0:0,0:0:0:0:
240,162,42207,2,0,B|244:175|244:175|202:275,1,116.999994644165,8|0,3:2|0:0,0:0:0:0:
143,320,42428,2,0,B|139:327|139:327|170:386,1,58.4999973220826,8|0,3:2|0:0,0:0:0:0:
374,255,42576,6,0,B|392:249|392:249|392:222|416:258|416:258|400:208|440:239|440:239|400:194|453:177|453:177|393:183|397:141|397:141|375:185|348:163|348:163|365:199|332:199|332:199|362:217|325:247|325:247|373:229|332:266|332:266|368:248|347:275|347:275|369:265|357:287|357:287|371:281|366:297|366:297|381:288|391:293|391:293|376:302|395:309|395:309|366:309|393:336|393:336|362:322|381:355|381:355|355:336|365:369|365:369|340:339|340:364|340:364|326:332|321:356|321:356|295:327,1,877.49995983124,4|2,3:0|0:0,0:0:0:0:
237,373,43758,6,0,B|114:60|114:60|183:106,1,404.999987640381,4|0,3:0|0:0,0:0:0:0:
198,170,44202,2,0,B|144:379|144:379|68:193,1,404.999987640381,4|0,3:0|0:0,0:0:0:0:
30,140,44645,2,0,L|-12:128,3,33.7500012874604,8|0|8|0,0:0|0:0|0:0|0:0,0:0:0:0:
73,75,44941,6,0,B|217:103|217:103|143:397,1,404.999987640381,4|0,3:0|0:0,0:0:0:0:
80,376,45384,2,0,B|52:241|52:241|160:277,1,242.999992584229,4|0,3:0|0:0,0:0:0:0:
223,311,45680,2,0,B|270:328|270:328|331:297|331:297|388:327,1,161.999995056153,4|0,3:0|0:0,0:0:0:0:
428,373,45901,2,0,B|508:338|508:338|494:252,1,161.999995056153,4|0,3:0|0:0,0:0:0:0:
440,209,46123,6,0,B|164:166|164:166|328:63,1,404.999987640381,4|0,3:0|0:0,0:0:0:0:
340,64,46566,2,0,B|378:101|378:101|289:304,1,242.999992584229,4|0,3:0|0:0,0:0:0:0:
258,341,46862,6,0,B|270:378|270:378|240:359,1,67.5000025749208
27,165,47305,5,0,3:0:0:0:
56,105,47379,5,0,3:0:0:0:
122,86,47453,5,0,3:0:0:0:
186,109,47527,5,0,3:0:0:0:
212,171,47601,5,0,3:0:0:0:
207,238,47675,5,0,3:0:0:0:
248,292,47748,5,0,3:0:0:0:
315,297,47822,5,0,3:0:0:0:
367,253,47896,5,0,3:0:0:0:
367,185,47970,5,0,3:0:0:0:
331,128,48044,5,0,3:0:0:0:
358,67,48118,5,0,3:0:0:0:
425,56,48192,6,0,L|434:81,1,22.5,8|0,0:0|0:0,0:0:0:0:
512,384,48487,6,0,P|517:311|438:266,1,161.999995056153,6|0,3:1|0:0,0:0:0:0:
396,325,48783,2,0,P|372:379|310:375,1,107.999996704102,2|2,3:1|0:3,0:0:0:0:
163,292,49079,2,0,L|149:229,1,53.9999983520508,2|0,3:2|0:0,0:0:0:0:
224,380,49226,2,0,L|245:326,1,53.9999983520508,2|0,0:3|0:0,0:0:0:0:
292,96,49374,6,0,L|225:123,1,53.9999983520508,2|0,3:2|0:0,0:0:0:0:
365,39,49522,2,0,L|301:12,1,53.9999983520508,2|0,0:3|0:0,0:0:0:0:
126,8,49670,6,0,B|118:26|118:26|170:172,1,161.999995056153,2|0,3:1|0:0,0:0:0:0:
151,239,49965,2,0,P|78:226|78:178,1,107.999996704102,2|2,3:1|0:3,0:0:0:0:
213,35,50261,1,2,3:2:0:0:
231,213,50409,1,2,0:3:0:0:
102,350,50556,2,0,P|172:365|212:285,1,161.999995056153,2|2,3:2|0:0,0:0:0:0:
231,213,50852,6,0,P|266:170|356:216,1,161.999995056153,2|0,3:1|0:0,0:0:0:0:
412,255,51148,2,0,L|381:364,1,107.999996704102,2|2,3:1|0:3,0:0:0:0:
487,219,51443,2,0,L|469:166,1,53.9999983520508,2|0,3:2|0:0,0:0:0:0:
506,16,51591,1,2,0:3:0:0:
323,26,51739,2,0,B|347:24|347:24|480:95,1,161.999995056153,2|0,3:2|0:0,0:0:0:0:
422,22,52034,5,2,3:1:0:0:
275,97,52182,1,2,0:3:0:0:
435,235,52330,2,0,L|526:205,1,53.9999983520508,2|0,3:1|0:0,0:0:0:0:
240,20,52478,2,0,L|175:1,1,53.9999983520508,2|0,3:3|0:0,0:0:0:0:
316,234,52625,2,0,L|352:123,2,107.999996704102,2|2|8,3:2|3:3|0:0,0:0:0:0:
235,375,53069,2,0,L|218:316,1,53.9999983520508,0|0,3:0|0:0,0:0:0:0:
84,168,53216,6,0,B|83:95|4:75|4:75|90:58|141:71|213:160|168:287,1,404.999987640381,4|0,3:0|0:0,0:0:0:0:
144,295,53660,2,0,P|96:238|99:232,1,53.9999983520508
271,101,53808,2,0,L|248:167,1,53.9999983520508,8|0,0:0|0:0,0:0:0:0:
15,370,53955,2,0,P|58:302|-6:220,1,161.999995056153,2|0,0:0|0:0,0:0:0:0:
2,159,54251,1,2,0:0:0:0:
271,306,54399,6,0,L|212:325,1,53.9999983520508,0|0,3:0|0:0,0:0:0:0:
84,168,54547,2,0,L|144:185,1,53.9999983520508,2|0,0:0|0:0,0:0:0:0:
337,362,54694,2,0,P|403:329|400:278,1,107.999996704102,2|2,0:1|0:1,0:0:0:0:
362,241,54916,1,0,3:0:0:0:
353,231,54990,2,0,B|346:215|346:215|381:119,2,107.999996704102,8|2|2,0:0|0:3|0:3,0:0:0:0:
488,365,55433,1,2,0:3:0:0:
494,354,55507,1,2,0:3:0:0:
500,341,55581,6,0,L|485:282,1,53.9999983520508,0|0,3:0|0:0,0:0:0:0:
435,69,55729,2,0,B|407:67|407:67|275:123,1,161.999995056153,2|0,0:1|0:0,0:0:0:0:
214,84,56024,2,0,B|212:74|212:74|237:13,1,53.9999983520508,2|0,0:1|0:0,0:0:0:0:
182,209,56172,2,0,L|132:100,1,107.999996704102,8|2,0:0|0:0,0:0:0:0:
29,277,56468,1,0,3:2:0:0:
3,353,56615,1,2,0:1:0:0:
98,226,56763,6,0,L|70:160,1,53.9999983520508,2|0,0:0|0:0,0:0:0:0:
140,28,56911,1,0,3:0:0:0:
284,242,57059,2,0,L|157:200,1,107.999996704102,8|2,0:0|0:3,0:0:0:0:
98,226,57281,2,0,B|86:223|86:223|55:124,1,107.999996704102,0|2,3:0|0:0,0:0:0:0:
2,81,57502,1,2,0:0:0:0:
303,0,57650,5,8,0:0:0:0:
237,18,57724,1,0,3:0:0:0:
215,59,57798,1,2,0:0:0:0:
217,95,57872,1,0,0:0:0:0:
229,113,57946,6,0,B|416:187|416:187|386:75,1,310.500005922318,2|0,3:0|0:0,0:0:0:0:
464,63,58241,2,0,B|514:243|514:243|420:210|420:210|402:158,1,310.500005922318,2|0,3:0|0:0,0:0:0:0:
346,146,58537,2,0,B|333:150|333:150|285:241,1,103.500001974106,2|0,3:0|0:0,0:0:0:0:
408,6,58684,1,0,0:0:0:0:
210,371,58832,2,0,B|425:332|425:332|349:252,1,310.500005922318,2|0,3:0|0:0,0:0:0:0:
291,229,59128,2,0,B|271:220|271:220|210:304,1,103.500001974106,2|0,3:0|0:0,0:0:0:0:
123,383,59276,1,0,0:0:0:0:
121,374,59349,1,0,0:0:0:0:
119,364,59423,6,0,B|74:170|74:170|201:204,1,310.500005922318,2|0,3:0|0:0,0:0:0:0:
144,269,59719,2,0,B|56:247|56:247|27:113,1,207.000003948212,2|0,3:0|0:0,0:0:0:0:
98,95,59941,1,2,3:0:0:0:
103,102,60014,2,0,B|187:124|187:124|197:109,1,103.500001974106,2|0,3:0|0:0,0:0:0:0:
30,56,60162,1,2,3:0:0:0:
264,23,60310,6,0,B|257:39|257:39|285:109,4,51.7500009870529,2|2|2|2|2,3:0|3:0|3:0|3:0|3:0,0:0:0:0:
352,99,60532,1,2,3:0:0:0:
343,109,60606,6,0,B|265:319|265:319|367:294,1,310.500005922318,2|0,3:0|0:0,0:0:0:0:
400,236,60901,2,0,B|421:227|421:227|505:299,1,103.500001974106,2|0,3:0|0:0,0:0:0:0:
318,225,61049,1,0,0:0:0:0:
512,77,61197,2,0,B|517:99|517:99|469:176,1,103.500001974106,2|0,3:0|0:0,0:0:0:0:
306,382,61345,2,0,B|280:367|280:367|264:274,1,103.500001974106,2|0,3:0|0:0,0:0:0:0:
270,79,61492,6,0,B|250:90|250:90|203:395,2,310.500005922318,2|2|2,3:0|3:0|3:0,0:0:0:0:
108,229,62083,1,2,3:0:0:0:
121,279,62157,1,2,3:0:0:0:
136,332,62231,1,2,3:0:0:0:
343,43,62379,6,0,B|347:51,1,6.74999979400635,10|0,0:1|0:0,0:0:0:0:
273,3,62527,1,8,0:3:0:0:
512,110,62675,6,0,B|487:94|487:94|176:185,1,270,4|0,3:0|0:0,0:0:0:0:
222,229,62970,2,0,B|215:236|215:236|204:312,1,67.5000025749208,8|0,0:0|0:0,0:0:0:0:
13,179,63118,2,0,B|18:168|18:168|-6:95,1,67.5000025749208,2|0,0:0|0:0,0:0:0:0:
201,78,63266,1,2,0:2:0:0:
190,119,63340,1,2,0:2:0:0:
178,159,63414,2,0,L|101:178,1,67.5000025749208,2|2,3:2|0:2,0:0:0:0:
239,366,63561,2,0,P|320:349|347:241,1,202.500007724762,10|0,0:2|0:0,0:0:0:0:
391,181,63857,5,2,0:0:0:0:
222,0,64005,1,0,3:0:0:0:
309,178,64152,2,0,B|304:170|304:170|330:112,1,67.5000025749208,8|0,0:0|0:0,0:0:0:0:
439,40,64300,2,0,B|453:52|453:52|476:187,2,135.000005149842,2|2|0,3:2|0:1|3:0,0:0:0:0:
240,82,64744,2,0,B|92:132|92:132|45:102,1,202.500007724762,12|0,0:2|0:0,0:0:0:0:
107,48,65039,6,0,B|165:191|165:191|115:240,1,202.500007724762,12|0,0:2|0:0,0:0:0:0:
58,206,65335,2,0,B|54:198|54:198|-3:163,1,67.5000025749208,12|0,0:2|0:0,0:0:0:0:
179,15,65482,1,0,3:0:0:0:
0,263,65630,2,0,B|1:323|1:323|160:373,1,202.500007724762,12|0,0:2|0:0,0:0:0:0:
204,326,65926,2,0,B|212:322|212:322|192:253,1,67.5000025749208,12|0,0:0|0:0,0:0:0:0:
164,101,66074,1,0,3:0:0:0:
384,158,66221,5,8,0:0:0:0:
370,161,66295,1,0,3:0:0:0:
357,163,66369,2,0,L|280:181,1,67.5000025749208,0|8,3:0|0:0,0:0:0:0:
139,7,66517,1,0,3:0:0:0:
179,15,66591,1,0,3:0:0:0:
220,24,66665,2,0,L|300:42,1,67.5000025749208,8|0,0:0|3:0,0:0:0:0:
468,178,66813,2,0,L|453:239,11,45.0000017166138,10|0|2|0|2|0|2|0|2|0|2|0,0:0|0:0|0:2|0:0|0:2|0:0|0:2|0:0|0:2|0:0|0:2|0:0,0:0:0:0:
446,103,67404,5,6,3:2:0:0:
256,192,72133,12,4,74054,3:2:0:0:
489,65,74349,6,0,L|499:27,1,33.7500012874604,0|0,3:0|3:0,0:0:0:0:
408,80,74497,2,0,B|416:91|416:91|452:221,1,135.000005149842,4|8,3:2|0:0,0:0:0:0:
316,184,74941,2,0,B|319:198|319:198|278:316,1,135.000005149842,4|8,3:2|0:0,0:0:0:0:
167,74,75384,2,0,B|175:85|175:85|211:215,1,135.000005149842,4|8,3:2|0:0,0:0:0:0:
140,355,75827,6,0,L|91:342,1,33.7500012874604,4|0,3:2|0:0,0:0:0:0:
43,290,75975,2,0,L|76:278,2,33.7500012874604,8|0|8,0:0|3:0|0:0,0:0:0:0:
154,276,76271,1,8,0:3:0:0:
33,371,76418,1,4,0:3:0:0:
113,206,76566,1,12,0:0:0:0:
113,206,76862,5,10,0:2:0:0:
89,143,77157,5,8,0:2:0:0:
124,85,77453,5,8,0:2:0:0:
192,77,77748,5,8,0:2:0:0:
245,118,78044,5,8,0:2:0:0:
251,184,78340,5,8,0:2:0:0:
293,237,78635,5,8,0:2:0:0:
360,240,78931,5,8,0:2:0:0:
492,152,79226,5,8,0:2:0:0:
458,93,79522,5,8,0:0:0:0:
391,75,79817,5,8,0:2:0:0:
328,101,80113,5,8,0:0:0:0:
100,111,80409,5,8,0:2:0:0:
134,170,80705,5,8,0:0:0:0:
201,188,81000,5,8,0:2:0:0:
264,162,81296,5,8,0:0:0:0:
497,22,81591,5,6,3:2:0:0:
482,15,81739,1,8,0:0:0:0:
452,14,81886,1,8,0:0:0:0:
415,34,82034,1,12,3:2:0:0:
398,74,82182,1,8,0:0:0:0:
415,117,82330,1,8,0:0:0:0:
451,162,82478,1,8,0:0:0:0:
446,217,82625,1,2,0:0:0:0:
402,263,82773,1,10,0:0:0:0:
327,258,82921,1,8,0:0:0:0:
275,200,83069,1,8,0:0:0:0:
281,122,83216,1,10,0:0:0:0:
224,53,83364,1,10,0:0:0:0:
137,33,83512,1,8,0:0:0:0:
35,96,83660,1,8,0:0:0:0:
24,224,83808,1,10,0:0:0:0:
249,380,83955,5,10,0:2:0:0:
261,377,84029,1,8,0:0:0:0:
277,368,84103,1,8,0:0:0:0:
290,349,84177,1,10,0:2:0:0:
284,321,84251,1,8,0:0:0:0:
259,297,84325,1,8,0:0:0:0:
226,292,84399,1,10,0:2:0:0:
201,304,84473,1,8,0:0:0:0:
165,286,84547,1,10,0:2:0:0:
155,245,84620,1,8,0:0:0:0:
185,205,84694,1,8,0:0:0:0:
234,197,84768,1,10,0:2:0:0:
282,219,84842,1,8,0:0:0:0:
333,201,84916,1,8,0:0:0:0:
355,151,84990,1,10,0:2:0:0:
314,105,85064,1,8,0:0:0:0:
257,101,85138,5,10,0:3:0:0:
91,194,85285,5,10,0:3:0:0:
71,159,85359,1,10,0:3:0:0:
191,10,85507,5,10,0:3:0:0:
176,51,85581,1,10,0:3:0:0:
33,91,85729,6,0,L|-1:82,1,33.7500012874604,10|8,0:3|0:3,0:0:0:0:
53,78,85877,1,10,0:3:0:0:
150,129,86024,6,0,L|165:165,3,33.7500012874604,10|10|10|10,0:3|0:3|0:3|0:3,0:0:0:0:
96,11,86320,5,4,3:3:0:0:
227,205,86468,1,0,0:0:0:0:
143,301,86615,1,8,0:3:0:0:
143,301,86689,1,0,3:0:0:0:
143,301,86763,1,8,0:0:0:0:
311,206,86911,1,4,0:3:0:0:
403,252,87059,1,8,0:3:0:0:
416,168,87207,6,0,L|405:136,1,33.75,12|0,0:0|0:0,0:0:0:0:
479,120,87502,6,0,B|327:61|327:61|415:51,1,242.999992584229,6|2,3:2|0:0,0:0:0:0:
415,66,87798,2,0,L|384:135,1,67.5000025749207,0|0,3:0|0:0,0:0:0:0:
491,284,87946,2,0,L|476:208,1,67.5000025749207,2|0,0:0|0:0,0:0:0:0:
282,174,88093,2,0,B|376:226|376:226|328:328,1,202.500007724762,2|2,3:2|0:0,0:0:0:0:
286,373,88389,2,0,B|273:377|273:377|199:345,1,67.5000025749207,0|0,3:0|0:0,0:0:0:0:
53,258,88537,1,2,0:0:0:0:
40,214,88611,1,2,0:0:0:0:
30,177,88684,6,0,B|51:144|51:144|175:158|175:158|195:118,1,202.500007724762,2|2,3:2|0:0,0:0:0:0:
174,49,88980,2,0,B|141:44|141:44|118:93,1,67.5000025749207,0|0,3:0|0:0,0:0:0:0:
245,284,89128,2,0,B|233:278|233:278|207:183,1,67.5000025749207,2|0,0:0|0:0,0:0:0:0:
281,30,89276,2,0,B|243:-13|243:-13|191:124,1,202.500007724762,2|2,3:2|0:0,0:0:0:0:
148,189,89571,1,0,3:0:0:0:
368,362,89719,2,0,L|302:351,1,67.5000025749207,2|0,0:0|0:0,0:0:0:0:
1,327,89867,6,0,L|166:263,1,161.999995056152,2|2,3:2|0:0,0:0:0:0:
218,225,90162,1,0,3:0:0:0:
143,370,90310,1,2,0:0:0:0:
341,260,90458,1,2,3:2:0:0:
334,237,90532,1,2,0:0:0:0:
328,218,90606,1,2,0:0:0:0:
491,106,90753,1,2,3:2:0:0:
484,129,90827,1,2,0:0:0:0:
478,148,90901,1,2,0:0:0:0:
497,374,91049,6,0,B|540:335|540:335|450:246,1,161.999995056152,2|2,3:2|0:0,0:0:0:0:
415,207,91345,1,0,3:0:0:0:
266,283,91492,1,2,0:0:0:0:
193,98,91640,1,2,3:2:0:0:
213,91,91714,1,2,0:0:0:0:
229,84,91788,1,2,0:0:0:0:
328,218,91936,1,2,3:2:0:0:
308,211,92010,1,2,0:0:0:0:
292,204,92084,1,2,0:0:0:0:
176,11,92231,6,0,B|111:37|111:37|51:216,1,202.500007724762,2|2,3:2|0:0,0:0:0:0:
4,209,92527,2,0,B|3:222|3:222|36:278,1,67.5000025749207,0|0,3:0|0:0,0:0:0:0:
176,384,92675,2,0,L|199:304,1,67.5000025749207,2|0,0:0|0:0,0:0:0:0:
2,354,92822,2,0,B|21:320|21:320|198:227,1,202.500007724762,2|2,3:2|0:0,0:0:0:0:
205,178,93118,1,0,3:0:0:0:
341,328,93266,1,2,0:0:0:0:
338,341,93340,1,2,0:0:0:0:
336,356,93414,6,0,B|432:371|432:371|473:270,1,202.500007724762,2|2,3:2|0:0,0:0:0:0:
509,205,93709,2,0,B|495:170|495:170|440:158,1,67.5000025749207,0|0,3:0|0:0,0:0:0:0:
347,8,93857,2,0,L|362:74,1,67.5000025749207,2|0,0:0|0:0,0:0:0:0:
246,248,94005,2,0,B|291:260|291:260|344:166|344:166|258:102,1,202.500007724762,2|2,3:2|0:0,0:0:0:0:
283,62,94300,2,0,B|261:63|261:63|224:102,1,67.5000025749207,0|0,3:0|0:0,0:0:0:0:
206,316,94448,1,2,0:0:0:0:
15,232,94596,6,0,B|26:215|26:215|216:175,1,202.500007724762,2|2,3:2|0:2,0:0:0:0:
133,267,94891,2,0,L|106:339,1,67.5000025749207,0|0,3:0|0:0,0:0:0:0:
55,161,95039,1,2,0:0:0:0:
246,248,95187,2,0,B|214:235|214:235|143:114|143:114|92:104,1,202.500007724762,2|2,3:2|0:0,0:0:0:0:
43,79,95482,2,0,B|41:62|41:62|74:10,1,67.5000025749207,0|0,3:0|0:0,0:0:0:0:
132,181,95630,1,2,0:0:0:0:
127,187,95704,1,2,0:0:0:0:
123,194,95778,5,2,3:2:0:0:
229,95,95926,1,2,0:0:0:0:
312,293,96074,1,0,3:2:0:0:
304,314,96148,1,2,0:0:0:0:
297,338,96221,1,2,0:0:0:0:
490,203,96369,5,2,3:2:0:0:
498,130,96443,1,2,0:0:0:0:
449,89,96517,1,2,0:0:0:0:
395,91,96591,1,2,0:0:0:0:
360,120,96665,2,0,L|379:188,3,67.5000025749207,2|2|2|2,3:2|0:0|0:0|0:0,0:0:0:0:
419,263,96960,6,0,B|374:308|374:308|235:217,1,202.500007724762,6|2,3:2|0:0,0:0:0:0:
230,156,97256,2,0,B|234:138|234:138|290:112,1,67.5000025749208,0|0,3:0|0:0,0:0:0:0:
179,224,97404,1,2,0:0:0:0:
210,35,97551,2,0,L|261:247,1,202.500007724762,2|2,3:2|0:0,0:0:0:0:
212,298,97847,2,0,B|214:309|214:309|185:366,1,67.5000025749208,0|0,3:0|0:0,0:0:0:0:
105,188,97995,1,2,0:2:0:0:
99,165,98069,1,2,0:2:0:0:
93,145,98143,6,0,B|258:95|258:95|279:118,1,202.500007724762,2|2,3:2|0:0,0:0:0:0:
324,180,98438,2,0,L|404:202,1,67.5000025749208,0|0,3:0|0:0,0:0:0:0:
507,41,98586,1,2,0:0:0:0:
437,287,98734,2,0,B|502:188|502:188|454:118,1,202.500007724762,2|2,3:2|0:0,0:0:0:0:
423,47,99029,2,0,B|357:49|357:49|374:127,1,135.000005149842,0|2,3:2|0:0,0:0:0:0:
212,338,99325,6,0,L|362:271,1,161.999995056153,2|2,3:2|0:0,0:0:0:0:
437,287,99620,1,0,3:2:0:0:
244,185,99768,2,0,L|230:248,1,53.9999983520508,2|0,0:0|0:0,0:0:0:0:
134,376,99916,2,0,B|85:278|85:278|110:222,1,161.999995056153,2|2,3:2|0:0,0:0:0:0:
157,170,100212,2,0,L|129:104,1,53.9999983520508,0|0,3:0|0:0,0:0:0:0:
60,299,100359,1,2,0:0:0:0:
6,87,100507,6,0,B|20:70|20:70|159:32,1,161.999995056153,2|2,3:2|0:0,0:0:0:0:
210,86,100803,1,0,3:0:0:0:
28,202,100950,2,0,L|52:135,1,53.9999983520508,2|0,0:0|0:0,0:0:0:0:
227,8,101098,2,0,B|250:0|250:0|292:44|292:44|341:38,1,107.999996704102,2|2,3:2|0:0,0:0:0:0:
508,5,101394,1,2,3:2:0:0:
501,23,101468,1,2,0:0:0:0:
494,42,101542,1,2,0:0:0:0:
441,246,101689,6,0,L|424:162,1,80.9999975280763,6|0,3:2|0:0,0:0:0:0:
405,61,101837,2,0,L|413:105,1,33.7500012874604,0|2,3:2|0:0,0:0:0:0:
284,308,101985,6,0,L|307:223,1,80.9999975280763,0|0,3:2|0:0,0:0:0:0:
335,124,102133,2,0,L|322:173,1,33.7500012874604,2|0,3:2|0:0,0:0:0:0:
216,374,102281,6,0,L|199:327,3,33.7500012874604,2|2|2|2,3:2|0:0|0:0|0:0,0:0:0:0:
167,239,102576,2,0,L|178:270,3,33.7500012874604,0|2|2|2,0:0|0:0|0:0|0:0,0:0:0:0:
70,253,102872,6,0,L|95:166,1,90,6|0,3:2|0:0,0:0:0:0:
0,39,103019,2,0,L|25:125,1,90,0|2,3:2|0:2,0:0:0:0:
16,369,103167,1,0,3:2:0:0:
64,350,103241,1,0,3:2:0:0:
112,332,103315,1,2,3:2:0:0:
141,93,103463,6,0,L|92:79,7,33.7500012874604,0|2|2|2|2|2|2|2,3:2|0:2|0:2|0:2|0:2|0:2|0:2|0:0,0:0:0:0:
0,201,104054,5,4,3:2:0:0:
256,192,104128,12,0,106123,0:0:0:0:
451,377,106418,6,0,B|526:136|526:136|387:209,1,404.999987640381,4|0,3:0|0:0,0:0:0:0:
388,286,106862,2,0,B|308:335|308:335|202:114,1,323.999990112305,4|0,3:0|0:0,0:0:0:0:
1,21,107601,6,0,B|107:267|107:267|241:214,1,404.999987640381,4|0,3:0|0:0,0:0:0:0:
285,157,108044,2,0,B|252:84|252:84|80:153,1,242.999992584229,4|0,3:0|0:0,0:0:0:0:
46,199,108340,2,0,L|120:382,1,161.999995056153,4|0,3:0|0:0,0:0:0:0:
179,376,108561,2,0,B|292:325|292:325|266:267,1,161.999995056153,4|0,3:0|0:0,0:0:0:0:
322,232,108783,6,0,B|335:228|335:228|418:265,1,80.9999975280763,4|0,3:0|0:0,0:0:0:0:
504,142,108931,1,4,3:0:0:0:
493,147,109005,2,0,B|479:142|479:142|398:166,1,80.9999975280763,4|0,3:0|0:0,0:0:0:0:
308,37,109152,1,4,3:0:0:0:
303,49,109226,2,0,B|310:57|310:57|391:85,1,80.9999975280763,4|0,3:0|0:0,0:0:0:0:
216,69,109374,5,4,3:0:0:0:
175,136,109473,5,4,3:0:0:0:
227,196,109571,5,4,3:0:0:0:
305,184,109670,5,4,3:0:0:0:
342,252,109768,5,4,3:0:0:0:
298,318,109867,5,4,3:0:0:0:
220,310,109965,5,4,3:0:0:0:
460,371,110704,6,0,L|485:270,1,80.9999975280763,4|0,0:3|0:0,0:0:0:0:
353,120,110852,6,0,L|359:141,1,20.2499993820191,8|0,0:0|0:0,0:0:0:0:
418,197,111148,6,0,B|406:203|406:203|251:138,1,161.999995056153,6|0,3:1|0:0,0:0:0:0:
224,82,111443,2,0,P|151:112|154:146,1,107.999996704102,2|2,3:1|0:3,0:0:0:0:
112,315,111739,2,0,B|103:227|37:273|46:152,1,161.999995056153,2|0,3:2|0:0,0:0:0:0:
75,101,112034,1,2,3:2:0:0:
195,215,112182,1,2,0:3:0:0:
16,367,112330,6,0,P|29:306|47:298,1,53.9999983520508,2|0,3:1|0:0,0:0:0:0:
149,128,112478,1,2,3:3:0:0:
283,323,112625,2,0,P|223:328|193:289,1,107.999996704102,2|2,3:1|0:3,0:0:0:0:
243,134,112921,1,0,3:0:0:0:
255,126,112995,2,0,L|240:62,1,53.9999983520508,0|2,3:0|0:3,0:0:0:0:
344,230,113143,1,0,3:0:0:0:
352,223,113216,2,0,B|415:102|415:102|469:96,1,161.999995056153,8|0,3:2|0:0,0:0:0:0:
512,130,113512,6,0,B|437:122|437:122|360:274|360:274|269:274,1,323.999990112305,4|0,3:0|0:0,0:0:0:0:
211,238,113881,1,0,3:0:0:0:
201,241,113955,2,0,L|186:312,1,53.9999983520508,0|0,3:0|0:0,0:0:0:0:
48,161,114103,5,0,3:0:0:0:
45,150,114177,1,2,0:0:0:0:
41,139,114251,2,0,L|18:72,1,53.9999983520508,2|2,0:0|0:0,0:0:0:0:
194,3,114399,1,0,3:0:0:0:
191,14,114473,1,2,0:0:0:0:
187,25,114547,2,0,L|164:92,1,53.9999983520508,2|2,0:0|0:0,0:0:0:0:
93,316,114694,5,0,3:0:0:0:
90,305,114768,1,2,0:0:0:0:
86,294,114842,2,0,L|63:227,1,53.9999983520508,2|2,0:0|0:0,0:0:0:0:
94,19,114990,1,0,3:0:0:0:
90,26,115064,1,2,0:0:0:0:
87,32,115138,1,2,0:1:0:0:
206,150,115285,1,0,3:0:0:0:
289,93,115433,1,2,0:1:0:0:
485,155,115581,2,0,P|404:157|373:237,1,161.999995056153,0|0,3:0|0:0,0:0:0:0:
396,299,115877,6,0,P|339:357|302:338,1,107.999996704102,12|0,3:1|0:0,0:0:0:0:
145,256,116172,2,0,L|129:187,1,53.9999983520508,2|0,3:2|0:0,0:0:0:0:
201,367,116320,2,0,L|225:312,1,53.9999983520508,2|0,3:2|0:0,0:0:0:0:
32,169,116468,2,0,L|48:221,1,53.9999983520508,2|0,3:2|0:0,0:0:0:0:
99,376,116615,1,2,3:2:0:0:
232,233,116763,1,2,3:2:0:0:
45,88,116911,1,2,3:2:0:0:
185,7,117059,5,2,3:2:0:0:
238,66,117207,1,2,3:2:0:0:
145,256,117354,1,2,3:2:0:0:
304,182,117502,1,2,3:2:0:0:
316,187,117576,1,2,3:2:0:0:
325,192,117650,1,2,3:2:0:0:
158,81,117798,1,0,3:2:0:0:
356,280,117946,2,0,P|406:226|400:154,1,107.999996704102,8|0,3:2|0:0,0:0:0:0:
285,21,118241,6,0,L|269:66,2,26.9999991760254,2|0|0,3:1|3:0|3:0,0:0:0:0:
344,86,118389,1,0,3:0:0:0:
348,99,118463,1,0,3:0:0:0:
352,113,118537,1,2,3:1:0:0:
294,338,118684,1,0,3:0:0:0:
281,343,118758,1,0,3:0:0:0:
269,349,118832,1,2,3:2:0:0:
258,354,118906,6,0,L|231:366,2,26.9999991760254,0|0|0,3:0|3:0|3:0,0:0:0:0:
165,326,119054,1,0,3:0:0:0:
161,315,119128,2,0,L|141:257,1,53.9999983520508,2|0,3:2|3:0,0:0:0:0:
264,143,119276,6,0,L|313:159,2,26.9999991760254,0|0|0,3:0|3:0|3:0,0:0:0:0:
252,141,119423,2,0,B|239:152|239:152|224:251,1,107.999996704102,2|0,3:1|3:0,0:0:0:0:
94,371,119645,6,0,L|64:365,2,26.9999991760254,0|0|2,3:0|3:0|3:1,0:0:0:0:
21,295,119793,1,0,3:0:0:0:
15,278,119867,6,0,L|22:240,2,26.9999991760254,0|0|0,3:0|3:0|3:0,0:0:0:0:
67,146,120014,6,0,L|55:121,2,26.9999991760254,2|0|0,3:2|3:0|3:0,0:0:0:0:
94,229,120162,5,0,3:0:0:0:
159,195,120236,1,0,3:0:0:0:
231,216,120310,1,2,3:2:0:0:
294,178,120384,1,0,3:0:0:0:
361,209,120458,2,0,L|344:267,1,53.9999983520508,0|0,3:0|3:0,0:0:0:0:
492,380,120606,6,0,B|479:365|479:365|441:150,1,215.999993408203,4|2,3:2|0:1,0:0:0:0:
