osu file format v14

[General]
AudioFilename: audio.mp3
AudioLeadIn: 0
PreviewTime: 14817
Countdown: 0
SampleSet: Normal
StackLeniency: 0.7
Mode: 0
LetterboxInBreaks: 0
WidescreenStoryboard: 1

[Editor]
DistanceSpacing: 0.8
BeatDivisor: 4
GridSize: 8
TimelineZoom: 1

[Metadata]
Title:Our Summer, Sunsets and Sunrises!
TitleUnicode:Our Summer, Sunsets and Sunrises!
Artist:Dj Najim Hassas
ArtistUnicode:Dj Najim Hassas
Creator:colltern
Version:Normal
Source:
Tags:summer electro dj russia rusia наше лето закаты и рассветы
BeatmapID:1534014
BeatmapSetID:449649

[Difficulty]
HPDrainRate:4
CircleSize:3
OverallDifficulty:3
ApproachRate:5.5
SliderMultiplier:1.4
SliderTickRate:1

[Events]
//Background and Video events
0,0,"devushka_priroda_babochka_rastenie_14986_2048x1152.jpg",0,0
//Break Periods
2,31170,44881
//Storyboard Layer 0 (Background)
//Storyboard Layer 1 (Fail)
//Storyboard Layer 2 (Pass)
//Storyboard Layer 3 (Foreground)
//Storyboard Sound Samples

[TimingPoints]
47.7706789612589,461.538461538462,4,1,1,40,1,0
16663,-100,4,1,1,40,0,1
60970,-100,4,1,1,40,0,0
114509,-100,4,1,1,40,0,1
143124,-100,4,1,1,40,0,0

[HitObjects]
256,192,14817,12,0,16201,0:0:0:0:
56,168,16663,6,0,B|96:184|120:136|144:104|176:136|192:144,1,140,4|2,0:0|0:0,0:0:0:0:
272,72,17586,2,0,B|320:64|328:128|376:128|400:176,1,140,4|2,0:0|0:0,0:0:0:0:
328,248,18509,2,0,L|264:304,2,70,4|0|4,0:0|0:0|0:0,0:0:0:0:
192,200,19432,1,4,0:0:0:0:
120,104,19893,1,2,0:0:0:0:
240,72,20355,6,0,B|320:88|288:144|360:184,1,140,4|2,0:0|0:0,0:0:0:0:
336,288,21278,2,0,B|288:256|224:264|192:256|192:256,1,140,4|2,0:0|0:0,0:0:0:0:
128,160,22201,2,0,L|72:216,2,70,4|0|4,0:0|0:0|0:0,0:0:0:0:
248,160,23124,1,4,0:0:0:0:
320,72,23586,1,2,0:0:0:0:
216,64,24047,6,0,B|168:72|152:120|104:144,1,140,4|2,0:0|0:0,0:0:0:0:
152,232,24970,1,4,0:0:0:0:
240,296,25432,1,2,0:0:0:0:
320,224,25893,1,4,0:0:0:0:
408,152,26355,2,0,L|352:96,2,70,4|0|4,0:0|0:0|0:0,0:0:0:0:
256,72,27278,1,2,0:0:0:0:
256,184,27740,5,4,0:0:0:0:
344,272,28201,1,2,0:0:0:0:
208,288,28663,2,0,B|152:320|144:248|88:312|80:232|72:224,1,140,4|2,0:0|0:0,0:0:0:0:
128,136,29586,1,4,0:0:0:0:
264,160,30047,2,0,L|328:208,2,70,4|0|4,0:0|0:0|0:0,0:0:0:0:
336,80,30970,1,2,0:0:0:0:
88,168,46201,6,0,B|112:112|184:136|216:72,1,140,4|2,0:0|0:0,0:0:0:0:
320,88,46893,1,0,0:0:0:0:
376,192,47124,2,0,L|408:264,2,70,4|0|2,0:0|0:0|0:0,0:0:0:0:
272,240,48047,2,0,L|208:296,2,70,4|0|2,0:0|0:0|0:0,0:0:0:0:
176,160,48740,2,0,L|120:96,1,70
256,56,49432,1,2,0:0:0:0:
328,136,49893,6,0,L|392:168,2,70,4|0|2,0:0|0:0|0:0,0:0:0:0:
288,232,50586,1,0,0:0:0:0:
184,272,50817,2,0,L|112:288,2,70,4|0|2,0:0|0:0|0:0,0:0:0:0:
48,160,51740,2,0,B|64:112|112:136|112:64|168:64,1,140,4|2,0:0|0:0,0:0:0:0:
264,64,52432,1,0,0:0:0:0:
352,136,52663,1,0,0:0:0:0:
248,184,53124,1,2,0:0:0:0:
256,280,53586,6,0,B|320:272|280:304|360:336|400:280,1,140,4|2,0:0|0:0,0:0:0:0:
376,192,54278,1,0,0:0:0:0:
296,112,54509,2,0,L|224:80,2,70,4|0|2,0:0|0:0|0:0,0:0:0:0:
88,144,55432,2,0,L|176:176,2,70,4|0|2,0:0|0:0|0:0,0:0:0:0:
104,304,56124,2,0,L|184:296,1,70
224,192,56817,1,2,0:0:0:0:
80,168,57278,6,0,B|96:104|176:128|192:48,1,140,4|2,0:0|0:0,0:0:0:0:
288,56,57970,1,0,0:0:0:0:
352,152,58201,2,0,L|280:208,2,70,4|0|2,0:0|0:0|0:0,0:0:0:0:
256,192,59124,8,0,60509,0:0:0:0:
184,104,60970,5,4,0:0:0:0:
208,216,61432,1,4,0:0:0:0:
288,304,61893,2,0,B|328:296|288:240|408:208|392:208,1,140,4|2,0:0|0:0,0:0:0:0:
384,104,62817,2,0,L|304:88,1,70,4|0,0:0|0:0,0:0:0:0:
264,176,63278,2,0,L|200:208,1,70,4|0,0:0|0:0,0:0:0:0:
136,112,63740,1,4,0:0:0:0:
80,216,64201,1,2,0:0:0:0:
192,304,64663,6,0,B|272:328|272:256|344:256,1,140,4|2,0:0|0:0,0:0:0:0:
424,144,65586,2,0,B|416:160|344:136|360:64|288:88,1,140,4|2,0:0|0:0,0:0:0:0:
192,80,66509,1,4,0:0:0:0:
128,168,66970,1,4,0:0:0:0:
168,272,67432,2,0,B|216:288|216:240|312:256,1,140,4|2,0:0|0:0,0:0:0:0:
384,176,68355,5,4,0:0:0:0:
304,80,68817,1,4,0:0:0:0:
192,80,69278,2,0,B|152:80|160:176|104:176,1,140,4|2,0:0|0:0,0:0:0:0:
120,288,70201,2,0,L|200:312,1,70,4|0,0:0|0:0,0:0:0:0:
288,280,70663,2,0,L|360:216,1,70,4|0,0:0|0:0,0:0:0:0:
272,128,71124,1,4,0:0:0:0:
160,176,71586,1,2,0:0:0:0:
176,304,72047,6,0,L|248:280,1,70,4|0,0:0|0:0,0:0:0:0:
384,240,72509,2,0,L|312:200,1,70,4|0,0:0|0:0,0:0:0:0:
224,144,72970,2,0,L|288:104,1,70,4|0,0:0|0:0,0:0:0:0:
256,192,73432,8,0,75278,0:0:0:0:
80,184,75740,5,4,0:0:0:0:
144,80,76201,1,4,0:0:0:0:
280,80,76663,2,0,B|352:96|328:168|384:176,1,140,4|2,0:0|0:0,0:0:0:0:
320,280,77586,2,0,L|240:304,1,70,4|0,0:0|0:0,0:0:0:0:
160,256,78047,2,0,L|96:208,1,70,4|0,0:0|0:0,0:0:0:0:
128,104,78509,1,4,0:0:0:0:
256,64,78970,1,2,0:0:0:0:
376,144,79432,6,0,L|336:208,1,70,4|0,0:0|0:0,0:0:0:0:
240,184,79893,2,0,L|160:208,1,70,4|0,0:0|0:0,0:0:0:0:
184,312,80355,1,4,0:0:0:0:
64,272,80817,1,2,0:0:0:0:
64,152,81278,1,4,0:0:0:0:
152,72,81740,2,0,B|192:128|248:88|248:200,1,140,4|4,0:0|0:0,0:0:0:0:
320,56,82663,1,2,0:0:0:0:
424,112,83124,6,0,L|360:168,1,70,4|0,0:0|0:0,0:0:0:0:
352,264,83586,2,0,L|272:256,1,70,4|0,0:0|0:0,0:0:0:0:
192,288,84047,1,4,0:0:0:0:
136,176,84509,1,2,0:0:0:0:
192,72,84970,2,0,L|256:120,1,70,4|0,0:0|0:0,0:0:0:0:
360,88,85432,1,4,0:0:0:0:
360,224,85893,1,4,0:0:0:0:
224,272,86355,1,2,0:0:0:0:
88,224,86817,6,0,L|160:176,1,70,2|0,0:0|0:0,0:0:0:0:
144,80,87278,2,0,L|232:104,1,70,2|0,0:0|0:0,0:0:0:0:
288,176,87740,1,2,0:0:0:0:
352,72,88201,2,0,L|416:152,4,70,2|0|2|0|2,0:0|0:0|0:0|0:0|0:0,0:0:0:0:
320,232,89586,1,2,0:0:0:0:
88,144,90509,6,0,B|112:152|136:104|160:72|192:104|224:144,1,140
304,80,91432,2,0,B|352:72|360:136|408:136|384:208,1,140
320,256,92355,2,0,L|256:312,2,70
192,200,93278,1,0,0:0:0:0:
120,104,93739,1,0,0:0:0:0:
240,72,94201,6,0,B|320:88|288:144|360:184,1,140
336,288,95124,2,0,B|288:256|224:264|192:256|192:256,1,140
128,160,96047,2,0,L|72:216,2,70
256,184,96970,1,0,0:0:0:0:
320,72,97432,1,0,0:0:0:0:
216,64,97893,6,0,B|168:72|152:120|104:144,1,140
152,232,98816,1,0,0:0:0:0:
288,248,99278,1,0,0:0:0:0:
408,296,99740,1,0,0:0:0:0:
408,152,100201,2,0,L|352:96,2,70
256,72,101124,1,0,0:0:0:0:
256,184,101586,5,0,0:0:0:0:
344,272,102047,1,0,0:0:0:0:
240,312,102509,2,0,B|184:344|176:272|120:336|112:256|104:248,1,140
136,160,103432,1,0,0:0:0:0:
272,184,103893,2,0,L|336:232,2,70
336,80,104816,1,0,0:0:0:0:
176,88,105278,5,4,0:0:0:0:
88,192,105740,2,0,B|88:232|144:224|168:288|352:256,1,280
256,136,107124,5,4,0:0:0:0:
400,80,107586,2,0,B|424:160|376:192|344:248|232:280,1,280
112,216,108970,6,0,B|96:184|136:144|152:80,1,140,4|0,0:0|0:0,0:0:0:0:
256,56,109893,5,4,0:0:0:0:
376,104,110355,1,4,0:0:0:0:
256,192,110817,12,0,112201,0:0:0:0:
256,192,112663,12,0,114047,0:0:0:0:
80,224,114509,6,0,B|72:136|160:128|160:88,1,140,4|2,0:0|0:0,0:0:0:0:
256,72,115201,1,0,0:0:0:0:
376,104,115432,2,0,L|440:160,1,70,4|0,0:0|0:0,0:0:0:0:
368,256,115893,1,2,0:0:0:0:
216,272,116355,2,0,L|272:320,2,70,4|0|2,0:0|0:0|0:0,0:0:0:0:
104,208,117047,1,0,0:0:0:0:
160,104,117278,1,0,0:0:0:0:
272,176,117740,1,2,0:0:0:0:
352,88,118201,6,0,L|416:120,2,70,4|0|2,0:0|0:0|0:0,0:0:0:0:
360,216,118894,1,0,0:0:0:0:
216,264,119125,2,0,L|144:280,2,70,4|0|2,0:0|0:0|0:0,0:0:0:0:
48,160,120048,2,0,B|64:112|112:136|112:64|168:64,1,140,4|2,0:0|0:0,0:0:0:0:
264,64,120740,1,0,0:0:0:0:
352,136,120971,1,0,0:0:0:0:
312,264,121432,1,2,0:0:0:0:
144,264,121893,6,0,B|48:160|136:152|56:128,1,140,4|2,0:0|0:0,0:0:0:0:
192,56,122585,1,0,0:0:0:0:
312,80,122816,2,0,L|384:128,1,70,4|0,0:0|0:0,0:0:0:0:
376,232,123277,1,2,0:0:0:0:
224,256,123739,2,0,L|264:320,2,70,4|0|2,0:0|0:0|0:0,0:0:0:0:
104,208,124431,1,0,0:0:0:0:
160,104,124662,1,0,0:0:0:0:
272,160,125124,1,2,0:0:0:0:
344,80,125586,6,0,L|400:128,2,70,4|0|2,0:0|0:0|0:0,0:0:0:0:
336,232,126279,1,0,0:0:0:0:
192,272,126510,2,0,L|120:288,2,70,4|0|2,0:0|0:0|0:0,0:0:0:0:
48,160,127433,2,0,B|64:112|112:136|112:64|168:64,1,140,4|2,0:0|0:0,0:0:0:0:
320,96,128125,1,0,0:0:0:0:
304,216,128356,1,0,0:0:0:0:
88,168,129278,6,0,B|112:112|184:136|216:72,1,140,4|2,0:0|0:0,0:0:0:0:
320,88,129970,1,0,0:0:0:0:
376,192,130201,2,0,L|408:264,2,70,4|0|2,0:0|0:0|0:0,0:0:0:0:
272,240,131124,2,0,L|208:296,2,70,4|0|2,0:0|0:0|0:0,0:0:0:0:
176,160,131817,2,0,L|120:96,1,70
256,56,132509,1,2,0:0:0:0:
328,136,132970,6,0,L|392:168,2,70,4|0|2,0:0|0:0|0:0,0:0:0:0:
288,232,133663,1,0,0:0:0:0:
184,272,133894,2,0,L|112:288,2,70,4|0|2,0:0|0:0|0:0,0:0:0:0:
48,160,134817,2,0,B|64:112|112:136|112:64|168:64,1,140,4|2,0:0|0:0,0:0:0:0:
264,64,135509,1,0,0:0:0:0:
184,160,135740,1,0,0:0:0:0:
296,192,136201,1,2,0:0:0:0:
264,288,136663,6,0,B|328:280|288:312|368:344|408:288,1,140,4|2,0:0|0:0,0:0:0:0:
416,192,137355,1,0,0:0:0:0:
312,104,137586,2,0,L|240:72,2,70,4|0|2,0:0|0:0|0:0,0:0:0:0:
88,144,138509,2,0,L|176:176,2,70,4|0|2,0:0|0:0|0:0,0:0:0:0:
104,304,139201,2,0,L|184:296,1,70
240,200,139894,1,2,0:0:0:0:
80,168,140355,6,0,B|96:104|176:128|192:48,1,140,4|2,0:0|0:0,0:0:0:0:
288,56,141047,1,0,0:0:0:0:
352,152,141278,2,0,L|280:208,2,70,4|0|2,0:0|0:0|0:0,0:0:0:0:
264,296,142201,2,0,L|176:272,2,70,4|0|2,0:0|0:0|0:0,0:0:0:0:
112,208,142893,2,0,L|192:144,1,70
