osu file format v14

[General]
AudioFilename: audio.mp3
AudioLeadIn: 0
PreviewTime: -1
Countdown: 1
SampleSet: None
StackLeniency: 0.7
Mode: 3
LetterboxInBreaks: 0
SpecialStyle: 0
WidescreenStoryboard: 0

[Editor]
DistanceSpacing: 0.8
BeatDivisor: 4
GridSize: 16
TimelineZoom: 1

[Metadata]
Title:Prismatic Lollipops
TitleUnicode:Prismatic Lollipops
Artist:Dj Mashiro
ArtistUnicode:Dj Mashiro
Creator:Baka 48
Version:Normal
Source:
Tags:
BeatmapID:1487657
BeatmapSetID:703111

[Difficulty]
HPDrainRate:5
CircleSize:4
OverallDifficulty:5
ApproachRate:5
SliderMultiplier:0.8
SliderTickRate:1

[Events]
//Background and Video events
0,0,"[ Otakunime ] Sasameki Koto 07.mkv_snapshot_07.04_[2017.09.23_09.18.44].jpg",0,0
//Break Periods
//Storyboard Layer 0 (Background)
//Storyboard Layer 1 (Fail)
//Storyboard Layer 2 (Pass)
//Storyboard Layer 3 (Foreground)
//Storyboard Sound Samples

[TimingPoints]
65.2452897409535,297.029702970297,4,1,0,100,1,0

[HitObjects]
192,192,1104,5,0,0:0:0:0:
320,192,1178,1,0,0:0:0:0:
448,192,1253,1,0,0:0:0:0:
64,192,1253,1,0,0:0:0:0:
192,192,1550,1,0,0:0:0:0:
320,192,1550,1,0,0:0:0:0:
64,192,1847,1,0,0:0:0:0:
448,192,1847,1,0,0:0:0:0:
64,192,2144,1,0,0:0:0:0:
320,192,2255,1,0,0:0:0:0:
192,192,2292,1,0,0:0:0:0:
320,192,2366,1,0,0:0:0:0:
64,192,2441,1,0,0:0:0:0:
448,192,2441,1,0,0:0:0:0:
192,192,2589,1,0,0:0:0:0:
448,192,2738,1,0,0:0:0:0:
192,192,2886,1,0,0:0:0:0:
64,192,3035,1,0,0:0:0:0:
448,192,3035,1,0,0:0:0:0:
448,192,3332,1,0,0:0:0:0:
320,192,3406,1,0,0:0:0:0:
192,192,3480,1,0,0:0:0:0:
320,192,3555,1,0,0:0:0:0:
64,192,3629,1,0,0:0:0:0:
448,192,3629,1,0,0:0:0:0:
192,192,3777,1,0,0:0:0:0:
320,192,3926,1,0,0:0:0:0:
64,192,4074,1,0,0:0:0:0:
448,192,4074,1,0,0:0:0:0:
192,192,4223,1,0,0:0:0:0:
320,192,4371,1,0,0:0:0:0:
448,192,4371,1,0,0:0:0:0:
192,192,4520,1,0,0:0:0:0:
64,192,4668,1,0,0:0:0:0:
320,192,4668,1,0,0:0:0:0:
64,192,4965,1,0,0:0:0:0:
192,192,4965,1,0,0:0:0:0:
320,192,5263,1,0,0:0:0:0:
64,192,5411,1,0,0:0:0:0:
320,192,5560,1,0,0:0:0:0:
448,192,5708,1,0,0:0:0:0:
192,192,5894,1,0,0:0:0:0:
320,192,6005,1,0,0:0:0:0:
64,192,6302,1,0,0:0:0:0:
448,192,6302,1,0,0:0:0:0:
192,192,6599,1,0,0:0:0:0:
320,192,6896,1,0,0:0:0:0:
192,192,7045,1,0,0:0:0:0:
64,192,7342,1,0,0:0:0:0:
448,192,7342,1,0,0:0:0:0:
320,192,7639,1,0,0:0:0:0:
64,192,7787,1,0,0:0:0:0:
448,192,7936,128,0,8233:0:0:0:0:
192,192,7936,1,0,0:0:0:0:
64,192,8084,1,0,0:0:0:0:
192,192,8233,1,0,0:0:0:0:
64,192,8381,128,0,8678:0:0:0:0:
320,192,8381,1,0,0:0:0:0:
192,192,8678,1,0,0:0:0:0:
320,192,8975,1,0,0:0:0:0:
448,192,8975,1,0,0:0:0:0:
448,192,9272,1,0,0:0:0:0:
64,192,9421,1,0,0:0:0:0:
64,192,9718,1,0,0:0:0:0:
448,192,9718,1,0,0:0:0:0:
192,192,10015,1,0,0:0:0:0:
320,192,10164,1,0,0:0:0:0:
448,192,10164,1,0,0:0:0:0:
192,192,10312,1,0,0:0:0:0:
192,192,10461,1,0,0:0:0:0:
64,192,10461,1,0,0:0:0:0:
320,192,10609,1,0,0:0:0:0:
64,192,10758,1,0,0:0:0:0:
192,192,10758,1,0,0:0:0:0:
448,192,10758,1,0,0:0:0:0:
448,192,11055,1,0,0:0:0:0:
192,192,11055,1,0,0:0:0:0:
64,192,11352,1,0,0:0:0:0:
320,192,11500,1,0,0:0:0:0:
192,192,11574,1,0,0:0:0:0:
64,192,11649,1,0,0:0:0:0:
448,192,11797,1,0,0:0:0:0:
320,192,11871,1,0,0:0:0:0:
192,192,11946,1,0,0:0:0:0:
64,192,12094,1,0,0:0:0:0:
448,192,12094,1,0,0:0:0:0:
320,192,12243,1,0,0:0:0:0:
192,192,12391,1,0,0:0:0:0:
448,192,12391,1,0,0:0:0:0:
64,192,12540,1,0,0:0:0:0:
192,192,12614,1,0,0:0:0:0:
320,192,12688,1,0,0:0:0:0:
64,192,12837,1,0,0:0:0:0:
448,192,12837,1,0,0:0:0:0:
320,192,12985,1,0,0:0:0:0:
448,192,13134,1,0,0:0:0:0:
64,192,13134,1,0,0:0:0:0:
192,192,13282,1,0,0:0:0:0:
320,192,13431,1,0,0:0:0:0:
448,192,13579,1,0,0:0:0:0:
64,192,13579,1,0,0:0:0:0:
192,192,13728,1,0,0:0:0:0:
448,192,13876,1,0,0:0:0:0:
320,192,13876,1,0,0:0:0:0:
192,192,14025,1,0,0:0:0:0:
320,192,14173,1,0,0:0:0:0:
64,192,14173,1,0,0:0:0:0:
192,192,14470,1,0,0:0:0:0:
64,192,14470,1,0,0:0:0:0:
320,192,14767,1,0,0:0:0:0:
64,192,14916,1,0,0:0:0:0:
320,192,15065,1,0,0:0:0:0:
448,192,15213,1,0,0:0:0:0:
192,192,15399,1,0,0:0:0:0:
320,192,15510,1,0,0:0:0:0:
448,192,15807,1,0,0:0:0:0:
64,192,15807,1,0,0:0:0:0:
320,192,15956,1,0,0:0:0:0:
192,192,16104,1,0,0:0:0:0:
64,192,16253,1,0,0:0:0:0:
64,192,16550,1,0,0:0:0:0:
448,192,16550,1,0,0:0:0:0:
192,192,16847,1,0,0:0:0:0:
448,192,17144,1,0,0:0:0:0:
320,192,17292,1,0,0:0:0:0:
192,192,17441,1,0,0:0:0:0:
320,192,17589,1,0,0:0:0:0:
448,192,17738,1,0,0:0:0:0:
64,192,17886,1,0,0:0:0:0:
320,192,17886,1,0,0:0:0:0:
64,192,18183,128,0,18480:0:0:0:0:
448,192,18183,1,0,0:0:0:0:
192,192,18480,128,0,18777:0:0:0:0:
320,192,18480,1,0,0:0:0:0:
320,192,18777,128,0,18926:0:0:0:0:
448,192,18926,128,0,19223:0:0:0:0:
64,192,19223,1,0,0:0:0:0:
320,192,19520,1,0,0:0:0:0:
192,192,19668,1,0,0:0:0:0:
64,192,19817,1,0,0:0:0:0:
320,192,19817,1,0,0:0:0:0:
192,192,19965,1,0,0:0:0:0:
320,192,20114,1,0,0:0:0:0:
64,192,20263,128,0,20411:0:0:0:0:
448,192,20263,1,0,0:0:0:0:
192,192,20411,128,0,20560:0:0:0:0:
320,192,20560,128,0,20708:0:0:0:0:
448,192,20708,128,0,20857:0:0:0:0:
320,192,20857,128,0,21005:0:0:0:0:
192,192,21005,128,0,21302:0:0:0:0:
448,192,21302,1,0,0:0:0:0:
64,192,21451,1,0,0:0:0:0:
320,192,21599,1,0,0:0:0:0:
192,192,21748,1,0,0:0:0:0:
64,192,21896,1,0,0:0:0:0:
192,192,22045,1,0,0:0:0:0:
448,192,22119,1,0,0:0:0:0:
320,192,22193,1,0,0:0:0:0:
192,192,22342,1,0,0:0:0:0:
320,192,22490,1,0,0:0:0:0:
64,192,22639,1,0,0:0:0:0:
448,192,22639,1,0,0:0:0:0:
320,192,22936,1,0,0:0:0:0:
192,192,23233,1,0,0:0:0:0:
448,192,23233,1,0,0:0:0:0:
192,192,23530,1,0,0:0:0:0:
320,192,23827,1,0,0:0:0:0:
64,192,23827,1,0,0:0:0:0:
192,192,23975,1,0,0:0:0:0:
64,192,24124,1,0,0:0:0:0:
320,192,24124,1,0,0:0:0:0:
192,192,24272,1,0,0:0:0:0:
64,192,24421,1,0,0:0:0:0:
320,192,24421,1,0,0:0:0:0:
448,192,24421,1,0,0:0:0:0:
448,192,24718,1,0,0:0:0:0:
320,192,24792,1,0,0:0:0:0:
192,192,24866,1,0,0:0:0:0:
64,192,24941,1,0,0:0:0:0:
448,192,25015,1,0,0:0:0:0:
320,192,25015,1,0,0:0:0:0:
192,192,25312,128,0,25461:0:0:0:0:
448,192,25461,1,0,0:0:0:0:
192,192,25758,1,0,0:0:0:0:
448,192,25758,1,0,0:0:0:0:
320,192,25906,1,0,0:0:0:0:
192,192,25980,1,0,0:0:0:0:
64,192,26055,1,0,0:0:0:0:
192,192,26129,1,0,0:0:0:0:
320,192,26203,1,0,0:0:0:0:
448,192,26203,1,0,0:0:0:0:
192,192,26500,1,0,0:0:0:0:
320,192,26797,1,0,0:0:0:0:
192,192,26946,1,0,0:0:0:0:
64,192,27094,1,0,0:0:0:0:
192,192,27243,1,0,0:0:0:0:
448,192,27243,1,0,0:0:0:0:
448,192,27540,1,0,0:0:0:0:
64,192,27688,1,0,0:0:0:0:
192,192,27837,1,0,0:0:0:0:
320,192,27837,1,0,0:0:0:0:
448,192,27985,1,0,0:0:0:0:
64,192,27985,1,0,0:0:0:0:
64,192,28282,1,0,0:0:0:0:
448,192,28282,1,0,0:0:0:0:
192,192,28431,1,0,0:0:0:0:
320,192,28431,1,0,0:0:0:0:
320,192,28728,1,0,0:0:0:0:
448,192,28728,1,0,0:0:0:0:
320,192,29025,1,0,0:0:0:0:
192,192,29025,1,0,0:0:0:0:
64,192,29173,128,0,29322:0:0:0:0:
448,192,29322,1,0,0:0:0:0:
320,192,29396,1,0,0:0:0:0:
448,192,29470,1,0,0:0:0:0:
320,192,29619,1,0,0:0:0:0:
64,192,29767,1,0,0:0:0:0:
448,192,29767,1,0,0:0:0:0:
320,192,30213,1,0,0:0:0:0:
192,192,30213,1,0,0:0:0:0:
192,192,30362,1,0,0:0:0:0:
320,192,30362,1,0,0:0:0:0:
192,192,30807,1,0,0:0:0:0:
320,192,30807,1,0,0:0:0:0:
64,192,30956,1,0,0:0:0:0:
448,192,30956,1,0,0:0:0:0:
320,192,31253,128,0,31550:0:0:0:0:
192,192,31253,1,0,0:0:0:0:
448,192,31550,1,0,0:0:0:0:
64,192,31550,1,0,0:0:0:0:
64,192,31847,1,0,0:0:0:0:
320,192,31995,1,0,0:0:0:0:
192,192,32144,1,0,0:0:0:0:
320,192,32441,1,0,0:0:0:0:
320,192,32738,1,0,0:0:0:0:
64,192,32738,1,0,0:0:0:0:
192,192,32886,1,0,0:0:0:0:
320,192,33035,1,0,0:0:0:0:
64,192,33035,1,0,0:0:0:0:
192,192,33183,1,0,0:0:0:0:
320,192,33332,1,0,0:0:0:0:
448,192,33332,1,0,0:0:0:0:
64,192,33332,1,0,0:0:0:0:
320,192,33629,1,0,0:0:0:0:
192,192,33777,1,0,0:0:0:0:
320,192,33852,1,0,0:0:0:0:
448,192,33926,1,0,0:0:0:0:
320,192,34074,1,0,0:0:0:0:
192,192,34223,1,0,0:0:0:0:
448,192,34371,1,0,0:0:0:0:
192,192,34520,1,0,0:0:0:0:
64,192,34520,1,0,0:0:0:0:
64,192,34817,1,0,0:0:0:0:
448,192,34817,1,0,0:0:0:0:
192,192,34817,128,0,34965:0:0:0:0:
320,192,34965,1,0,0:0:0:0:
448,192,35263,1,0,0:0:0:0:
192,192,35263,1,0,0:0:0:0:
320,192,35411,1,0,0:0:0:0:
192,192,35485,1,0,0:0:0:0:
64,192,35560,1,0,0:0:0:0:
192,192,35634,1,0,0:0:0:0:
448,192,35708,1,0,0:0:0:0:
320,192,35708,1,0,0:0:0:0:
192,192,36005,1,0,0:0:0:0:
320,192,36302,1,0,0:0:0:0:
192,192,36451,1,0,0:0:0:0:
64,192,36599,1,0,0:0:0:0:
448,192,36748,1,0,0:0:0:0:
192,192,36748,1,0,0:0:0:0:
448,192,37045,1,0,0:0:0:0:
64,192,37193,1,0,0:0:0:0:
320,192,37342,1,0,0:0:0:0:
192,192,37342,1,0,0:0:0:0:
64,192,37490,1,0,0:0:0:0:
448,192,37490,1,0,0:0:0:0:
448,192,37787,1,0,0:0:0:0:
64,192,37787,1,0,0:0:0:0:
320,192,37936,1,0,0:0:0:0:
192,192,37936,1,0,0:0:0:0:
448,192,38233,1,0,0:0:0:0:
320,192,38233,1,0,0:0:0:0:
192,192,38530,1,0,0:0:0:0:
320,192,38530,1,0,0:0:0:0:
64,192,38678,128,0,38827:0:0:0:0:
448,192,38827,1,0,0:0:0:0:
320,192,38901,1,0,0:0:0:0:
448,192,38975,1,0,0:0:0:0:
320,192,39124,1,0,0:0:0:0:
448,192,39272,1,0,0:0:0:0:
64,192,39272,1,0,0:0:0:0:
320,192,39718,1,0,0:0:0:0:
192,192,39718,1,0,0:0:0:0:
192,192,39866,1,0,0:0:0:0:
320,192,39866,1,0,0:0:0:0:
192,192,40312,1,0,0:0:0:0:
320,192,40312,1,0,0:0:0:0:
64,192,40461,1,0,0:0:0:0:
448,192,40461,1,0,0:0:0:0:
320,192,40758,128,0,41055:0:0:0:0:
192,192,40758,1,0,0:0:0:0:
448,192,41055,1,0,0:0:0:0:
64,192,41055,1,0,0:0:0:0:
64,192,41352,1,0,0:0:0:0:
320,192,41500,1,0,0:0:0:0:
192,192,41649,1,0,0:0:0:0:
320,192,41946,1,0,0:0:0:0:
320,192,42243,1,0,0:0:0:0:
64,192,42243,1,0,0:0:0:0:
192,192,42391,1,0,0:0:0:0:
320,192,42540,1,0,0:0:0:0:
64,192,42540,1,0,0:0:0:0:
192,192,42688,1,0,0:0:0:0:
320,192,42837,128,0,43134:0:0:0:0:
448,192,42837,128,0,43134:0:0:0:0:
192,192,43134,128,0,43282:0:0:0:0:
64,192,43134,128,0,43282:0:0:0:0:
448,192,43431,1,0,0:0:0:0:
320,192,43579,1,0,0:0:0:0:
192,192,43728,1,0,0:0:0:0:
64,192,43876,1,0,0:0:0:0:
192,192,44025,1,0,0:0:0:0:
320,192,44025,1,0,0:0:0:0:
448,192,44025,1,0,0:0:0:0:
192,192,44322,1,0,0:0:0:0:
64,192,44322,1,0,0:0:0:0:
320,192,44619,1,0,0:0:0:0:
192,192,44916,1,0,0:0:0:0:
320,192,45213,1,0,0:0:0:0:
64,192,45213,1,0,0:0:0:0:
192,192,45362,1,0,0:0:0:0:
64,192,45510,1,0,0:0:0:0:
320,192,45510,1,0,0:0:0:0:
192,192,45659,1,0,0:0:0:0:
64,192,45807,1,0,0:0:0:0:
448,192,45807,1,0,0:0:0:0:
320,192,45956,1,0,0:0:0:0:
192,192,46030,1,0,0:0:0:0:
64,192,46104,1,0,0:0:0:0:
192,192,46253,1,0,0:0:0:0:
64,192,46401,1,0,0:0:0:0:
320,192,46401,1,0,0:0:0:0:
448,192,46401,1,0,0:0:0:0:
192,192,46698,1,0,0:0:0:0:
320,192,46995,1,0,0:0:0:0:
448,192,46995,1,0,0:0:0:0:
448,192,47292,1,0,0:0:0:0:
320,192,47441,1,0,0:0:0:0:
192,192,47589,1,0,0:0:0:0:
64,192,47886,1,0,0:0:0:0:
448,192,47886,1,0,0:0:0:0:
192,192,48183,1,0,0:0:0:0:
320,192,48183,1,0,0:0:0:0:
64,192,48480,1,0,0:0:0:0:
448,192,48480,1,0,0:0:0:0:
448,192,48777,128,0,49074:0:0:0:0:
320,192,49074,1,0,0:0:0:0:
192,192,49371,1,0,0:0:0:0:
64,192,49371,1,0,0:0:0:0:
320,192,49668,1,0,0:0:0:0:
192,192,49817,1,0,0:0:0:0:
448,192,49965,1,0,0:0:0:0:
320,192,50114,1,0,0:0:0:0:
192,192,50263,1,0,0:0:0:0:
64,192,50411,1,0,0:0:0:0:
320,192,50560,1,0,0:0:0:0:
448,192,50560,1,0,0:0:0:0:
192,192,50708,1,0,0:0:0:0:
320,192,50782,1,0,0:0:0:0:
448,192,50857,1,0,0:0:0:0:
320,192,51005,1,0,0:0:0:0:
64,192,51154,1,0,0:0:0:0:
192,192,51154,1,0,0:0:0:0:
448,192,51154,1,0,0:0:0:0:
320,192,51451,1,0,0:0:0:0:
192,192,51451,1,0,0:0:0:0:
64,192,51748,1,0,0:0:0:0:
320,192,51748,1,0,0:0:0:0:
448,192,52045,1,0,0:0:0:0:
192,192,52045,1,0,0:0:0:0:
320,192,52193,1,0,0:0:0:0:
64,192,52342,1,0,0:0:0:0:
192,192,52342,1,0,0:0:0:0:
192,192,52639,1,0,0:0:0:0:
448,192,52936,1,0,0:0:0:0:
320,192,52936,1,0,0:0:0:0:
64,192,52936,1,0,0:0:0:0:
448,192,53233,1,0,0:0:0:0:
320,192,53307,1,0,0:0:0:0:
192,192,53381,1,0,0:0:0:0:
64,192,53456,1,0,0:0:0:0:
320,192,53530,1,0,0:0:0:0:
448,192,53530,1,0,0:0:0:0:
192,192,53827,1,0,0:0:0:0:
64,192,53827,1,0,0:0:0:0:
320,192,54124,1,0,0:0:0:0:
192,192,54421,1,0,0:0:0:0:
320,192,54718,1,0,0:0:0:0:
64,192,54718,1,0,0:0:0:0:
192,192,54866,1,0,0:0:0:0:
64,192,55015,1,0,0:0:0:0:
320,192,55015,1,0,0:0:0:0:
192,192,55164,1,0,0:0:0:0:
64,192,55312,1,0,0:0:0:0:
448,192,55312,1,0,0:0:0:0:
320,192,55461,1,0,0:0:0:0:
192,192,55535,1,0,0:0:0:0:
64,192,55609,1,0,0:0:0:0:
192,192,55758,1,0,0:0:0:0:
64,192,55906,1,0,0:0:0:0:
320,192,55906,1,0,0:0:0:0:
448,192,55906,1,0,0:0:0:0:
192,192,56203,1,0,0:0:0:0:
320,192,56500,1,0,0:0:0:0:
448,192,56500,1,0,0:0:0:0:
448,192,56797,1,0,0:0:0:0:
320,192,56946,1,0,0:0:0:0:
192,192,57094,1,0,0:0:0:0:
64,192,57391,1,0,0:0:0:0:
448,192,57391,1,0,0:0:0:0:
192,192,57688,1,0,0:0:0:0:
320,192,57688,1,0,0:0:0:0:
64,192,57985,1,0,0:0:0:0:
448,192,57985,1,0,0:0:0:0:
448,192,58282,128,0,58579:0:0:0:0:
320,192,58579,1,0,0:0:0:0:
192,192,58876,1,0,0:0:0:0:
64,192,58876,1,0,0:0:0:0:
320,192,59173,1,0,0:0:0:0:
192,192,59322,1,0,0:0:0:0:
448,192,59470,1,0,0:0:0:0:
320,192,59619,1,0,0:0:0:0:
192,192,59767,1,0,0:0:0:0:
64,192,59916,1,0,0:0:0:0:
320,192,60065,1,0,0:0:0:0:
448,192,60065,1,0,0:0:0:0:
192,192,60213,1,0,0:0:0:0:
320,192,60287,1,0,0:0:0:0:
448,192,60362,1,0,0:0:0:0:
320,192,60510,1,0,0:0:0:0:
64,192,60659,1,0,0:0:0:0:
192,192,60659,1,0,0:0:0:0:
448,192,60659,1,0,0:0:0:0:
320,192,60956,1,0,0:0:0:0:
192,192,60956,1,0,0:0:0:0:
64,192,61253,1,0,0:0:0:0:
320,192,61253,1,0,0:0:0:0:
448,192,61550,1,0,0:0:0:0:
192,192,61550,1,0,0:0:0:0:
320,192,61698,1,0,0:0:0:0:
64,192,61847,1,0,0:0:0:0:
192,192,61847,1,0,0:0:0:0:
192,192,62144,1,0,0:0:0:0:
448,192,62441,1,0,0:0:0:0:
320,192,62441,1,0,0:0:0:0:
64,192,62441,1,0,0:0:0:0:
64,192,62738,1,0,0:0:0:0:
192,192,62738,1,0,0:0:0:0:
448,192,62738,1,0,0:0:0:0:
192,192,63035,1,0,0:0:0:0:
64,192,63035,1,0,0:0:0:0:
192,192,63332,1,0,0:0:0:0:
320,192,63332,1,0,0:0:0:0:
64,192,63480,1,0,0:0:0:0:
448,192,63480,1,0,0:0:0:0:
448,192,63926,1,0,0:0:0:0:
320,192,64000,1,0,0:0:0:0:
192,192,64074,1,0,0:0:0:0:
320,192,64149,1,0,0:0:0:0:
64,192,64223,1,0,0:0:0:0:
448,192,64223,1,0,0:0:0:0:
192,192,64371,1,0,0:0:0:0:
320,192,64520,1,0,0:0:0:0:
64,192,64668,1,0,0:0:0:0:
448,192,64668,1,0,0:0:0:0:
192,192,64817,1,0,0:0:0:0:
320,192,64965,1,0,0:0:0:0:
448,192,64965,1,0,0:0:0:0:
192,192,65114,1,0,0:0:0:0:
64,192,65263,1,0,0:0:0:0:
320,192,65263,1,0,0:0:0:0:
64,192,65560,1,0,0:0:0:0:
192,192,65560,1,0,0:0:0:0:
320,192,65857,1,0,0:0:0:0:
64,192,66005,1,0,0:0:0:0:
320,192,66154,1,0,0:0:0:0:
448,192,66302,1,0,0:0:0:0:
192,192,66488,1,0,0:0:0:0:
320,192,66599,1,0,0:0:0:0:
64,192,66896,1,0,0:0:0:0:
448,192,66896,1,0,0:0:0:0:
192,192,67193,1,0,0:0:0:0:
320,192,67490,1,0,0:0:0:0:
192,192,67639,1,0,0:0:0:0:
64,192,67936,1,0,0:0:0:0:
448,192,67936,1,0,0:0:0:0:
320,192,68233,1,0,0:0:0:0:
64,192,68381,1,0,0:0:0:0:
448,192,68530,128,0,68827:0:0:0:0:
192,192,68530,1,0,0:0:0:0:
64,192,68678,1,0,0:0:0:0:
192,192,68827,1,0,0:0:0:0:
64,192,68975,128,0,69272:0:0:0:0:
320,192,68975,1,0,0:0:0:0:
192,192,69272,1,0,0:0:0:0:
320,192,69569,1,0,0:0:0:0:
448,192,69569,1,0,0:0:0:0:
448,192,69866,1,0,0:0:0:0:
64,192,70015,1,0,0:0:0:0:
64,192,70312,1,0,0:0:0:0:
448,192,70312,1,0,0:0:0:0:
192,192,70609,1,0,0:0:0:0:
320,192,70758,1,0,0:0:0:0:
448,192,70758,1,0,0:0:0:0:
192,192,70906,1,0,0:0:0:0:
192,192,71055,1,0,0:0:0:0:
64,192,71055,1,0,0:0:0:0:
320,192,71203,1,0,0:0:0:0:
64,192,71352,1,0,0:0:0:0:
192,192,71352,1,0,0:0:0:0:
448,192,71352,1,0,0:0:0:0:
448,192,71649,1,0,0:0:0:0:
192,192,71649,1,0,0:0:0:0:
64,192,71946,1,0,0:0:0:0:
320,192,72094,1,0,0:0:0:0:
192,192,72168,1,0,0:0:0:0:
64,192,72243,1,0,0:0:0:0:
448,192,72391,1,0,0:0:0:0:
320,192,72465,1,0,0:0:0:0:
192,192,72540,1,0,0:0:0:0:
64,192,72688,1,0,0:0:0:0:
448,192,72688,1,0,0:0:0:0:
320,192,72837,1,0,0:0:0:0:
192,192,72985,1,0,0:0:0:0:
448,192,72985,1,0,0:0:0:0:
64,192,73134,1,0,0:0:0:0:
192,192,73208,1,0,0:0:0:0:
320,192,73282,1,0,0:0:0:0:
64,192,73431,1,0,0:0:0:0:
448,192,73431,1,0,0:0:0:0:
320,192,73579,1,0,0:0:0:0:
64,192,73728,1,0,0:0:0:0:
448,192,73728,1,0,0:0:0:0:
192,192,73876,1,0,0:0:0:0:
320,192,74025,1,0,0:0:0:0:
64,192,74173,1,0,0:0:0:0:
448,192,74173,1,0,0:0:0:0:
192,192,74322,1,0,0:0:0:0:
320,192,74470,1,0,0:0:0:0:
448,192,74470,1,0,0:0:0:0:
192,192,74619,1,0,0:0:0:0:
64,192,74767,1,0,0:0:0:0:
320,192,74767,1,0,0:0:0:0:
64,192,75065,1,0,0:0:0:0:
192,192,75065,1,0,0:0:0:0:
320,192,75362,1,0,0:0:0:0:
64,192,75510,1,0,0:0:0:0:
320,192,75659,1,0,0:0:0:0:
448,192,75807,1,0,0:0:0:0:
192,192,75993,1,0,0:0:0:0:
320,192,76104,1,0,0:0:0:0:
64,192,76401,1,0,0:0:0:0:
448,192,76401,1,0,0:0:0:0:
320,192,76550,1,0,0:0:0:0:
192,192,76698,1,0,0:0:0:0:
64,192,76847,1,0,0:0:0:0:
448,192,77144,1,0,0:0:0:0:
64,192,77144,1,0,0:0:0:0:
192,192,77441,1,0,0:0:0:0:
448,192,77738,1,0,0:0:0:0:
320,192,77886,1,0,0:0:0:0:
192,192,78035,1,0,0:0:0:0:
320,192,78183,1,0,0:0:0:0:
448,192,78332,1,0,0:0:0:0:
320,192,78480,1,0,0:0:0:0:
64,192,78480,1,0,0:0:0:0:
448,192,78777,1,0,0:0:0:0:
64,192,78777,128,0,79074:0:0:0:0:
320,192,79074,1,0,0:0:0:0:
192,192,79074,128,0,79371:0:0:0:0:
320,192,79371,128,0,79520:0:0:0:0:
448,192,79520,128,0,79817:0:0:0:0:
64,192,79817,1,0,0:0:0:0:
320,192,80114,1,0,0:0:0:0:
192,192,80263,1,0,0:0:0:0:
320,192,80411,1,0,0:0:0:0:
64,192,80411,1,0,0:0:0:0:
192,192,80560,1,0,0:0:0:0:
320,192,80708,1,0,0:0:0:0:
448,192,80857,1,0,0:0:0:0:
64,192,80857,128,0,81005:0:0:0:0:
192,192,81005,128,0,81154:0:0:0:0:
320,192,81154,128,0,81302:0:0:0:0:
448,192,81302,128,0,81451:0:0:0:0:
320,192,81451,128,0,81599:0:0:0:0:
192,192,81599,128,0,81896:0:0:0:0:
448,192,81896,1,0,0:0:0:0:
64,192,82045,1,0,0:0:0:0:
320,192,82193,1,0,0:0:0:0:
192,192,82342,1,0,0:0:0:0:
64,192,82490,1,0,0:0:0:0:
192,192,82639,1,0,0:0:0:0:
448,192,82713,1,0,0:0:0:0:
320,192,82787,1,0,0:0:0:0:
192,192,82936,1,0,0:0:0:0:
320,192,83084,1,0,0:0:0:0:
448,192,83233,1,0,0:0:0:0:
64,192,83233,1,0,0:0:0:0:
320,192,83530,1,0,0:0:0:0:
448,192,83827,1,0,0:0:0:0:
192,192,83827,1,0,0:0:0:0:
192,192,84124,1,0,0:0:0:0:
64,192,84421,1,0,0:0:0:0:
320,192,84421,1,0,0:0:0:0:
192,192,84569,1,0,0:0:0:0:
320,192,84718,1,0,0:0:0:0:
64,192,84718,1,0,0:0:0:0:
192,192,84866,1,0,0:0:0:0:
448,192,85015,1,0,0:0:0:0:
320,192,85015,1,0,0:0:0:0:
64,192,85015,1,0,0:0:0:0:
