osu file format v14

[General]
AudioFilename: audio.mp3
AudioLeadIn: 0
PreviewTime: 75279
Countdown: 0
SampleSet: Soft
StackLeniency: 0.7
Mode: 3
LetterboxInBreaks: 0
SpecialStyle: 0
WidescreenStoryboard: 1

[Editor]
Bookmarks: 5225,10414,31171,41549,51927,75279,96035,106414,127171,150522
DistanceSpacing: 0.8
BeatDivisor: 4
GridSize: 8
TimelineZoom: 1.2

[Metadata]
Title:POP/STARS vs. MEGALOVANIA
TitleUnicode:POP/STARS vs. MEGALOVANIA
Artist:Dj CUTMAN
ArtistUnicode:Dj CUTMAN
Creator:PokeSky
Version:NORMAL
Source:League of Legends
Tags:Electronic English Korean ahri evelynn kaisa kai'sa akali kda popstar pop stars kpop k-pop lol riot games worlds 2018 miyeon soyeon (여자)아이들 Madison Beer (G)I-DLE Jaira Burns toby fox Video game undertale sans papyrus boss battle theme ost original soundtrack
BeatmapID:2437571
BeatmapSetID:1167660

[Difficulty]
HPDrainRate:7
CircleSize:4
OverallDifficulty:7
ApproachRate:5
SliderMultiplier:1.4
SliderTickRate:1

[Events]
//Background and Video events
Video,0,"video.mp4"
0,0,"bg2.jpg",0,0
//Break Periods
//Storyboard Layer 0 (Background)
//Storyboard Layer 1 (Fail)
//Storyboard Layer 2 (Pass)
//Storyboard Layer 3 (Foreground)
//Storyboard Layer 4 (Overlay)
//Storyboard Sound Samples
Sample,50630,0,"bell.wav",70
Sample,144684,0,"LR_Clap hollow echo.wav",70

[TimingPoints]
36,324.324324324324,4,2,1,50,1,0
51927,-100,4,2,1,50,0,1
72684,-100,4,2,1,50,0,0
75279,-100,4,2,1,50,0,1
96035,-100,4,2,1,50,0,0
106414,-100,4,2,1,50,0,1
127171,-100,4,2,1,50,0,0
150522,-100,4,2,1,50,0,1
171279,-100,4,2,1,50,0,0

[HitObjects]
64,192,36,128,0,360:0:0:0:0:
448,192,360,1,0,0:0:0:0:
192,192,522,1,0,0:0:0:0:
448,192,684,1,0,0:0:0:0:
64,192,846,1,0,0:0:0:0:
320,192,1008,1,0,0:0:0:0:
64,192,1171,1,0,0:0:0:0:
448,192,1333,1,0,0:0:0:0:
192,192,1495,1,0,0:0:0:0:
448,192,1657,1,0,0:0:0:0:
192,192,1819,1,0,0:0:0:0:
64,192,1981,1,0,0:0:0:0:
320,192,2144,1,0,0:0:0:0:
64,192,2306,1,0,0:0:0:0:
448,192,2468,1,0,0:0:0:0:
448,192,2630,1,0,0:0:0:0:
320,192,2792,1,0,0:0:0:0:
64,192,2954,1,0,0:0:0:0:
192,192,3117,1,0,0:0:0:0:
448,192,3279,1,0,0:0:0:0:
64,192,3441,1,0,0:0:0:0:
448,192,3603,1,0,0:0:0:0:
192,192,3765,1,0,0:0:0:0:
320,192,3927,1,0,0:0:0:0:
192,192,4090,1,0,0:0:0:0:
320,192,4252,1,0,0:0:0:0:
192,192,4414,1,0,0:0:0:0:
448,192,4576,128,0,4900:0:0:0:0:
64,192,4900,128,0,5225:0:0:0:0:
192,192,5225,1,0,0:0:0:0:
320,192,5225,1,0,0:0:0:0:
448,192,5549,1,0,0:0:0:0:
448,192,5711,1,0,0:0:0:0:
64,192,6035,1,0,0:0:0:0:
64,192,6198,1,0,0:0:0:0:
448,192,6522,1,0,0:0:0:0:
320,192,6846,1,0,0:0:0:0:
320,192,7008,1,0,0:0:0:0:
192,192,7333,1,0,0:0:0:0:
192,192,7495,1,0,0:0:0:0:
64,192,7819,1,0,0:0:0:0:
448,192,8144,1,0,0:0:0:0:
448,192,8306,1,0,0:0:0:0:
64,192,8630,1,0,0:0:0:0:
64,192,8792,1,0,0:0:0:0:
320,192,9117,1,0,0:0:0:0:
192,192,9279,1,0,0:0:0:0:
320,192,9441,1,0,0:0:0:0:
192,192,9603,1,0,0:0:0:0:
64,192,9765,128,0,10090:0:0:0:0:
448,192,10090,1,0,0:0:0:0:
64,192,10414,1,4,0:0:0:0:
192,192,10414,1,2,0:0:0:0:
320,192,10738,1,8,0:0:0:0:
448,192,10738,1,0,0:0:0:0:
192,192,10900,1,0,0:0:0:0:
320,192,11063,1,0,0:0:0:0:
64,192,11225,1,2,0:0:0:0:
192,192,11387,1,8,0:0:0:0:
448,192,11387,1,0,0:0:0:0:
320,192,11549,1,0,0:0:0:0:
64,192,11711,1,2,0:0:0:0:
320,192,12035,1,8,0:0:0:0:
448,192,12035,1,0,0:0:0:0:
192,192,12198,1,0,0:0:0:0:
448,192,12360,1,0,0:0:0:0:
64,192,12522,1,2,0:0:0:0:
192,192,12684,1,8,0:0:0:0:
320,192,12684,1,0,0:0:0:0:
448,192,12846,1,0,0:0:0:0:
64,192,13008,1,2,0:0:0:0:
192,192,13333,1,8,0:0:0:0:
320,192,13333,1,0,0:0:0:0:
448,192,13495,1,0,0:0:0:0:
192,192,13657,1,0,0:0:0:0:
320,192,13819,1,2,0:0:0:0:
64,192,13981,1,8,0:0:0:0:
448,192,13981,1,0,0:0:0:0:
192,192,14306,1,2,0:0:0:0:
192,192,14630,1,8,0:0:0:0:
448,192,14630,1,0,0:0:0:0:
192,192,14954,1,0,0:0:0:0:
448,192,15117,1,2,0:0:0:0:
64,192,15279,1,8,0:0:0:0:
192,192,15279,1,0,0:0:0:0:
320,192,15441,1,0,0:0:0:0:
448,192,15603,1,2,0:0:0:0:
64,192,15927,1,8,0:0:0:0:
320,192,15927,1,0,0:0:0:0:
192,192,16090,1,0,0:0:0:0:
448,192,16252,1,0,0:0:0:0:
320,192,16414,1,2,0:0:0:0:
64,192,16576,1,8,0:0:0:0:
192,192,16576,1,0,0:0:0:0:
448,192,16738,1,0,0:0:0:0:
320,192,16900,1,2,0:0:0:0:
64,192,17225,1,8,0:0:0:0:
192,192,17225,1,0,0:0:0:0:
448,192,17387,1,0,0:0:0:0:
320,192,17549,1,0,0:0:0:0:
64,192,17711,1,2,0:0:0:0:
192,192,17873,1,8,0:0:0:0:
448,192,17873,1,0,0:0:0:0:
320,192,18035,1,0,0:0:0:0:
64,192,18198,1,2,0:0:0:0:
320,192,18522,1,8,0:0:0:0:
448,192,18522,1,0,0:0:0:0:
192,192,18684,1,0,0:0:0:0:
448,192,18846,1,0,0:0:0:0:
64,192,19008,1,2,0:0:0:0:
192,192,19171,1,8,0:0:0:0:
320,192,19171,1,0,0:0:0:0:
448,192,19333,1,0,0:0:0:0:
64,192,19495,1,2,0:0:0:0:
64,192,19819,1,8,0:0:0:0:
320,192,19819,1,0,0:0:0:0:
64,192,20144,1,2,0:0:0:0:
448,192,20306,1,2,0:0:0:0:
64,192,20468,1,8,0:0:0:0:
320,192,20468,1,0,0:0:0:0:
192,192,20630,1,0,0:0:0:0:
320,192,20792,1,2,0:0:0:0:
448,192,20792,1,4,0:0:0:0:
64,192,21117,1,8,0:0:0:0:
192,192,21117,1,0,0:0:0:0:
448,192,21279,128,0,21603:0:0:0:0:
64,192,21603,1,2,0:0:0:0:
192,192,21765,1,8,0:0:0:0:
320,192,21765,1,0,0:0:0:0:
448,192,21927,1,0,0:0:0:0:
64,192,22090,128,2,22414:0:0:0:0:
448,192,22414,1,0,0:0:0:0:
320,192,22414,128,8,22738:0:0:0:0:
64,192,22738,1,0,0:0:0:0:
192,192,22900,1,2,0:0:0:0:
448,192,23063,1,8,0:0:0:0:
320,192,23063,1,0,0:0:0:0:
64,192,23225,1,0,0:0:0:0:
448,192,23387,1,2,0:0:0:0:
64,192,23711,1,8,0:0:0:0:
192,192,23711,1,0,0:0:0:0:
320,192,23873,128,0,24198:0:0:0:0:
64,192,24198,1,2,0:0:0:0:
192,192,24360,1,8,0:0:0:0:
448,192,24360,1,0,0:0:0:0:
320,192,24522,1,0,0:0:0:0:
64,192,24684,1,2,0:0:0:0:
448,192,24846,1,2,0:0:0:0:
192,192,25008,1,8,0:0:0:0:
320,192,25008,1,0,0:0:0:0:
64,192,25171,1,0,0:0:0:0:
448,192,25333,128,0,25657:0:0:0:0:
192,192,25657,128,0,25981:0:0:0:0:
320,192,25981,1,2,0:0:0:0:
64,192,26306,1,8,0:0:0:0:
192,192,26306,1,0,0:0:0:0:
448,192,26468,1,0,0:0:0:0:
320,192,26630,1,0,0:0:0:0:
64,192,26792,1,2,0:0:0:0:
192,192,26954,1,8,0:0:0:0:
448,192,26954,1,0,0:0:0:0:
320,192,27117,1,0,0:0:0:0:
64,192,27279,1,2,0:0:0:0:
192,192,27441,1,2,0:0:0:0:
320,192,27603,1,8,0:0:0:0:
448,192,27603,1,0,0:0:0:0:
64,192,27765,1,0,0:0:0:0:
192,192,27927,1,0,0:0:0:0:
448,192,28090,1,2,0:0:0:0:
64,192,28252,1,8,0:0:0:0:
320,192,28252,1,0,0:0:0:0:
192,192,28414,1,0,0:0:0:0:
448,192,28576,1,2,0:0:0:0:
64,192,28900,1,8,0:0:0:0:
320,192,28900,1,0,0:0:0:0:
192,192,29063,1,0,0:0:0:0:
448,192,29225,1,0,0:0:0:0:
320,192,29387,1,2,0:0:0:0:
64,192,29549,1,8,0:0:0:0:
192,192,29549,1,0,0:0:0:0:
448,192,29711,1,0,0:0:0:0:
320,192,29873,1,2,0:0:0:0:
192,192,30198,1,8,0:0:0:0:
320,192,30198,1,0,0:0:0:0:
320,192,30522,1,0,0:0:0:0:
64,192,30684,1,2,0:0:0:0:
320,192,30846,1,8,0:0:0:0:
448,192,30846,1,0,0:0:0:0:
64,192,31171,1,4,0:0:0:0:
192,192,31171,1,2,0:0:0:0:
64,192,31333,1,0,0:0:0:0:
448,192,31495,1,0,0:0:0:0:
320,192,31819,1,0,0:0:0:0:
192,192,32306,1,0,0:0:0:0:
320,192,32630,1,0,0:0:0:0:
64,192,32954,128,0,33279:0:0:0:0:
192,192,33279,1,0,0:0:0:0:
320,192,33441,1,0,0:0:0:0:
448,192,33603,1,0,0:0:0:0:
192,192,33765,1,0,0:0:0:0:
192,192,33927,1,0,0:0:0:0:
448,192,34090,1,0,0:0:0:0:
320,192,34414,1,0,0:0:0:0:
64,192,34900,1,0,0:0:0:0:
320,192,35225,1,0,0:0:0:0:
192,192,35549,128,0,35873:0:0:0:0:
448,192,35873,1,0,0:0:0:0:
320,192,36035,1,0,0:0:0:0:
64,192,36198,1,0,0:0:0:0:
192,192,36360,1,0,0:0:0:0:
192,192,36522,1,0,0:0:0:0:
448,192,36684,1,0,0:0:0:0:
320,192,37008,1,0,0:0:0:0:
64,192,37495,1,0,0:0:0:0:
192,192,37819,1,0,0:0:0:0:
448,192,38144,128,0,38468:0:0:0:0:
64,192,38468,1,0,0:0:0:0:
448,192,38630,1,0,0:0:0:0:
192,192,38792,1,0,0:0:0:0:
320,192,38954,1,0,0:0:0:0:
320,192,39117,1,0,0:0:0:0:
448,192,39279,1,0,0:0:0:0:
64,192,39603,1,0,0:0:0:0:
448,192,40090,1,0,0:0:0:0:
320,192,40414,1,0,0:0:0:0:
192,192,40738,128,0,41063:0:0:0:0:
448,192,41063,1,0,0:0:0:0:
192,192,41225,1,0,0:0:0:0:
320,192,41387,1,0,0:0:0:0:
64,192,41549,1,4,0:0:0:0:
448,192,41549,1,2,0:0:0:0:
64,192,41711,1,0,0:0:0:0:
320,192,41873,1,8,0:0:0:0:
448,192,41873,1,0,0:0:0:0:
192,192,42198,1,0,0:0:0:0:
448,192,42360,1,2,0:0:0:0:
64,192,42522,1,8,0:0:0:0:
320,192,42522,1,0,0:0:0:0:
192,192,42684,1,0,0:0:0:0:
448,192,42846,1,2,0:0:0:0:
64,192,43008,1,0,0:0:0:0:
192,192,43171,1,8,0:0:0:0:
320,192,43171,1,0,0:0:0:0:
448,192,43333,128,0,43657:0:0:0:0:
64,192,43657,1,2,0:0:0:0:
192,192,43819,1,8,0:0:0:0:
320,192,43819,1,0,0:0:0:0:
448,192,43981,1,0,0:0:0:0:
64,192,44144,1,2,0:0:0:0:
64,192,44306,1,0,0:0:0:0:
320,192,44468,1,8,0:0:0:0:
448,192,44468,1,0,0:0:0:0:
192,192,44792,1,0,0:0:0:0:
448,192,44954,1,2,0:0:0:0:
64,192,45117,1,8,0:0:0:0:
320,192,45117,1,0,0:0:0:0:
192,192,45279,1,0,0:0:0:0:
448,192,45441,1,2,0:0:0:0:
320,192,45603,1,0,0:0:0:0:
64,192,45765,1,8,0:0:0:0:
192,192,45765,1,0,0:0:0:0:
448,192,45927,128,0,46252:0:0:0:0:
64,192,46252,1,2,0:0:0:0:
192,192,46414,1,8,0:0:0:0:
320,192,46414,1,0,0:0:0:0:
448,192,46576,1,0,0:0:0:0:
192,192,46738,1,2,0:0:0:0:
192,192,46900,1,0,0:0:0:0:
64,192,47063,1,8,0:0:0:0:
448,192,47063,1,0,0:0:0:0:
320,192,47387,1,0,0:0:0:0:
192,192,47549,1,2,0:0:0:0:
64,192,47711,1,8,0:0:0:0:
448,192,47711,1,0,0:0:0:0:
320,192,47873,1,0,0:0:0:0:
192,192,48035,1,2,0:0:0:0:
448,192,48198,1,0,0:0:0:0:
64,192,48360,1,8,0:0:0:0:
320,192,48360,1,0,0:0:0:0:
192,192,48522,128,0,48846:0:0:0:0:
448,192,48846,1,2,0:0:0:0:
64,192,49008,1,8,0:0:0:0:
320,192,49008,1,0,0:0:0:0:
192,192,49171,1,0,0:0:0:0:
448,192,49333,1,2,0:0:0:0:
320,192,49495,1,2,0:0:0:0:
64,192,49657,1,8,0:0:0:0:
192,192,49657,1,2,0:0:0:0:
448,192,49819,1,2,0:0:0:0:
320,192,49981,1,2,0:0:0:0:
192,192,50144,1,2,0:0:0:0:
64,192,50306,1,8,0:0:0:0:
448,192,50306,1,0,0:0:0:0:
320,192,50630,1,8,0:0:0:0:
64,192,50954,1,0,0:0:0:0:
192,192,51117,1,0,0:0:0:0:
448,192,51279,1,0,0:0:0:0:
320,192,51441,1,0,0:0:0:0:
64,192,51603,1,0,0:0:0:0:
192,192,51765,1,0,0:0:0:0:
320,192,51927,1,4,0:0:0:0:
448,192,51927,1,2,0:0:0:0:
448,192,52090,1,0,0:0:0:0:
64,192,52252,1,8,0:0:0:0:
192,192,52252,1,0,0:0:0:0:
64,192,52576,1,0,0:0:0:0:
448,192,52738,1,2,0:0:0:0:
64,192,52900,1,8,0:0:0:0:
192,192,52900,1,0,0:0:0:0:
320,192,53063,1,0,0:0:0:0:
448,192,53225,1,2,0:0:0:0:
192,192,53387,1,0,0:0:0:0:
320,192,53549,1,8,0:0:0:0:
448,192,53549,1,0,0:0:0:0:
64,192,53711,128,0,54035:0:0:0:0:
448,192,53873,1,0,0:0:0:0:
192,192,54035,1,2,0:0:0:0:
64,192,54198,1,8,0:0:0:0:
320,192,54198,1,0,0:0:0:0:
448,192,54360,1,0,0:0:0:0:
192,192,54522,1,2,0:0:0:0:
192,192,54684,1,0,0:0:0:0:
320,192,54846,1,8,0:0:0:0:
448,192,54846,1,0,0:0:0:0:
64,192,55171,1,0,0:0:0:0:
320,192,55333,1,2,0:0:0:0:
192,192,55495,1,8,0:0:0:0:
448,192,55495,1,0,0:0:0:0:
64,192,55657,1,0,0:0:0:0:
320,192,55819,1,2,0:0:0:0:
448,192,55981,1,0,0:0:0:0:
64,192,56144,1,8,0:0:0:0:
192,192,56144,1,0,0:0:0:0:
320,192,56306,128,0,56630:0:0:0:0:
64,192,56630,1,2,0:0:0:0:
192,192,56792,1,8,0:0:0:0:
448,192,56792,1,0,0:0:0:0:
64,192,57279,1,0,0:0:0:0:
320,192,57441,1,8,0:0:0:0:
448,192,57441,1,0,0:0:0:0:
192,192,57603,1,2,0:0:0:0:
320,192,57765,1,8,0:0:0:0:
448,192,57765,1,0,0:0:0:0:
64,192,57927,1,2,0:0:0:0:
320,192,58090,1,8,0:0:0:0:
448,192,58090,1,0,0:0:0:0:
192,192,58252,1,0,0:0:0:0:
64,192,58414,1,2,0:0:0:0:
448,192,58576,1,0,0:0:0:0:
64,192,58738,1,8,0:0:0:0:
192,192,58738,1,0,0:0:0:0:
448,192,58900,128,0,59225:0:0:0:0:
64,192,59063,1,0,0:0:0:0:
320,192,59225,1,2,0:0:0:0:
192,192,59387,1,8,0:0:0:0:
448,192,59387,1,0,0:0:0:0:
64,192,59549,1,0,0:0:0:0:
320,192,59711,1,2,0:0:0:0:
320,192,59873,1,0,0:0:0:0:
192,192,60035,1,8,0:0:0:0:
448,192,60035,1,0,0:0:0:0:
64,192,60360,1,0,0:0:0:0:
320,192,60522,1,2,0:0:0:0:
192,192,60684,1,8,0:0:0:0:
448,192,60684,1,0,0:0:0:0:
64,192,60846,1,0,0:0:0:0:
320,192,61008,1,2,0:0:0:0:
448,192,61171,1,0,0:0:0:0:
192,192,62306,128,2,62630:0:0:0:0:
320,192,62306,1,4,0:0:0:0:
64,192,62630,1,8,0:0:0:0:
448,192,62630,1,0,0:0:0:0:
320,192,62792,1,0,0:0:0:0:
192,192,63117,1,2,0:0:0:0:
320,192,63279,1,8,0:0:0:0:
448,192,63279,1,0,0:0:0:0:
64,192,63603,1,2,0:0:0:0:
64,192,63765,1,0,0:0:0:0:
320,192,63927,1,8,0:0:0:0:
448,192,63927,1,0,0:0:0:0:
64,192,64090,1,0,0:0:0:0:
64,192,64252,1,0,0:0:0:0:
320,192,64414,1,2,0:0:0:0:
192,192,64576,1,8,0:0:0:0:
448,192,64576,1,0,0:0:0:0:
64,192,64900,1,2,0:0:0:0:
320,192,64900,128,0,65225:0:0:0:0:
192,192,65225,1,8,0:0:0:0:
448,192,65225,1,0,0:0:0:0:
64,192,65387,1,0,0:0:0:0:
448,192,65711,1,2,0:0:0:0:
192,192,65873,1,8,0:0:0:0:
320,192,65873,1,0,0:0:0:0:
64,192,66198,1,2,0:0:0:0:
64,192,66360,1,0,0:0:0:0:
320,192,66522,1,8,0:0:0:0:
448,192,66522,1,0,0:0:0:0:
64,192,66684,1,0,0:0:0:0:
64,192,66846,1,0,0:0:0:0:
192,192,67008,1,2,0:0:0:0:
448,192,67171,128,0,67495:0:0:0:0:
64,192,67495,1,2,0:0:0:0:
320,192,67657,1,2,0:0:0:0:
192,192,67819,1,8,0:0:0:0:
448,192,67819,1,0,0:0:0:0:
64,192,67981,1,2,0:0:0:0:
320,192,68144,1,2,0:0:0:0:
448,192,68306,1,2,0:0:0:0:
64,192,68468,1,8,0:0:0:0:
192,192,68468,1,0,0:0:0:0:
448,192,68792,1,2,0:0:0:0:
448,192,68954,1,0,0:0:0:0:
64,192,69117,1,8,0:0:0:0:
192,192,69117,1,0,0:0:0:0:
448,192,69279,1,0,0:0:0:0:
448,192,69441,1,0,0:0:0:0:
192,192,69603,1,2,0:0:0:0:
64,192,69765,1,8,0:0:0:0:
320,192,69765,1,0,0:0:0:0:
192,192,70090,1,2,0:0:0:0:
448,192,70090,1,0,0:0:0:0:
192,192,70252,1,0,0:0:0:0:
64,192,70414,1,8,0:0:0:0:
320,192,70414,1,0,0:0:0:0:
448,192,70576,1,0,0:0:0:0:
192,192,70738,1,0,0:0:0:0:
64,192,70900,1,2,0:0:0:0:
320,192,71063,1,8,0:0:0:0:
448,192,71063,1,0,0:0:0:0:
192,192,71225,1,0,0:0:0:0:
64,192,71387,1,2,0:0:0:0:
448,192,71549,1,2,0:0:0:0:
64,192,71711,1,2,0:0:0:0:
448,192,71873,1,2,0:0:0:0:
192,192,72035,1,2,0:0:0:0:
320,192,72198,1,2,0:0:0:0:
64,192,72360,1,2,0:0:0:0:
448,192,72522,1,2,0:0:0:0:
192,192,72684,1,4,0:0:0:0:
320,192,72684,1,2,0:0:0:0:
64,192,75279,1,2,0:0:0:0:
192,192,75279,1,4,0:0:0:0:
320,192,75603,1,8,0:0:0:0:
448,192,75603,1,0,0:0:0:0:
64,192,76090,1,2,0:0:0:0:
320,192,76252,1,8,0:0:0:0:
448,192,76252,1,0,0:0:0:0:
192,192,76414,1,0,0:0:0:0:
448,192,76576,1,2,0:0:0:0:
64,192,76738,1,0,0:0:0:0:
192,192,76900,1,8,0:0:0:0:
320,192,76900,1,0,0:0:0:0:
448,192,77063,1,0,0:0:0:0:
64,192,77225,1,0,0:0:0:0:
320,192,77387,1,2,0:0:0:0:
192,192,77549,1,8,0:0:0:0:
448,192,77549,1,0,0:0:0:0:
64,192,77873,1,2,0:0:0:0:
192,192,78035,1,0,0:0:0:0:
320,192,78198,1,8,0:0:0:0:
448,192,78198,1,0,0:0:0:0:
192,192,78360,1,0,0:0:0:0:
64,192,78522,1,0,0:0:0:0:
320,192,78684,1,2,0:0:0:0:
192,192,78846,1,8,0:0:0:0:
448,192,78846,1,0,0:0:0:0:
64,192,79008,1,0,0:0:0:0:
320,192,79171,1,2,0:0:0:0:
192,192,79333,1,0,0:0:0:0:
64,192,79495,1,8,0:0:0:0:
448,192,79495,1,0,0:0:0:0:
320,192,79657,1,0,0:0:0:0:
192,192,79819,1,0,0:0:0:0:
320,192,79981,1,2,0:0:0:0:
64,192,80144,128,0,80468:0:0:0:0:
192,192,80468,1,2,0:0:0:0:
448,192,80630,1,0,0:0:0:0:
64,192,80792,1,8,0:0:0:0:
320,192,80792,1,0,0:0:0:0:
192,192,80954,1,0,0:0:0:0:
448,192,81117,1,0,0:0:0:0:
320,192,81279,1,2,0:0:0:0:
64,192,81441,1,8,0:0:0:0:
192,192,81441,1,0,0:0:0:0:
448,192,81765,1,2,0:0:0:0:
320,192,81927,1,0,0:0:0:0:
64,192,82090,1,8,0:0:0:0:
192,192,82090,1,0,0:0:0:0:
448,192,82252,1,0,0:0:0:0:
320,192,82414,1,0,0:0:0:0:
64,192,82576,1,2,0:0:0:0:
192,192,82738,1,8,0:0:0:0:
448,192,82738,1,0,0:0:0:0:
320,192,83063,1,2,0:0:0:0:
64,192,83225,1,0,0:0:0:0:
192,192,83387,1,8,0:0:0:0:
448,192,83387,1,0,0:0:0:0:
320,192,83549,1,0,0:0:0:0:
64,192,83711,1,0,0:0:0:0:
448,192,83873,1,2,0:0:0:0:
192,192,84035,1,8,0:0:0:0:
320,192,84035,1,0,0:0:0:0:
64,192,84198,1,0,0:0:0:0:
448,192,84360,1,2,0:0:0:0:
192,192,84522,1,0,0:0:0:0:
64,192,84684,1,8,0:0:0:0:
320,192,84684,1,0,0:0:0:0:
448,192,84846,1,0,0:0:0:0:
192,192,85008,128,0,85171:0:0:0:0:
320,192,85171,1,2,0:0:0:0:
64,192,85333,1,8,0:0:0:0:
448,192,85333,1,0,0:0:0:0:
192,192,85495,128,0,85657:0:0:0:0:
320,192,85657,1,2,0:0:0:0:
448,192,85819,1,0,0:0:0:0:
64,192,85981,128,8,86468:0:0:0:0:
192,192,85981,1,0,0:0:0:0:
448,192,86468,1,2,0:0:0:0:
192,192,86630,1,8,0:0:0:0:
320,192,86630,1,0,0:0:0:0:
64,192,86792,1,0,0:0:0:0:
448,192,86954,1,2,0:0:0:0:
192,192,87117,1,0,0:0:0:0:
64,192,87279,1,8,0:0:0:0:
320,192,87279,1,0,0:0:0:0:
448,192,87441,1,0,0:0:0:0:
192,192,87603,1,0,0:0:0:0:
320,192,87765,1,2,0:0:0:0:
64,192,87927,1,8,0:0:0:0:
448,192,87927,1,0,0:0:0:0:
192,192,88090,1,0,0:0:0:0:
320,192,88252,1,2,0:0:0:0:
64,192,88414,1,0,0:0:0:0:
320,192,88576,1,8,0:0:0:0:
448,192,88576,128,0,89063:0:0:0:0:
192,192,89063,1,2,0:0:0:0:
64,192,89225,1,8,0:0:0:0:
320,192,89225,1,0,0:0:0:0:
448,192,89387,1,0,0:0:0:0:
192,192,89549,1,2,0:0:0:0:
320,192,89711,1,0,0:0:0:0:
64,192,89873,1,8,0:0:0:0:
448,192,89873,1,0,0:0:0:0:
192,192,90035,1,2,0:0:0:0:
320,192,90198,1,0,0:0:0:0:
64,192,90360,1,2,0:0:0:0:
448,192,90522,128,0,90846:0:0:0:0:
320,192,90846,1,2,0:0:0:0:
192,192,91008,1,0,0:0:0:0:
64,192,91171,1,8,0:0:0:0:
448,192,91171,1,0,0:0:0:0:
320,192,91333,1,0,0:0:0:0:
192,192,91495,1,0,0:0:0:0:
448,192,91657,1,2,0:0:0:0:
64,192,91819,1,8,0:0:0:0:
320,192,91819,1,0,0:0:0:0:
192,192,91981,1,0,0:0:0:0:
448,192,92144,1,2,0:0:0:0:
64,192,92468,1,8,0:0:0:0:
192,192,92468,1,0,0:0:0:0:
320,192,92630,1,0,0:0:0:0:
448,192,92792,1,0,0:0:0:0:
64,192,92954,1,2,0:0:0:0:
192,192,93117,1,8,0:0:0:0:
320,192,93117,1,0,0:0:0:0:
448,192,93279,1,0,0:0:0:0:
64,192,93441,1,2,0:0:0:0:
320,192,93765,1,8,0:0:0:0:
448,192,93765,1,0,0:0:0:0:
192,192,93927,1,0,0:0:0:0:
64,192,94090,1,0,0:0:0:0:
448,192,94252,1,2,0:0:0:0:
192,192,94414,1,8,0:0:0:0:
320,192,94414,1,0,0:0:0:0:
64,192,94576,1,0,0:0:0:0:
448,192,94738,1,2,0:0:0:0:
192,192,94900,1,0,0:0:0:0:
64,192,95063,1,8,0:0:0:0:
320,192,95063,1,0,0:0:0:0:
448,192,95225,1,0,0:0:0:0:
192,192,95387,1,0,0:0:0:0:
320,192,95549,1,2,0:0:0:0:
64,192,95711,1,8,0:0:0:0:
192,192,95711,1,0,0:0:0:0:
320,192,96035,1,4,0:0:0:0:
448,192,96035,1,2,0:0:0:0:
64,192,96360,1,8,0:0:0:0:
448,192,96360,1,0,0:0:0:0:
192,192,96846,1,2,0:0:0:0:
320,192,97008,1,8,0:0:0:0:
448,192,97008,1,0,0:0:0:0:
192,192,97333,1,2,0:0:0:0:
64,192,97657,1,8,0:0:0:0:
448,192,97657,1,0,0:0:0:0:
320,192,97981,1,0,0:0:0:70:LR_Clap hollow echo.wav
192,192,98144,1,2,0:0:0:0:
64,192,98306,1,8,0:0:0:0:
448,192,98306,1,0,0:0:0:0:
320,192,98630,1,2,0:0:0:0:
192,192,98954,1,8,0:0:0:0:
448,192,98954,1,0,0:0:0:0:
64,192,99441,1,2,0:0:0:0:
320,192,99603,1,8,0:0:0:0:
448,192,99603,1,0,0:0:0:0:
192,192,99927,1,2,0:0:0:0:
64,192,100252,1,8,0:0:0:0:
448,192,100252,1,0,0:0:0:0:
192,192,100576,1,0,0:0:0:70:LR_Clap hollow echo.wav
448,192,100738,1,2,0:0:0:0:
64,192,100900,1,8,0:0:0:0:
320,192,100900,1,0,0:0:0:0:
192,192,101225,1,2,0:0:0:0:
448,192,101225,1,0,0:0:0:0:
320,192,101549,1,8,0:0:0:0:
448,192,101549,1,0,0:0:0:0:
64,192,102035,1,2,0:0:0:0:
192,192,102198,1,8,0:0:0:0:
320,192,102198,1,0,0:0:0:0:
448,192,102522,1,2,0:0:0:0:
64,192,102846,1,8,0:0:0:0:
320,192,102846,1,0,0:0:0:0:
192,192,103171,1,0,0:0:0:70:LR_Clap hollow echo.wav
448,192,103333,1,2,0:0:0:0:
64,192,103495,1,8,0:0:0:0:
320,192,103495,1,0,0:0:0:0:
448,192,103819,1,2,0:0:0:0:
192,192,103981,1,2,0:0:0:0:
320,192,104144,1,8,0:0:0:0:
448,192,104144,1,2,0:0:0:0:
64,192,104306,1,2,0:0:0:0:
320,192,104468,1,2,0:0:0:0:
192,192,104630,1,2,0:0:0:0:
64,192,104792,1,8,0:0:0:0:
448,192,104792,1,0,0:0:0:0:
192,192,105441,1,0,0:0:0:0:
448,192,105603,1,0,0:0:0:0:
64,192,105765,1,0,0:0:0:0:
320,192,105927,1,0,0:0:0:0:
192,192,106090,1,0,0:0:0:0:
448,192,106252,1,0,0:0:0:0:
192,192,106414,1,4,0:0:0:0:
320,192,106414,1,2,0:0:0:0:
64,192,106576,1,0,0:0:0:0:
320,192,106738,1,8,0:0:0:0:
448,192,106738,1,0,0:0:0:0:
192,192,106900,1,0,0:0:0:0:
448,192,107063,1,0,0:0:0:0:
64,192,107225,1,2,0:0:0:0:
192,192,107387,1,8,0:0:0:0:
448,192,107387,1,0,0:0:0:0:
320,192,107549,1,0,0:0:0:0:
64,192,107711,1,2,0:0:0:0:
192,192,107873,1,0,0:0:0:0:
64,192,108035,1,8,0:0:0:0:
448,192,108035,1,0,0:0:0:0:
320,192,108198,1,0,0:0:0:0:
64,192,108360,1,0,0:0:0:0:
448,192,108522,1,2,0:0:0:0:
192,192,108684,1,8,0:0:0:0:
320,192,108684,1,0,0:0:0:0:
64,192,108846,1,0,0:0:0:0:
320,192,109008,1,2,0:0:0:0:
448,192,109008,128,0,109333:0:0:0:0:
64,192,109333,1,8,0:0:0:0:
192,192,109333,1,0,0:0:0:0:
320,192,109495,1,0,0:0:0:0:
192,192,109657,1,0,0:0:0:0:
448,192,109819,1,2,0:0:0:0:
64,192,109981,1,8,0:0:0:0:
320,192,109981,1,0,0:0:0:0:
192,192,110144,1,0,0:0:0:0:
448,192,110306,128,2,110630:0:0:0:0:
64,192,110630,1,8,0:0:0:0:
320,192,110630,1,0,0:0:0:0:
192,192,110792,1,0,0:0:0:0:
448,192,110954,1,0,0:0:0:0:
320,192,111117,1,2,0:0:0:0:
64,192,111279,1,8,0:0:0:0:
192,192,111279,1,0,0:0:0:0:
448,192,111441,1,0,0:0:0:0:
192,192,111603,1,2,0:0:0:0:
320,192,111765,1,0,0:0:0:0:
64,192,111927,1,8,0:0:0:0:
448,192,111927,1,0,0:0:0:0:
192,192,112090,1,2,0:0:0:0:
64,192,112252,1,0,0:0:0:0:
448,192,112414,1,2,0:0:0:0:
64,192,112576,1,8,0:0:0:0:
320,192,112576,1,0,0:0:0:0:
192,192,112738,1,0,0:0:0:0:
448,192,112900,1,2,0:0:0:0:
64,192,113063,1,0,0:0:0:0:
320,192,113225,1,8,0:0:0:0:
448,192,113225,1,0,0:0:0:0:
192,192,113387,1,0,0:0:0:0:
448,192,113549,1,0,0:0:0:0:
64,192,113711,1,2,0:0:0:0:
192,192,113873,1,8,0:0:0:0:
320,192,113873,1,0,0:0:0:0:
448,192,114035,1,0,0:0:0:0:
64,192,114198,128,2,114522:0:0:0:0:
192,192,114522,1,8,0:0:0:0:
320,192,114522,1,0,0:0:0:0:
448,192,114684,1,0,0:0:0:0:
64,192,114846,1,0,0:0:0:0:
320,192,115008,1,2,0:0:0:0:
192,192,115171,1,8,0:0:0:0:
448,192,115171,1,0,0:0:0:0:
64,192,115333,1,0,0:0:0:0:
448,192,115495,128,2,115819:0:0:0:0:
192,192,115819,1,2,0:0:0:0:
320,192,115981,1,0,0:0:0:0:
64,192,116144,1,8,0:0:0:0:
192,192,116144,1,0,0:0:0:0:
320,192,116306,1,0,0:0:0:0:
192,192,116468,1,0,0:0:0:0:
320,192,116630,1,0,0:0:0:0:
64,192,116792,1,2,0:0:0:0:
448,192,116792,128,4,117117:0:0:0:0:
192,192,117117,1,8,0:0:0:0:
320,192,117117,1,0,0:0:0:0:
64,192,117279,1,0,0:0:0:0:
448,192,117441,1,0,0:0:0:0:
320,192,117603,1,2,0:0:0:0:
64,192,117765,1,8,0:0:0:0:
192,192,117765,1,0,0:0:0:0:
448,192,117927,1,0,0:0:0:0:
64,192,118090,128,2,118252:0:0:0:0:
448,192,118252,128,0,118414:0:0:0:0:
192,192,118414,1,8,0:0:0:0:
320,192,118414,1,0,0:0:0:0:
64,192,118576,128,0,118738:0:0:0:0:
448,192,118738,128,0,118900:0:0:0:0:
320,192,118900,1,2,0:0:0:0:
64,192,119063,1,8,0:0:0:0:
192,192,119063,1,0,0:0:0:0:
448,192,119225,1,0,0:0:0:0:
320,192,119387,128,2,119711:0:0:0:0:
64,192,119711,1,8,0:0:0:0:
192,192,119711,1,0,0:0:0:0:
448,192,119873,1,0,0:0:0:0:
192,192,120035,1,0,0:0:0:0:
320,192,120198,1,2,0:0:0:0:
64,192,120360,1,8,0:0:0:0:
192,192,120360,1,0,0:0:0:0:
448,192,120522,1,0,0:0:0:0:
64,192,120684,128,2,120846:0:0:0:0:
320,192,120846,128,0,121008:0:0:0:0:
192,192,121008,1,8,0:0:0:0:
448,192,121008,1,0,0:0:0:0:
64,192,121171,128,0,121333:0:0:0:0:
320,192,121333,128,2,121495:0:0:0:0:
192,192,121495,1,2,0:0:0:0:
64,192,121657,1,8,0:0:0:0:
448,192,121657,1,0,0:0:0:0:
320,192,122144,1,0,0:0:0:0:
64,192,122306,1,8,0:0:0:0:
192,192,122306,1,0,0:0:0:0:
448,192,122468,1,2,0:0:0:0:
320,192,122630,1,0,0:0:0:0:
64,192,122792,1,2,0:0:0:0:
320,192,122954,1,8,0:0:0:0:
448,192,122954,1,0,0:0:0:0:
192,192,123117,1,0,0:0:0:0:
448,192,123279,128,2,123441:0:0:0:0:
64,192,123441,128,0,123603:0:0:0:0:
192,192,123603,1,8,0:0:0:0:
320,192,123603,1,0,0:0:0:0:
448,192,123765,128,0,123927:0:0:0:0:
64,192,123927,128,0,124090:0:0:0:0:
320,192,124090,1,2,0:0:0:0:
192,192,124252,1,8,0:0:0:0:
448,192,124252,1,0,0:0:0:0:
64,192,124414,1,0,0:0:0:0:
320,192,124576,1,2,0:0:0:0:
448,192,124738,1,0,0:0:0:0:
64,192,124900,1,8,0:0:0:0:
192,192,124900,1,0,0:0:0:0:
320,192,125063,1,0,0:0:0:0:
448,192,125225,1,0,0:0:0:0:
64,192,125387,1,2,0:0:0:0:
192,192,125549,1,8,0:0:0:0:
320,192,125549,1,0,0:0:0:0:
448,192,125711,1,0,0:0:0:0:
192,192,125873,1,2,0:0:0:0:
64,192,126035,1,0,0:0:0:0:
320,192,126198,1,8,0:0:0:0:
448,192,126198,1,0,0:0:0:0:
192,192,126360,1,0,0:0:0:0:
320,192,126522,1,0,0:0:0:0:
64,192,126684,1,2,0:0:0:0:
192,192,126846,1,8,0:0:0:0:
448,192,126846,1,0,0:0:0:0:
320,192,127008,1,0,0:0:0:0:
64,192,127171,1,4,0:0:0:0:
448,192,127171,1,2,0:0:0:0:
192,192,128468,1,0,0:0:0:0:
192,192,129765,1,0,0:0:0:0:
64,192,131063,1,0,0:0:0:0:
448,192,131225,1,0,0:0:0:0:
192,192,132360,1,0,0:0:0:0:
320,192,133657,1,0,0:0:0:0:
64,192,133819,1,0,0:0:0:0:
448,192,134306,1,0,0:0:0:0:
192,192,134468,1,0,0:0:0:0:
448,192,134630,1,0,0:0:0:0:
192,192,134792,1,0,0:0:0:0:
64,192,135603,1,0,0:0:0:0:
320,192,135765,1,0,0:0:0:0:
64,192,135927,1,0,0:0:0:0:
320,192,136090,1,0,0:0:0:0:
448,192,136900,1,0,0:0:0:0:
192,192,137063,1,0,0:0:0:0:
448,192,137225,1,0,0:0:0:0:
192,192,137387,1,0,0:0:0:0:
64,192,137549,1,8,0:0:0:0:
320,192,137549,1,0,0:0:0:0:
320,192,137711,1,0,0:0:0:0:
192,192,137873,1,0,0:0:0:0:
64,192,138035,1,8,0:0:0:0:
448,192,138035,1,0,0:0:0:0:
320,192,138198,1,0,0:0:0:0:
64,192,138522,1,8,0:0:0:0:
192,192,138522,1,0,0:0:0:0:
448,192,138684,1,0,0:0:0:0:
192,192,138846,1,8,0:0:0:0:
320,192,138846,1,0,0:0:0:0:
64,192,139008,1,0,0:0:0:0:
320,192,139333,1,8,0:0:0:0:
448,192,139333,128,0,139657:0:0:0:0:
192,192,139657,1,0,0:0:0:0:
64,192,139819,1,8,0:0:0:0:
320,192,139819,1,0,0:0:0:0:
448,192,139981,1,0,0:0:0:0:
64,192,140144,1,8,0:0:0:0:
192,192,140144,1,0,0:0:0:0:
192,192,140306,1,0,0:0:0:0:
448,192,140468,1,0,0:0:0:0:
64,192,140630,1,8,0:0:0:0:
320,192,140630,1,0,0:0:0:0:
192,192,140792,1,0,0:0:0:0:
320,192,141117,1,8,0:0:0:0:
448,192,141117,1,0,0:0:0:0:
64,192,141279,1,0,0:0:0:0:
192,192,141441,1,8,0:0:0:0:
448,192,141441,1,0,0:0:0:0:
320,192,141603,1,0,0:0:0:0:
64,192,141927,128,8,142252:0:0:0:0:
448,192,141927,1,0,0:0:0:0:
192,192,142252,1,0,0:0:0:0:
320,192,142414,1,8,0:0:0:0:
448,192,142414,1,0,0:0:0:0:
64,192,142576,1,8,0:0:0:0:
192,192,142576,1,0,0:0:0:0:
320,192,142738,1,8,0:0:0:0:
448,192,142738,1,0,0:0:0:0:
320,192,142900,1,0,0:0:0:0:
64,192,143063,1,8,0:0:0:0:
192,192,143063,1,0,0:0:0:0:
64,192,143387,1,8,0:0:0:0:
448,192,143387,1,0,0:0:0:0:
192,192,143711,1,8,0:0:0:0:
320,192,143711,1,0,0:0:0:0:
448,192,143873,1,0,0:0:0:0:
64,192,144035,1,8,0:0:0:0:
192,192,144035,1,0,0:0:0:0:
320,192,144198,1,0,0:0:0:0:
64,192,144360,1,8,0:0:0:0:
448,192,144360,1,0,0:0:0:0:
192,192,144522,128,0,144846:0:0:0:0:
320,192,144684,1,8,0:0:0:0:
64,192,144846,1,0,0:0:0:0:
320,192,145008,1,8,0:0:0:0:
448,192,145008,1,0,0:0:0:0:
192,192,145171,1,0,0:0:0:0:
64,192,145333,1,8,0:0:0:0:
448,192,145333,1,0,0:0:0:0:
320,192,145495,1,8,0:0:0:0:
192,192,145657,1,8,0:0:0:0:
64,192,145819,1,8,0:0:0:0:
320,192,145981,1,8,0:0:0:0:
448,192,145981,1,0,0:0:0:0:
192,192,146144,1,8,0:0:0:0:
448,192,146306,1,8,0:0:0:0:
320,192,146468,1,8,0:0:0:0:
64,192,146630,1,8,0:0:0:0:
192,192,146630,1,0,0:0:0:0:
320,192,146792,1,8,0:0:0:0:
448,192,146954,1,8,0:0:0:0:
64,192,147117,1,8,0:0:0:0:
192,192,147279,1,8,0:0:0:0:
320,192,147279,1,0,0:0:0:0:
448,192,147441,1,8,0:0:0:0:
64,192,147603,1,8,0:0:0:0:
192,192,147765,1,8,0:0:0:0:
320,192,147765,1,0,0:0:0:0:
448,192,148252,128,0,148576:0:0:0:0:
64,192,148576,128,4,148900:0:0:0:0:
320,192,148900,128,4,149225:0:0:0:0:
192,192,149225,1,0,0:0:0:70:bell.wav
64,192,149549,1,0,0:0:0:0:
448,192,149711,1,0,0:0:0:0:
192,192,149873,1,0,0:0:0:0:
320,192,150035,1,0,0:0:0:0:
64,192,150198,1,0,0:0:0:0:
448,192,150360,1,0,0:0:0:0:
64,192,150522,1,4,0:0:0:0:
192,192,150522,1,2,0:0:0:0:
320,192,150684,1,0,0:0:0:0:
192,192,150846,1,8,0:0:0:0:
448,192,150846,1,0,0:0:0:0:
448,192,151171,1,0,0:0:0:0:
64,192,151333,1,2,0:0:0:0:
320,192,151495,1,8,0:0:0:0:
448,192,151495,1,0,0:0:0:0:
192,192,151657,1,0,0:0:0:0:
64,192,151819,1,2,0:0:0:0:
320,192,151981,1,0,0:0:0:0:
64,192,152144,1,8,0:0:0:0:
192,192,152144,1,0,0:0:0:0:
448,192,152306,128,0,152630:0:0:0:0:
64,192,152468,1,0,0:0:0:0:
320,192,152630,1,2,0:0:0:0:
192,192,152792,1,8,0:0:0:0:
448,192,152792,1,0,0:0:0:0:
64,192,152954,1,0,0:0:0:0:
320,192,153117,1,2,0:0:0:0:
320,192,153279,1,0,0:0:0:0:
64,192,153441,1,8,0:0:0:0:
192,192,153441,1,0,0:0:0:0:
448,192,153603,1,0,0:0:0:0:
320,192,153765,1,0,0:0:0:0:
192,192,153927,1,2,0:0:0:0:
64,192,154090,1,8,0:0:0:0:
320,192,154090,1,0,0:0:0:0:
448,192,154252,1,0,0:0:0:0:
192,192,154414,1,2,0:0:0:0:
64,192,154576,1,0,0:0:0:0:
320,192,154738,1,8,0:0:0:0:
448,192,154738,1,0,0:0:0:0:
192,192,154900,128,0,155225:0:0:0:0:
320,192,155225,1,2,0:0:0:0:
64,192,155387,1,8,0:0:0:0:
448,192,155387,1,0,0:0:0:0:
192,192,155873,1,0,0:0:0:0:
64,192,156035,1,8,0:0:0:0:
448,192,156035,1,0,0:0:0:0:
320,192,156198,1,2,0:0:0:0:
64,192,156360,1,0,0:0:0:0:
448,192,156522,1,2,0:0:0:0:
64,192,156684,1,8,0:0:0:0:
192,192,156684,1,0,0:0:0:0:
320,192,156846,1,0,0:0:0:0:
448,192,157008,1,2,0:0:0:0:
64,192,157171,1,0,0:0:0:0:
320,192,157333,1,8,0:0:0:0:
448,192,157333,1,0,0:0:0:0:
64,192,157495,128,0,157819:0:0:0:0:
448,192,157657,1,0,0:0:0:0:
192,192,157819,1,2,0:0:0:0:
64,192,157981,1,8,0:0:0:0:
320,192,157981,1,0,0:0:0:0:
448,192,158144,1,0,0:0:0:0:
192,192,158306,1,2,0:0:0:0:
192,192,158468,1,0,0:0:0:0:
64,192,158630,1,8,0:0:0:0:
320,192,158630,1,0,0:0:0:0:
448,192,158792,1,0,0:0:0:0:
192,192,158954,1,0,0:0:0:0:
320,192,159117,1,2,0:0:0:0:
64,192,159279,1,8,0:0:0:0:
448,192,159279,1,0,0:0:0:0:
192,192,159441,1,0,0:0:0:0:
320,192,159603,1,2,0:0:0:0:
64,192,159765,1,0,0:0:0:0:
192,192,160900,1,2,0:0:0:0:
320,192,160900,128,4,161225:0:0:0:0:
64,192,161225,1,8,0:0:0:0:
448,192,161225,1,0,0:0:0:0:
192,192,161387,1,0,0:0:0:0:
448,192,161549,1,0,0:0:0:0:
320,192,161711,1,2,0:0:0:0:
64,192,161873,1,8,0:0:0:0:
192,192,161873,1,0,0:0:0:0:
320,192,162035,1,0,0:0:0:0:
448,192,162198,1,2,0:0:0:0:
448,192,162360,1,0,0:0:0:0:
64,192,162522,1,8,0:0:0:0:
192,192,162522,1,0,0:0:0:0:
448,192,162684,1,0,0:0:0:0:
448,192,162846,1,0,0:0:0:0:
192,192,163008,1,2,0:0:0:0:
64,192,163171,1,8,0:0:0:0:
320,192,163171,1,0,0:0:0:0:
448,192,163333,1,0,0:0:0:0:
64,192,163495,1,2,0:0:0:0:
192,192,163495,128,0,163819:0:0:0:0:
320,192,163819,1,8,0:0:0:0:
448,192,163819,1,0,0:0:0:0:
192,192,163981,1,0,0:0:0:0:
64,192,164144,1,0,0:0:0:0:
448,192,164306,1,2,0:0:0:0:
192,192,164468,1,8,0:0:0:0:
320,192,164468,1,0,0:0:0:0:
64,192,164630,1,0,0:0:0:0:
448,192,164792,1,2,0:0:0:0:
448,192,164954,1,0,0:0:0:0:
64,192,165117,1,8,0:0:0:0:
192,192,165117,1,0,0:0:0:0:
448,192,165279,1,0,0:0:0:0:
448,192,165441,1,0,0:0:0:0:
64,192,165603,1,2,0:0:0:0:
192,192,165765,1,0,0:0:0:0:
320,192,165765,1,8,0:0:0:0:
192,192,166252,1,0,0:0:0:0:
64,192,166414,1,8,0:0:0:0:
448,192,166414,1,0,0:0:0:0:
320,192,166576,1,2,0:0:0:0:
192,192,166738,1,0,0:0:0:0:
64,192,166900,1,2,0:0:0:0:
320,192,167063,1,8,0:0:0:0:
448,192,167063,1,0,0:0:0:0:
192,192,167225,1,0,0:0:0:0:
64,192,167387,1,2,0:0:0:0:
64,192,167549,1,0,0:0:0:0:
320,192,167711,1,8,0:0:0:0:
448,192,167711,1,0,0:0:0:0:
64,192,167873,1,0,0:0:0:0:
64,192,168035,1,0,0:0:0:0:
192,192,168198,1,2,0:0:0:0:
320,192,168360,1,8,0:0:0:0:
448,192,168360,1,0,0:0:0:0:
192,192,168522,1,0,0:0:0:0:
64,192,168684,1,2,0:0:0:0:
448,192,168684,1,0,0:0:0:0:
448,192,168846,1,0,0:0:0:0:
192,192,169008,1,8,0:0:0:0:
320,192,169008,1,0,0:0:0:0:
64,192,169171,1,0,0:0:0:0:
448,192,169333,1,0,0:0:0:0:
192,192,169495,1,2,0:0:0:0:
64,192,169657,1,8,0:0:0:0:
320,192,169657,1,0,0:0:0:0:
448,192,169819,1,0,0:0:0:0:
192,192,169981,1,0,0:0:0:0:
64,192,170144,1,0,0:0:0:0:
320,192,170306,1,8,0:0:0:0:
448,192,170306,1,0,0:0:0:0:
64,192,170468,1,0,0:0:0:0:
320,192,170630,1,0,0:0:0:0:
192,192,170792,1,2,0:0:0:0:
64,192,170954,1,8,0:0:0:0:
448,192,170954,1,0,0:0:0:0:
320,192,171117,1,0,0:0:0:0:
192,192,171279,1,0,0:0:0:0:
