osu file format v13

[General]
AudioFilename: Dixie Flatline feat. Mew-Stella.mp3
AudioLeadIn: 0
PreviewTime: 46711
Countdown: 0
SampleSet: Soft
StackLeniency: 0.7
Mode: 0
LetterboxInBreaks: 1
WidescreenStoryboard: 1

[Editor]
Bookmarks: 3607,25331,43952,47400,91883,134297,157056,179814,200159,202228,221194,247745,279125
DistanceSpacing: 1
BeatDivisor: 4
GridSize: 4
TimelineZoom: 1

[Metadata]
Title:Stella
TitleUnicode:ステラ
Artist:Dixie Flatline ft. Mew
ArtistUnicode:Dixie Flatline ft. Mew
Creator:Indeed
Version:Normal
Source:
Tags:vocaloid
BeatmapID:464093
BeatmapSetID:195607

[Difficulty]
HPDrainRate:4
CircleSize:3
OverallDifficulty:3
ApproachRate:4
SliderMultiplier:1
SliderTickRate:1

[Events]
//Background and Video events
0,0,"stella bg.jpg",0,0
//Break Periods
2,91738,112287
2,180014,198839
//Storyboard Layer 0 (Background)
//Storyboard Layer 1 (Fail)
//Storyboard Layer 2 (Pass)
//Storyboard Layer 3 (Foreground)
//Storyboard Sound Samples
//Background Colour Transformations
3,100,163,162,255

[TimingPoints]
3263,344.827586206897,4,2,0,45,1,0
3607,-100,4,2,0,45,0,0
25331,-100,4,2,0,50,0,0
47400,-100,4,2,0,75,0,1
69469,-100,4,2,0,60,0,0
91538,-100,4,2,0,45,0,0
135676,-100,4,2,0,75,0,1
157745,-100,4,2,0,60,0,0
202573,-125,4,2,0,60,0,0
212918,-100,4,2,0,60,0,0
223952,-100,4,2,0,75,0,1
246021,-100,4,2,0,65,0,0

[HitObjects]
104,116,3262,5,0,0:0:0:0:
112,220,3607,2,0,P|192:168|196:148,1,100
200,72,4297,2,0,P|252:88|284:128,1,100
312,220,4987,1,0,0:0:0:0:
288,316,5331,2,0,P|340:320|384:280,1,100
424,204,6021,6,0,B|468:140|384:116|436:48,2,150,0|0|0,0:0|0:0|0:0,0:0:0:0:
252,304,7745,2,0,P|160:296|148:284,1,100
76,240,8435,1,0,0:0:0:0:
76,240,8780,1,0,0:0:0:0:
108,144,9125,5,0,0:0:0:0:
104,44,9469,2,0,P|180:64|196:84,1,100
292,60,10159,2,0,P|294:113|251:160,1,100
196,220,10849,1,0,0:0:0:0:
216,316,11194,2,0,L|264:336,1,50
312,344,11538,6,0,B|352:316|416:336|416:336|444:284,1,150
476,208,12400,2,0,P|500:128|464:56,1,150
376,80,13263,6,0,P|344:128|288:144,1,100
208,168,13952,1,0,0:0:0:0:
208,168,14297,1,0,0:0:0:0:
108,148,14642,5,0,0:0:0:0:
120,48,14987,2,0,P|56:56|28:88,1,100
12,176,15676,2,0,L|76:276,1,100
128,336,16366,2,0,P|160:292|160:244,1,100
160,148,17056,2,0,P|188:76|256:56,2,150,0|0|0,0:0|0:0|0:0,0:0:0:0:
304,288,18780,6,0,P|368:304|412:292,1,100
492,260,19469,1,0,0:0:0:0:
492,260,19814,1,0,0:0:0:0:
452,168,20159,5,0,0:0:0:0:
364,120,20504,2,0,L|272:68,1,100
184,32,21194,2,0,P|176:84|200:132,1,100
252,208,21883,1,0,0:0:0:0:
336,264,22228,2,0,P|252:316|168:264,1,200
64,168,23435,2,0,B|144:120|144:120|168:144|200:144,1,150
384,76,24814,6,0,P|376:132|352:168,1,100
320,208,25331,2,0,P|272:240|224:244,1,100
180,244,25849,2,0,P|140:260|96:304,1,100
64,336,26366,2,0,P|24:276|28:240,1,100
32,208,26883,6,0,P|52:152|80:120,1,100
112,84,27400,2,0,P|164:52|248:72,1,150
269,116,28090,2,0,P|305:164|361:180,1,100
384,204,28607,2,0,P|436:240|448:284,1,100
448,324,29125,1,0,0:0:0:0:
248,300,29814,6,0,P|200:264|144:264,1,100
60,268,30504,1,0,0:0:0:0:
40,172,30849,2,0,P|64:100|136:64,1,150
224,64,31711,1,0,0:0:0:0:
224,64,31883,2,0,P|200:136|128:172,1,150
40,196,32745,2,0,P|76:256|164:264,1,150
248,252,33607,5,0,0:0:0:0:
332,308,33952,1,0,0:0:0:0:
332,308,34125,2,0,P|376:228|272:132,1,250
200,64,35331,6,0,P|172:112|180:164,1,100
192,252,36021,1,0,0:0:0:0:
284,292,36366,2,0,P|344:296|372:312,2,75,0|0|0,0:0|0:0|0:0,0:0:0:0:
292,244,37056,2,0,P|352:248|380:264,2,75,0|0|0,0:0|0:0|0:0,0:0:0:0:
304,196,37745,2,0,P|364:200|392:216,2,75,0|0|0,0:0|0:0|0:0,0:0:0:0:
316,148,38435,2,0,P|376:152|404:168,2,75,0|0|0,0:0|0:0|0:0,0:0:0:0:
288,108,39125,6,0,P|184:84|152:168,1,200
152,204,39987,1,0,0:0:0:0:
160,252,40159,2,0,P|152:312|112:344,1,100
60,260,40849,6,0,P|36:200|48:164,1,100
112,96,41538,1,0,0:0:0:0:
180,24,41883,2,0,P|212:76|204:128,1,100
176,208,42573,2,0,P|232:212|276:188,1,100
324,108,43263,2,0,P|360:144|372:192,1,100
432,268,43952,6,0,P|376:292|336:280,1,100
244,248,44642,1,0,0:0:0:0:
244,248,44987,1,0,0:0:0:0:
152,212,45331,1,0,0:0:0:0:
152,212,45676,2,0,P|112:164|108:120,1,100
440,120,47400,6,0,P|424:176|384:208,1,100
340,116,48090,2,0,P|260:68|172:124,1,200
76,120,49125,2,0,P|92:176|132:208,1,100
212,244,49814,1,0,0:0:0:0:
240,340,50159,6,0,P|292:308|304:256,1,100
308,172,50849,2,0,P|332:120|372:96,1,100
464,80,51538,1,0,0:0:0:0:
468,180,51883,6,0,P|452:240|420:272,1,100
340,320,52573,1,0,0:0:0:0:
244,344,52918,2,0,P|268:248|372:228,1,200
452,196,53952,1,0,0:0:0:0:
452,196,54125,2,0,P|456:124|380:80,1,150
300,60,54987,6,0,P|240:56|204:84,1,100
144,152,55676,1,0,0:0:0:0:
44,164,56021,2,0,P|92:240|200:236,1,200
272,176,57056,2,0,P|324:140|372:144,1,100
432,208,57745,6,0,P|452:256|436:308,1,100
356,356,58435,2,0,P|336:308|352:256,1,100
328,164,59125,2,0,P|312:104|272:72,1,100
240,56,59642,1,0,0:0:0:0:
192,48,59814,2,0,B|120:52|120:52|152:144|76:176,1,200
12,224,60849,1,0,0:0:0:0:
64,312,61194,6,0,P|140:336|176:324,1,100
204,320,61711,1,0,0:0:0:0:
296,284,62056,1,0,0:0:0:0:
344,288,62228,2,0,B|388:280|444:308|444:308|444:248|484:212,1,200
468,120,63263,6,0,P|420:136|388:184,1,100
292,176,63952,2,0,P|261:137|214:121,1,100
160,208,64642,2,0,P|116:152|132:64,1,150
156,40,65331,1,0,0:0:0:0:
156,40,65676,1,0,0:0:0:0:
256,52,66021,6,0,P|288:100|336:124,1,100
368,28,66711,2,0,P|409:54|435:96,1,100
464,192,67400,2,0,B|460:256|392:272|392:272|368:316,1,150
356,348,68090,1,0,0:0:0:0:
356,348,68435,1,0,0:0:0:0:
268,304,68780,6,0,L|176:244,1,100
272,200,69469,2,0,L|180:140,1,100
144,56,70159,2,0,P|104:88|88:144,1,100
20,204,70849,6,0,P|72:232|116:224,1,100
152,316,71538,2,0,P|196:280|212:224,1,100
228,140,72228,1,0,0:0:0:0:
228,140,72573,1,0,0:0:0:0:
272,52,72918,6,0,P|332:52|368:76,1,100
448,128,73607,2,0,P|404:168|364:172,1,100,0|0,0:0|0:0,0:0:0:0:
384,272,74297,2,0,B|284:272|268:180|268:180|256:224|232:208,1,200
188,288,75331,1,0,0:0:0:0:
92,260,75676,6,0,P|124:204|168:188,1,100
160,88,76366,2,0,P|117:62|97:17,1,100
196,4,77056,2,0,P|238:29|258:74,1,100
280,172,77745,2,0,P|328:148|352:104,1,100
424,44,78435,6,0,B|444:64|484:88|484:88|488:128,1,100
484,212,79125,2,0,P|464:260|424:292,1,100
332,324,79814,1,0,0:0:0:0:
332,324,80159,1,0,0:0:0:0:
232,336,80504,6,0,P|263:242|363:227,1,200
432,160,81538,1,0,0:0:0:0:
348,104,81883,2,0,B|308:92|280:64|280:64|208:92|156:76,1,200
72,120,82918,1,0,0:0:0:0:
64,220,83263,6,0,P|132:204|156:176,1,100
236,128,83952,2,0,P|280:168|284:216,1,100
340,292,84642,2,0,P|280:308|240:296,1,100
144,300,85331,6,0,B|140:244|104:212|104:212|60:188|56:128,1,200
96,36,86366,1,0,0:0:0:0:
196,28,86711,2,0,B|204:88|148:128|148:128|192:160|240:152,1,200
324,152,87745,1,0,0:0:0:0:
364,60,88090,6,0,P|424:128|392:224,1,200
324,296,89125,1,0,0:0:0:0:
228,324,89469,2,0,P|228:260|260:220,1,100
334,178,90159,6,0,P|300:143|252:132,1,100
164,80,90849,2,0,P|148:128|168:184,1,100
196,268,91538,1,0,0:0:0:0:
388,72,113607,6,0,P|368:132|372:176,1,100
376,216,114125,2,0,P|376:284|348:316,1,100
312,332,114642,2,0,P|240:340|204:320,1,100
172,308,115159,2,0,P|136:240|108:220,1,100
76,200,115676,2,0,P|40:128|72:60,1,150
96,32,116366,1,0,0:0:0:0:
188,68,116711,5,0,0:0:0:0:
188,68,116883,2,0,P|232:132|304:132,1,150
392,100,117745,1,0,0:0:0:0:
448,184,118090,2,0,P|468:240|448:288,1,100
400,360,118780,1,0,0:0:0:0:
304,328,119125,6,0,P|264:280|260:232,1,100
264,196,119642,2,0,P|268:136|244:88,1,100
212,72,120159,2,0,P|136:68|108:88,1,100
80,112,120676,2,0,P|44:160|40:200,1,100
44,248,121194,2,0,P|76:304|160:328,1,150
204,328,121883,1,0,0:0:0:0:
304,328,122228,6,0,P|288:272|248:244,1,100
208,228,122745,1,0,0:0:0:0:
164,204,122918,2,0,P|127:171|116:123,1,100
216,124,123607,6,0,P|268:108|320:132,1,100
392,176,124297,1,0,0:0:0:0:
392,176,124642,1,0,0:0:0:0:
460,248,124987,2,0,P|408:276|368:272,1,100
280,316,125676,6,0,P|268:256|284:220,1,100
324,128,126366,1,0,0:0:0:0:
300,84,126538,1,0,0:0:0:0:
260,60,126711,2,0,P|208:52|148:72,1,100
72,104,127400,5,0,0:0:0:0:
64,204,127745,1,0,0:0:0:0:
64,204,127918,2,0,P|100:276|168:304,1,150
260,312,128780,1,0,0:0:0:0:
360,312,129125,6,0,P|336:248|296:228,1,100
216,196,129814,1,0,0:0:0:0:
216,196,130159,1,0,0:0:0:0:
152,120,130504,6,0,P|204:96|252:108,1,100
320,40,131194,2,0,P|344:84|332:144,1,100
316,228,131883,1,0,0:0:0:0:
248,300,132228,1,0,0:0:0:0:
152,272,132573,1,0,0:0:0:0:
56,300,132918,6,0,P|56:232|84:196,1,100
20,120,133607,2,0,P|68:104|124:116,1,100
212,84,134297,5,0,0:0:0:0:
288,152,134642,1,0,0:0:0:0:
360,84,134987,5,0,0:0:0:0:
432,152,135331,1,0,0:0:0:0:
444,252,135676,6,0,P|408:304|368:320,1,100
284,356,136366,2,0,B|236:308|248:248|248:248|208:224|224:164,1,200
268,88,137400,2,0,P|224:76|168:92,1,100
80,128,138090,1,0,0:0:0:0:
68,228,138435,6,0,P|104:276|144:284,1,100
164,188,139125,1,0,0:0:0:0:
240,256,139469,2,0,P|268:152|188:92,1,200
112,72,140504,2,0,P|116:136|144:168,1,100
152,264,141194,6,0,P|200:252|228:192,1,100
216,112,141883,2,0,P|276:116|304:144,1,100
348,232,142573,1,0,0:0:0:0:
348,232,142918,1,0,0:0:0:0:
404,316,143263,6,0,P|436:280|448:224,1,100
448,180,143780,1,0,0:0:0:0:
444,132,143952,2,0,P|424:76|396:48,1,100
336,128,144642,1,0,0:0:0:0:
292,40,144987,2,0,P|236:120|296:216,1,200
312,300,146021,6,0,P|256:336|212:332,1,100
188,236,146711,2,0,P|128:224|104:192,1,100,0|0,0:0|0:0,0:0:0:0:
36,120,147400,2,0,P|92:92|132:104,1,100
220,132,148090,1,0,0:0:0:0:
220,132,148435,1,0,0:0:0:0:
276,48,148780,6,0,P|316:88|320:144,1,100
292,224,149469,2,0,P|356:224|384:204,1,100
452,128,150159,1,0,0:0:0:0:
484,164,150331,1,0,0:0:0:0:
492,212,150504,2,0,P|468:280|432:312,1,100
348,300,151194,6,0,P|296:248|292:204,1,100
284,124,151883,1,0,0:0:0:0:
284,124,152228,1,0,0:0:0:0:
212,56,152573,2,0,P|188:88|216:188,1,150
244,228,153263,1,0,0:0:0:0:
304,308,153607,2,0,P|248:328|204:320,1,100
112,340,154297,6,0,P|116:280|148:240,1,100
80,164,154987,2,0,B|88:100|88:100|152:132|180:104,1,150
216,100,155676,1,0,0:0:0:0:
216,100,156021,1,0,0:0:0:0:
296,40,156366,2,0,P|320:92|304:140,1,100
376,204,157056,6,0,L|440:280,1,100
364,344,157745,2,0,B|316:288|316:288|260:276|208:276|212:208,1,200
192,132,158780,1,0,0:0:0:0:
260,60,159125,2,0,P|156:40|96:108,1,200
60,196,160159,1,0,0:0:0:0:
108,284,160504,6,0,L|192:356,1,100
248,272,161194,2,0,L|332:344,1,100
424,340,161883,2,0,P|448:276|436:232,1,100
412,152,162573,5,0,0:0:0:0:
340,84,162918,1,0,0:0:0:0:
240,72,163263,2,0,B|204:124|204:124|124:108|88:168|100:204,1,200
64,280,164297,1,0,0:0:0:0:
140,344,164642,6,0,B|188:288|184:224|184:224|212:236|256:224,1,200
348,204,165676,1,0,0:0:0:0:
364,304,166021,2,0,P|444:240|420:136,1,200
368,76,167056,1,0,0:0:0:0:
272,56,167400,6,0,P|232:92|180:100,1,100
112,36,168090,2,0,P|88:88|104:148,1,100
100,228,168780,1,0,0:0:0:0:
100,228,169125,1,0,0:0:0:0:
160,308,169469,5,0,0:0:0:0:
160,308,169814,1,0,0:0:0:0:
252,344,170159,2,0,P|256:280|232:240,1,100
180,172,170849,2,0,P|236:152|280:164,1,100
372,176,171538,6,0,P|424:132|428:92,1,100
392,12,172228,2,0,P|340:56|336:96,1,100
264,156,172918,2,0,L|160:116,1,100
136,28,173607,2,0,P|68:112|120:196,1,200
172,256,174642,1,0,0:0:0:0:
268,284,174987,6,0,B|320:280|356:240|356:240|388:180|436:156,1,200
496,100,176021,1,0,0:0:0:0:
404,64,176366,2,0,L|300:32,1,100
260,124,177056,2,0,L|160:92,1,100
72,52,177745,6,0,P|64:112|92:160,1,100
32,236,178435,2,0,P|96:248|136:224,1,100
208,292,179125,2,0,P|228:236|216:188,1,100
180,108,179814,1,0,0:0:0:0:
256,192,200159,12,0,201883,0:0:0:0:
412,100,202573,6,0,P|440:176|400:256,1,160
272,324,203952,2,0,B|216:340|216:340|160:312|104:332,1,160
56,180,205331,6,0,P|27:107|55:34,1,160
216,40,206710,2,0,B|272:56|272:56|328:28|384:48,1,160
336,200,208090,6,0,P|380:280|448:272,1,160
440,116,209469,2,0,P|396:36|328:44,1,160
175,38,210849,2,0,P|99:45|72:116,1,160
68,276,212228,2,0,P|143:269|171:198,1,160
332,80,213607,6,0,P|380:108|396:160,1,100
400,196,214125,1,0,0:0:0:0:
396,244,214297,2,0,P|364:296|316:320,1,100
232,296,214987,2,0,P|264:244|312:220,1,100
344,136,215676,2,0,P|340:72|304:44,1,100
240,116,216366,6,0,P|192:136|144:132,1,100
100,116,216883,1,0,0:0:0:0:
52,128,217056,2,0,P|36:184|64:228,1,100
68,320,217745,2,0,P|116:304|148:260,1,100
240,228,218435,6,0,L|336:296,1,100
356,192,219125,2,0,L|452:260,1,100
484,160,219814,2,0,P|480:108|444:72,1,100
364,24,220504,2,0,L|296:108,1,100
224,164,221194,5,0,0:0:0:0:
224,164,221538,1,0,0:0:0:0:
144,104,221883,5,0,0:0:0:0:
144,104,222228,1,0,0:0:0:0:
76,180,222573,5,0,0:0:0:0:
76,180,222918,1,0,0:0:0:0:
64,280,223263,2,0,P|116:276|152:240,1,100
228,184,223952,6,0,P|284:200|336:188,1,100
288,100,224642,2,0,P|400:120|424:200,1,200
464,284,225676,2,0,P|416:292|364:272,1,100
288,216,226366,1,0,0:0:0:0:
268,316,226711,6,0,P|216:288|192:240,1,100
100,224,227400,2,0,P|124:172|172:152,1,100
168,56,228090,1,0,0:0:0:0:
168,56,228435,1,0,0:0:0:0:
272,40,228780,6,0,L|376:88,1,100
460,52,229469,2,0,P|464:100|440:148,1,100
476,240,230159,2,0,P|416:244|384:224,1,100
300,172,230849,2,0,P|284:224|296:272,1,100
348,352,231538,5,0,0:0:0:0:
348,352,231883,1,0,0:0:0:0:
256,312,232228,1,0,0:0:0:0:
156,320,232573,2,0,P|195:232|289:218,1,200
348,136,233608,2,0,P|400:100|448:104,1,100
432,208,234297,6,0,P|452:256|436:308,1,100
356,356,234987,2,0,P|336:308|352:256,1,100
328,164,235677,2,0,P|312:104|272:72,1,100
192,48,236366,2,0,B|120:52|120:52|152:144|76:176,1,200
12,224,237401,1,0,0:0:0:0:
64,312,237746,6,0,P|140:336|176:324,1,100
204,320,238263,1,0,0:0:0:0:
296,284,238608,1,0,0:0:0:0:
344,288,238780,2,0,B|388:280|444:308|444:308|444:248|484:212,1,200
468,120,239815,6,0,P|420:136|388:184,1,100
292,176,240504,2,0,P|261:137|214:121,1,100
160,208,241194,2,0,P|116:152|132:64,1,150
156,40,241883,1,0,0:0:0:0:
156,40,242228,1,0,0:0:0:0:
256,52,242573,6,0,P|288:100|336:124,1,100
368,28,243263,2,0,P|409:54|435:96,1,100
464,192,243952,2,0,B|460:256|392:272|392:272|368:316,1,150
356,348,244642,1,0,0:0:0:0:
256,192,244987,12,0,247745,0:0:0:0:
376,120,248090,5,0,0:0:0:0:
376,120,248435,1,0,0:0:0:0:
408,216,248780,2,0,P|344:220|308:192,1,100
240,140,249469,2,0,P|220:192|228:240,1,100
276,320,250159,6,0,P|228:336|180:324,1,100
228,236,250849,2,0,P|179:224|133:240,1,100
256,192,251538,12,0,253607,0:0:0:0:
108,108,253952,5,0,0:0:0:0:
164,188,254297,2,0,L|228:268,1,100
296,196,254987,2,0,L|368:288,1,100
400,300,255504,1,0,0:0:0:0:
448,304,255676,2,0,B|504:240|444:180|444:180|476:112,1,200
508,32,256711,1,0,0:0:0:0:
412,60,257056,6,0,P|364:92|344:140,1,100
256,192,257745,12,0,259814,0:0:0:0:
268,312,260159,6,0,L|328:224,1,100
276,140,260849,2,0,L|216:228,1,100
168,308,261538,1,0,0:0:0:0:
92,244,261883,2,0,P|60:188|68:140,1,100
24,64,262573,2,0,P|80:56|120:72,1,100
256,192,263263,12,0,265331,0:0:0:0:
344,96,265676,5,0,0:0:0:0:
252,140,266021,2,0,P|300:192|328:196,1,100
376,208,266538,1,0,0:0:0:0:
424,220,266711,2,0,B|472:248|472:248|408:284|380:284|336:312,1,200
260,356,267745,1,0,0:0:0:0:
168,320,268090,6,0,P|204:268|248:256,1,100
284,236,268607,2,0,P|316:188|320:140,1,100
296,104,269125,2,0,P|216:64|124:124,1,200
76,200,270159,1,0,0:0:0:0:
76,200,270504,1,0,0:0:0:0:
144,272,270849,6,0,P|200:304|252:296,1,100
280,288,271366,2,0,P|328:256|372:248,1,100
416,228,271883,2,0,B|424:160|476:116|476:116|420:64,1,200
344,8,272918,1,0,0:0:0:0:
344,8,273263,1,0,0:0:0:0:
252,48,273607,2,0,P|276:88|336:104,1,100
256,192,274297,12,0,276366,0:0:0:0:
140,224,276711,6,0,P|148:168|128:128,1,100
36,96,277400,2,0,P|28:152|48:192,1,100
104,272,278090,1,0,0:0:0:0:
104,272,278435,1,0,0:0:0:0:
164,192,278780,2,0,P|200:232|204:280,1,100
