osu file format v14

[General]
AudioFilename: Dixie Flatline feat. Mew-Stella.mp3
AudioLeadIn: 0
PreviewTime: 46711
Countdown: 0
SampleSet: Soft
StackLeniency: 0.7
Mode: 0
LetterboxInBreaks: 1
WidescreenStoryboard: 0

[Editor]
Bookmarks: 3607,25331,43952,47400,91883,134297,157056,179814,200159,202228,221194,247745,279125
DistanceSpacing: 1.3
BeatDivisor: 4
GridSize: 4
TimelineZoom: 1

[Metadata]
Title:Stella
TitleUnicode:ステラ
Artist:Dixie Flatline ft. Mew
ArtistUnicode:Dixie Flatline ft. Mew
Creator:Indeed
Version:Insane
Source:
Tags:vocaloid
BeatmapID:464092
BeatmapSetID:195607

[Difficulty]
HPDrainRate:7
CircleSize:4
OverallDifficulty:7
ApproachRate:9
SliderMultiplier:1.6
SliderTickRate:1

[Events]
//Background and Video events
0,0,"stella bg.jpg",0,0
//Break Periods
2,180014,199559
//Storyboard Layer 0 (Background)
//Storyboard Layer 1 (Fail)
//Storyboard Layer 2 (Pass)
//Storyboard Layer 3 (Foreground)
//Storyboard Sound Samples

[TimingPoints]
3263,344.827586206897,4,2,0,45,1,0
3607,-100,4,2,0,45,0,0
25331,-100,4,2,0,50,0,0
47400,-100,4,2,0,75,0,1
69469,-100,4,2,0,60,0,0
91538,-100,4,2,0,45,0,0
135676,-100,4,2,0,75,0,1
157745,-100,4,2,0,60,0,0
202573,-125,4,2,0,60,0,0
212918,-100,4,2,0,60,0,0
223952,-100,4,2,0,75,0,1
246021,-100,4,2,0,65,0,0

[HitObjects]
280,68,3607,6,0,P|240:108|236:140,1,80
128,172,3952,2,0,P|180:232|288:232,1,160
368,272,4469,1,0,0:3:0:0:
380,164,4642,2,0,P|296:184|256:252,1,160
256,344,5159,2,0,L|256:396,2,40,0|0|0,0:0|0:0|0:0,0:3:0:0:
160,296,5504,2,0,L|120:304,2,40,0|0|0,0:0|0:0|0:0,0:3:0:0:
176,180,5849,5,0,0:3:0:0:
104,96,6021,2,0,P|164:72|196:72,1,80
256,20,6366,1,0,0:3:0:0:
408,96,6538,2,0,P|348:72|316:72,1,80
256,148,6883,1,0,0:3:0:0:
184,244,7056,2,0,P|256:272|332:240,1,160
472,196,7745,6,0,L|512:212,3,40,0|0|0|0,0:0|0:0|0:0|0:0,0:0:0:0:
432,180,8090,1,0,0:0:0:0:
432,180,8435,1,0,0:0:0:0:
376,80,8780,2,0,P|328:136|344:240,1,160
372,312,9297,1,0,0:0:0:0:
252,328,9469,6,0,B|232:288|256:252|256:252|236:168,1,160
220,84,9987,1,0,0:0:0:0:
100,80,10159,2,0,P|112:128|132:164,1,80
40,236,10504,2,0,P|80:268|112:284,1,80
280,336,10849,2,0,P|240:304|208:288,1,80
176,152,11194,2,0,P|204:100|228:80,1,80
328,32,11538,6,0,P|340:88|336:120,1,80
332,140,11797,1,0,0:0:0:0:
324,176,11883,2,0,P|324:224|336:260,1,80
388,340,12228,1,0,0:0:0:0:
476,288,12400,2,0,P|412:244|332:256,1,160
116,256,13263,6,0,L|76:288,3,40,0|0|0|0,0:0|0:0|0:0|0:0,0:0:0:0:
144,232,13607,1,0,0:0:0:0:
144,232,13952,1,0,0:0:0:0:
260,280,14297,2,0,P|268:192|216:124,1,160
132,84,14814,5,0,0:0:0:0:
16,60,14987,2,0,P|32:136|109:200,1,160
172,244,15504,1,0,0:0:0:0:
260,280,15676,2,0,P|312:300|352:304,1,80
356,184,16021,2,0,P|392:160|420:128,1,80
328,32,16366,2,0,P|292:56|264:88,1,80
224,164,16711,5,0,0:0:0:0:
172,244,16883,1,0,0:0:0:0:
104,312,17056,2,0,B|56:272|80:204|80:204|68:160,1,160
180,96,17573,2,0,P|256:72|340:104,1,160
442,164,18090,2,0,B|432:204|432:204|456:272|408:312,1,160
112,56,18780,6,0,L|84:24,3,40,0|0|0|0,0:0|0:0|0:0|0:0,0:0:0:0:
140,88,19125,1,0,0:0:0:0:
140,88,19469,1,0,0:0:0:0:
160,236,19814,2,0,P|248:212|280:140,1,160
304,60,20331,5,0,0:0:0:0:
408,40,20504,1,0,0:0:0:0:
476,128,20676,1,0,0:0:0:0:
416,204,20849,2,0,P|412:252|420:288,1,80
344,376,21194,2,0,P|320:336|312:296,1,80
240,160,21538,2,0,P|224:208|220:244,1,80
252,340,21883,1,0,0:0:0:0:
140,248,22056,1,0,0:0:0:0:
64,324,22228,6,0,P|36:236|64:168,1,160
116,96,22745,1,0,0:0:0:0:
192,20,22918,2,0,P|216:64|220:104,1,80
320,364,23435,2,0,P|296:320|292:280,1,80
288,196,23780,1,0,0:0:0:0:
248,104,23952,2,0,P|328:100|388:160,1,160
384,150,24383,5,0,0:0:0:0:
384,150,24469,1,0,0:0:0:0:
384,150,24556,1,0,0:0:0:0:
384,150,24642,1,0,0:0:0:0:
432,244,24987,1,0,0:0:0:0:
336,288,25331,6,0,P|272:340|180:316,1,160
248,252,25849,2,0,P|168:240|108:294,1,160
44,336,26366,2,0,B|12:280|48:232|48:232|32:172,1,160,0|0,0:0|0:0,0:0:0:0:
28,96,26883,2,0,P|60:44|84:28,1,80
168,24,27228,1,0,0:0:0:0:
192,112,27400,2,0,P|160:164|136:180,1,80
56,272,27745,2,0,P|100:288|140:280,1,80
216,372,28090,6,0,P|252:336|268:304,1,80
296,224,28435,1,0,0:0:0:0:
192,204,28607,2,0,P|248:132|312:124,1,160
392,168,29125,2,0,P|396:259|353:307,1,160
92,280,29814,6,0,L|52:308,3,40,0|0|0|0,0:0|0:0|0:0|0:0,0:0:0:0:
128,256,30159,1,0,0:0:0:0:
128,256,30504,1,0,0:0:0:0:
76,172,30849,6,0,P|84:128|112:96,1,80
132,76,31107,1,0,0:0:0:0:
164,56,31194,2,0,P|198:37|238:36,1,80
228,136,31538,1,0,0:0:0:0:
296,220,31711,1,0,0:0:0:0:
348,328,31883,2,0,P|404:260|404:188,1,160
388,96,32400,1,0,0:0:0:0:
292,48,32573,6,0,L|256:28,2,40,0|0|0,0:0|0:0|0:0,0:0:0:0:
292,148,32918,2,0,L|256:168,2,40,0|0|0,0:0|0:0|0:0,0:0:0:0:
404,192,33263,2,0,P|432:208|464:248,1,80
352,300,33607,2,0,P|312:324|276:332,1,80
188,272,33952,1,0,0:0:0:0:
88,316,34125,2,0,P|88:224|148:172,1,160
64,96,34642,2,0,P|136:68|228:124,1,160
444,192,35331,5,0,0:0:0:0:
420,192,35418,1,0,0:0:0:0:
396,192,35504,1,0,0:0:0:0:
372,192,35590,1,0,0:0:0:0:
352,192,35676,1,0,0:0:0:0:
352,192,36021,1,0,0:0:0:0:
236,236,36366,6,0,L|148:252,1,80
236,152,36711,2,0,L|148:136,1,80
48,240,37056,2,0,L|100:308,1,80
48,144,37400,2,0,L|100:76,1,80
124,192,37745,2,0,B|164:184|164:184|204:188,1,80
388,192,38090,2,0,B|348:200|348:200|304:196,1,80
464,240,38435,6,0,L|412:308,1,80
464,144,38779,2,0,L|412:76,1,80
320,32,39125,2,0,L|260:84,1,80
184,16,39469,1,0,0:0:0:0:
88,40,39642,1,0,0:0:0:0:
172,116,39814,2,0,P|136:144|96:152,1,80
0,160,40159,2,0,P|23:220|117:248,1,160
280,296,40849,6,0,L|260:344,3,40,0|0|0|0,0:0|0:0|0:0|0:0,0:0:0:0:
296,256,41194,1,0,0:0:0:0:
296,256,41538,1,0,0:0:0:0:
436,236,41883,6,0,L|464:144,1,80
368,164,42228,2,0,L|392:84,1,80
144,164,42573,6,0,L|121:87,1,80
76,236,42918,2,0,L|52:159,1,80
160,348,43263,6,0,P|188:312|204:272,1,80
352,348,43607,2,0,P|324:312|308:272,1,80
256,204,43952,6,0,L|256:112,1,80
256,44,44297,2,0,L|256:144,1,80
376,152,44642,1,0,0:0:0:0:
360,260,44814,1,0,0:0:0:0:
256,324,44987,1,0,0:0:0:0:
152,260,45159,1,0,0:0:0:0:
136,152,45331,1,0,0:0:0:0:
256,44,45504,5,0,0:0:0:0:
152,260,45676,1,0,0:0:0:0:
360,260,45849,1,0,0:0:0:0:
72,148,47400,5,0,0:0:0:0:
120,332,47573,1,0,0:0:0:0:
120,332,47659,1,0,0:0:0:0:
120,332,47746,2,0,P|164:316|192:288,1,80
256,200,48091,2,0,P|252:160|264:112,1,80
356,55,48435,1,0,0:0:0:0:
356,55,48522,1,0,0:0:0:0:
356,55,48608,1,0,0:0:0:0:
488,48,48780,5,0,0:0:0:0:
392,180,48953,1,0,0:0:0:0:
356,55,49125,1,0,0:0:0:0:
512,160,49297,1,0,0:0:0:0:
456,284,49469,2,0,P|408:300|372:300,1,80
252,368,49814,6,0,P|236:316|240:280,1,80
272,188,50159,1,0,0:0:0:0:
320,76,50331,1,0,0:0:0:0:
320,76,50418,1,0,0:0:0:0:
320,76,50504,2,0,P|272:64|232:76,1,80
104,100,50849,2,0,P|128:152|160:172,1,80
260,320,51194,1,0,0:0:0:0:
272,188,51366,5,0,0:0:0:0:
272,188,51452,1,0,0:0:0:0:
272,188,51538,1,0,0:0:0:0:
128,264,51711,1,0,0:0:0:0:
152,160,51883,1,0,0:0:0:0:
260,320,52056,5,0,0:0:0:0:
260,320,52142,1,0,0:0:0:0:
260,320,52228,1,0,0:0:0:0:
376,356,52400,1,0,0:0:0:0:
488,308,52573,2,0,P|460:272|428:252,1,80
400,228,52831,1,0,0:0:0:0:
372,212,52918,6,0,P|328:180|312:152,1,80
248,220,53263,1,0,0:0:0:0:
260,320,53435,1,0,0:0:0:0:
152,368,53607,1,0,0:0:0:0:
128,264,53780,1,0,0:0:0:0:
8,284,53952,2,0,P|12:224|32:196,1,80
68,92,54297,6,0,P|112:120|128:148,1,80
248,220,54642,2,0,P|284:208|316:180,1,80
464,48,54987,1,0,0:0:0:0:
292,100,55159,1,0,0:0:0:0:
464,164,55331,1,0,0:0:0:0:
360,16,55504,1,0,0:0:0:0:
356,192,55676,2,0,P|352:240|360:280,1,80
424,352,56021,5,0,0:0:0:0:
268,324,56194,1,0,0:0:0:0:
268,324,56280,1,0,0:0:0:0:
268,324,56366,1,0,0:0:0:0:
236,180,56538,1,0,0:0:0:0:
168,84,56711,2,0,P|132:124|120:156,1,80
116,268,57056,5,0,0:0:0:0:
24,348,57228,1,0,0:0:0:0:
8,216,57400,1,0,0:0:0:0:
56,104,57573,1,0,0:0:0:0:
56,104,57659,1,0,0:0:0:0:
56,104,57745,1,0,0:0:0:0:
168,84,57918,1,0,0:0:0:0:
284,28,58090,1,0,0:0:0:0:
388,104,58263,5,0,0:0:0:0:
388,104,58349,1,0,0:0:0:0:
388,104,58435,2,0,P|424:148|444:160,1,80
408,264,58780,2,0,P|456:280|492:284,1,80
332,352,59125,1,0,0:0:0:0:
260,216,59297,1,0,0:0:0:0:
180,344,59469,1,0,0:0:0:0:
136,212,59642,5,0,0:0:0:0:
136,212,59728,1,0,0:0:0:0:
136,212,59814,1,0,0:0:0:0:
36,312,59987,1,0,0:0:0:0:
20,164,60159,2,0,P|52:120|80:100,1,80
188,16,60504,6,0,P|204:56|208:104,1,80
208,128,60763,1,0,0:0:0:0:
208,164,60849,2,0,P|216:208|236:248,1,80
332,352,61194,2,0,P|364:308|372:268,1,80
480,204,61538,1,0,0:0:0:0:
328,168,61711,1,0,0:0:0:0:
432,300,61883,1,0,0:0:0:0:
380,100,62056,1,0,0:0:0:0:
304,4,62228,6,0,P|268:52|260:84,1,80
260,104,62487,1,0,0:0:0:0:
256,144,62573,2,0,P|240:196|216:224,1,80
44,360,62918,6,0,P|80:312|88:280,1,80
88,260,63177,1,0,0:0:0:0:
92,220,63263,2,0,P|108:168|132:140,1,80
48,80,63607,1,0,0:0:0:0:
164,40,63780,1,0,0:0:0:0:
164,40,63866,1,0,0:0:0:0:
164,40,63952,2,0,P|208:72|228:112,1,80
208,232,64297,6,0,P|231:264|265:285,1,80
444,332,64642,1,0,0:0:0:0:
308,352,64814,1,0,0:0:0:0:
376,248,64987,1,0,0:0:0:0:
512,260,65159,5,0,0:0:0:0:
512,260,65245,1,0,0:0:0:0:
512,260,65331,1,0,0:0:0:0:
464,172,65504,1,0,0:0:0:0:
424,64,65676,2,0,P|380:92|364:116,1,80
248,60,66021,6,0,P|232:116|236:156,1,80
264,344,66366,2,0,P|280:288|276:248,1,80
232,136,66711,2,0,P|196:168|176:212,1,80
144,292,67056,1,0,0:0:0:0:
28,352,67228,1,0,0:0:0:0:
144,292,67400,1,0,0:0:0:0:
64,224,67573,5,0,0:0:0:0:
64,224,67659,1,0,0:0:0:0:
64,224,67745,2,0,P|36:184|28:136,1,80
28,20,68090,1,0,0:0:0:0:
116,124,68263,1,0,0:0:0:0:
188,28,68435,1,0,0:0:0:0:
272,136,68607,1,0,0:0:0:0:
388,56,68780,6,0,P|408:96|416:140,1,80
388,328,69125,2,0,P|408:288|416:244,1,80
304,184,69469,2,0,B|244:152|204:232|120:168,1,160
172,92,69987,1,0,0:0:0:0:
124,0,70159,2,0,P|72:64|84:144,1,160
60,340,70849,6,0,B|104:300|172:292|172:292|192:260,1,160
256,188,71366,1,0,0:0:0:0:
448,340,71538,2,0,B|404:300|336:292|336:292|316:260,1,160
344,44,72228,6,0,P|420:72|464:168,1,160
356,140,72745,1,0,0:0:0:0:
368,240,72918,2,0,P|292:212|248:116,1,160
168,44,73607,6,0,P|92:72|64:168,1,160
156,140,74124,1,0,0:0:0:0:
104,248,74297,1,0,0:0:0:0:
184,320,74469,1,0,0:0:0:0:
284,256,74642,1,0,0:0:0:0:
264,152,74814,2,0,B|328:104|328:104|376:96|400:64,1,160
476,0,75331,2,0,P|500:44|496:100,1,80
460,180,75676,2,0,P|412:256|400:344,1,160
48,256,76366,6,0,L|96:176,1,80
164,220,76711,2,0,L|208:144,1,80
220,120,76969,1,0,0:0:0:0:
240,84,77056,2,0,P|292:68|372:144,1,160
408,288,77745,6,0,L|464:344,1,80
312,320,78090,1,0,0:0:0:0:
328,224,78263,1,0,0:0:0:0:
408,168,78435,2,0,P|336:124|256:156,1,160
104,288,79125,6,0,L|48:344,1,80
200,320,79470,1,0,0:0:0:0:
184,224,79643,1,0,0:0:0:0:
92,184,79814,2,0,P|96:136|116:96,1,80
220,112,80159,2,0,P|236:68|264:36,1,80
352,128,80504,6,0,B|368:176|392:188|392:188|448:172|484:216,1,160
444,96,81021,1,0,0:0:0:0:
416,288,81194,2,0,P|368:320|256:312,1,160
76,60,81883,6,0,P|112:96|144:112,1,80
232,156,82228,1,0,0:0:0:0:
52,196,82400,1,0,0:0:0:0:
52,196,82487,1,0,0:0:0:0:
52,196,82573,2,0,P|100:224|128:232,1,80
256,232,82918,2,0,P|242:172|207:138,1,80
296,28,83263,6,0,P|336:56|352:92,1,80
376,192,83607,1,0,0:0:0:0:
484,272,83780,1,0,0:0:0:0:
484,272,83866,1,0,0:0:0:0:
484,272,83952,2,0,P|436:296|404:300,1,80
300,380,84297,2,0,P|276:336|268:300,1,80
256,188,84642,6,0,P|248:144|224:96,1,80
120,16,84987,2,0,P|104:64|104:96,1,80
104,124,85245,1,0,0:0:0:0:
108,168,85331,2,0,P|108:212|92:248,1,80
52,344,85676,1,0,0:0:0:0:
176,272,85849,1,0,0:0:0:0:
288,320,86021,1,0,0:0:0:0:
208,172,86194,1,0,0:0:0:0:
208,172,86366,2,0,P|232:92|304:56,1,160
436,228,87056,6,0,L|466:153,1,80
440,324,87400,2,0,P|352:280|340:216,1,160
336,128,87918,1,0,0:0:0:0:
344,8,88090,2,0,P|256:40|228:112,1,160
76,120,88780,6,0,L|12:196,1,80
76,256,89125,2,0,L|12:328,1,80
172,320,89469,2,0,P|192:220|160:160,1,160
436,120,90159,6,0,L|500:196,1,80
436,256,90504,2,0,L|500:328,1,80
340,320,90848,2,0,P|320:220|352:160,1,160
236,52,91366,1,0,0:0:0:0:
236,52,91452,1,0,0:0:0:0:
236,52,91538,1,0,0:0:0:0:
60,320,91883,6,0,L|112:260,1,80
252,296,92228,2,0,L|272:208,1,80
356,112,92573,1,0,0:0:0:0:
236,52,92745,5,0,0:0:0:0:
236,52,92831,1,0,0:0:0:0:
236,52,92918,2,0,P|188:48|152:60,1,80
0,168,93263,1,0,0:0:0:0:
80,12,93435,1,0,0:0:0:0:
112,188,93607,1,0,0:0:0:0:
0,68,93780,1,0,0:0:0:0:
112,188,93952,2,0,P|148:224|180:240,1,80
288,296,94297,5,0,0:0:0:0:
456,292,94469,1,0,0:0:0:0:
268,220,94642,1,0,0:0:0:0:
400,352,94814,1,0,0:0:0:0:
364,156,94987,1,0,0:0:0:0:
268,220,95159,1,0,0:0:0:0:
228,40,95331,2,0,P|184:52|152:68,1,80
116,84,95590,1,0,0:0:0:0:
88,108,95676,2,0,P|56:136|28:172,1,80
108,344,96021,6,0,P|128:288|124:252,1,80
116,84,96366,2,0,P|168:96|192:112,1,80
264,252,96711,2,0,P|300:224|320:196,1,80
356,40,97056,2,0,P|400:52|432:76,1,80
464,268,97400,6,0,L|404:328,1,80
348,120,97745,2,0,L|356:32,1,80
264,140,98090,1,0,0:0:0:0:
92,136,98263,1,0,0:0:0:0:
176,132,98435,1,0,0:0:0:0:
24,92,98607,1,0,0:0:0:0:
128,204,98780,2,0,P|102:173|92:135,1,80
204,4,99125,2,0,P|229:34|239:72,1,80
264,232,99469,6,0,P|280:272|308:300,1,80
504,208,99814,2,0,P|448:200|412:208,1,80
304,296,100159,2,0,P|352:304|388:296,1,80,0|0,0:0|0:0,0:0:0:0:
460,176,100504,2,0,P|452:128|440:100,1,80
296,168,100849,1,0,0:0:0:0:
372,28,101021,1,0,0:0:0:0:
392,224,101194,1,0,0:0:0:0:
276,80,101366,1,0,0:0:0:0:
148,32,101538,5,0,0:0:0:0:
128,64,101625,1,0,0:0:0:0:
124,100,101711,1,0,0:0:0:0:
132,132,101797,1,0,0:0:0:0:
156,164,101883,2,0,P|184:192|204:240,1,80
184,384,102228,2,0,P|156:356|136:308,1,80
138,319,102487,1,0,0:0:0:0:
138,319,102573,1,0,0:0:0:0:
16,236,102745,1,0,0:0:0:0:
52,124,102918,6,0,P|108:100|148:104,1,80
224,8,103263,2,0,P|264:36|284:68,1,80
220,116,103607,1,0,0:0:0:0:
352,224,103780,1,0,0:0:0:0:
436,296,103952,2,0,P|460:252|460:212,1,80
440,68,104297,6,0,P|396:88|368:116,1,80
248,272,104642,1,0,0:0:0:0:
220,116,104814,1,0,0:0:0:0:
352,224,104987,1,0,0:0:0:0:
168,176,105159,1,0,0:0:0:0:
88,280,105331,2,0,P|52:240|44:172,1,120
56,144,105676,2,0,P|72:100|72:56,1,80
204,40,106021,2,0,P|208:84|224:120,1,80
184,224,106366,2,0,P|272:216|332:152,1,160
344,48,106883,5,0,0:0:0:0:
496,136,107056,1,0,0:0:0:0:
448,24,107228,1,0,0:0:0:0:
420,184,107400,5,0,0:0:0:0:
448,24,107573,1,0,0:0:0:0:
328,140,107745,1,0,0:0:0:0:
228,56,107918,1,0,0:0:0:0:
228,56,108004,1,0,0:0:0:0:
228,56,108090,2,0,P|192:80|156:92,1,80
28,36,108435,6,0,P|16:80|16:128,1,80
80,304,108780,2,0,P|92:248|88:220,1,80
208,120,109125,2,0,P|160:116|112:128,1,80
8,228,109469,2,0,P|60:232|100:224,1,80,0|0,0:0|0:0,0:0:0:0:
220,216,109814,5,0,0:0:0:0:
332,320,109987,1,0,0:0:0:0:
332,320,110073,1,0,0:0:0:0:
332,320,110159,2,0,P|360:276|368:236,1,80
480,184,110504,5,0,0:0:0:0:
460,152,110590,1,0,0:0:0:0:
428,128,110676,1,0,0:0:0:0:
392,124,110763,1,0,0:0:0:0:
356,132,110849,2,0,P|316:144|272:144,1,80
172,52,111194,2,0,P|152:100|144:140,1,80
44,236,111538,2,0,P|96:264|124:268,1,80
256,328,111883,2,0,P|260:236|224:164,1,160
296,44,112400,5,0,0:0:0:0:
296,44,112487,1,0,0:0:0:0:
296,44,112573,2,0,P|332:72|344:80,1,40
412,88,112745,2,0,L|380:124,1,40
308,156,112918,2,0,L|348:184,1,40
412,204,113090,2,0,P|404:248|380:284,1,80
324,360,113435,1,0,0:0:0:0:
192,344,113607,6,0,P|212:284|232:264,1,80
308,156,113952,1,0,0:0:0:0:
196,48,114125,6,0,P|156:88|128:100,1,80
12,148,114469,1,0,0:0:0:0:
48,288,114642,6,0,P|96:288|132:276,1,80
264,232,114987,1,0,0:0:0:0:
432,296,115159,6,0,P|440:232|432:200,1,80
416,72,115504,1,0,0:0:0:0:
264,68,115676,2,0,P|292:104|324:128,1,80
144,32,116021,2,0,P|144:72|152:112,1,80
264,232,116366,5,0,0:0:0:0:
112,176,116538,1,0,0:0:0:0:
8,240,116711,2,0,P|48:276|80:288,1,80
228,344,117056,2,0,P|216:280|204:256,1,80
168,124,117400,1,0,0:0:0:0:
280,40,117573,5,0,0:0:0:0:
280,40,117659,1,0,0:0:0:0:
280,40,117745,2,0,P|288:92|280:128,1,80
320,244,118090,1,0,0:0:0:0:
352,236,118176,1,0,0:0:0:0:
384,220,118263,1,0,0:0:0:0:
408,196,118349,1,0,0:0:0:0:
424,168,118435,2,0,L|456:88,1,80
512,224,118780,2,0,L|480:312,1,80
352,336,119125,6,0,L|252:316,1,80
160,296,119469,1,0,0:0:0:0:
44,228,119642,6,0,L|124:200,1,80
232,160,119987,1,0,0:0:0:0:
448,144,120159,6,0,L|356:112,1,80
260,80,120504,1,0,0:0:0:0:
96,36,120676,6,0,P|76:84|68:120,1,80
44,228,121021,1,0,0:0:0:0:
144,344,121194,2,0,P|168:304|176:268,1,80
316,272,121538,2,0,P|304:216|292:188,1,80
252,48,121883,1,0,0:0:0:0:
296,196,122056,1,0,0:0:0:0:
348,28,122228,1,0,0:0:0:0:
220,136,122400,1,0,0:0:0:0:
108,52,122573,6,0,P|60:60|20:100,1,80
116,172,122918,2,0,L|152:252,1,80
168,280,123176,1,0,0:0:0:0:
196,308,123263,2,0,P|240:312|288:300,1,80
420,360,123607,5,0,0:0:0:0:
428,328,123694,1,0,0:0:0:0:
428,288,123780,1,0,0:0:0:0:
424,252,123866,1,0,0:0:0:0:
416,224,123952,2,0,P|404:180|388:148,1,80
312,36,124297,2,0,P|280:80|264:120,1,80
264,136,124556,1,0,0:0:0:0:
260,172,124642,2,0,P|256:220|236:256,1,80
136,352,124987,5,0,0:0:0:0:
48,296,125159,1,0,0:0:0:0:
140,232,125331,1,0,0:0:0:0:
48,148,125504,5,0,0:0:0:0:
140,232,125676,1,0,0:0:0:0:
260,172,125849,1,0,0:0:0:0:
256,312,126021,5,0,0:0:0:0:
260,172,126194,1,0,0:0:0:0:
384,248,126366,1,0,0:0:0:0:
424,124,126538,5,0,0:0:0:0:
384,248,126711,1,0,0:0:0:0:
512,212,126883,1,0,0:0:0:0:
496,356,127056,2,0,P|464:300|460:272,1,80
424,124,127400,2,0,P|384:160|364:196,1,80
308,344,127745,2,0,P|268:312|252:280,1,80
208,188,128090,5,0,0:0:0:0:
252,84,128263,1,0,0:0:0:0:
152,36,128435,1,0,0:0:0:0:
36,56,128607,1,0,0:0:0:0:
36,56,128694,1,0,0:0:0:0:
36,56,128780,2,0,L|64:144,1,80
52,332,129125,5,0,0:0:0:0:
80,316,129211,1,0,0:0:0:0:
104,288,129297,1,0,0:0:0:0:
112,260,129383,1,0,0:0:0:0:
120,224,129469,2,0,P|140:176|168:144,1,80
212,16,129814,2,0,P|240:52|252:100,1,80
268,200,130159,6,0,P|280:248|300:280,1,80
452,372,130504,2,0,P|440:304|428:284,1,80
448,148,130849,2,0,P|388:152|360:168,1,80
220,292,131194,2,0,P|276:284|308:264,1,80
372,160,131538,1,0,0:0:0:0:
284,56,131711,1,0,0:0:0:0:
200,156,131883,1,0,0:0:0:0:
116,56,132056,1,0,0:0:0:0:
16,144,132228,6,0,P|52:172|92:184,1,80
88,312,132573,2,0,P|136:300|176:276,1,80
349,285,132918,6,0,P|385:303|424:312,1,80
427,182,133263,2,0,P|465:169|496:144,1,80
344,52,133607,6,0,L|296:120,1,80
168,52,133952,2,0,L|216:120,1,80
296,208,134297,1,0,0:0:0:0:
320,236,134383,1,0,0:0:0:0:
332,272,134469,1,0,0:0:0:0:
328,308,134556,1,0,0:0:0:0:
304,336,134642,1,0,0:0:0:0:
272,344,134728,5,0,0:0:0:0:
236,332,134814,1,0,0:0:0:0:
208,320,134900,1,0,0:0:0:0:
176,308,134987,1,0,0:0:0:0:
144,296,135073,1,0,0:0:0:0:
116,284,135159,1,0,0:0:0:0:
88,272,135245,1,0,0:0:0:0:
60,248,135331,2,0,L|36:212,2,40,0|0|0,0:0|0:0|0:0,0:0:0:0:
64,40,135676,6,0,P|104:72|136:80,1,80
184,208,136021,2,0,P|224:188|256:156,1,80
320,68,136366,1,0,0:0:0:0:
456,32,136538,1,0,0:0:0:0:
456,32,136625,1,0,0:0:0:0:
456,32,136711,2,0,P|456:80|444:120,1,80
344,308,137056,2,0,P|344:260|356:220,1,80
232,116,137400,5,0,0:0:0:0:
264,108,137487,1,0,0:0:0:0:
300,108,137573,1,0,0:0:0:0:
336,112,137659,1,0,0:0:0:0:
368,120,137745,2,0,P|408:128|444:156,1,80
420,320,138090,2,0,P|372:264|368:240,1,80
300,108,138435,2,0,P|268:68|240:48,1,80
124,24,138780,5,0,0:0:0:0:
140,192,138952,1,0,0:0:0:0:
40,108,139125,1,0,0:0:0:0:
224,96,139297,1,0,0:0:0:0:
40,108,139469,5,0,0:0:0:0:
140,192,139642,1,0,0:0:0:0:
140,192,139728,1,0,0:0:0:0:
140,192,139815,2,0,P|188:220|224:224,1,80
320,244,140159,1,0,0:0:0:0:
396,340,140331,1,0,0:0:0:0:
396,340,140418,1,0,0:0:0:0:
396,340,140504,2,0,P|440:304|448:264,1,80
512,172,140849,5,0,0:0:0:0:
488,152,140935,1,0,0:0:0:0:
456,140,141021,1,0,0:0:0:0:
424,128,141107,1,0,0:0:0:0:
392,120,141194,2,0,P|352:112|304:116,1,80
208,32,141538,2,0,P|192:76|192:128,1,80
48,164,141883,2,0,P|68:200|100:232,1,80
220,336,142228,6,0,P|244:296|248:248,1,80
248,232,142487,1,0,0:0:0:0:
244,200,142573,2,0,P|236:136|248:108,1,80
320,24,142918,1,0,0:0:0:0:
444,88,143090,1,0,0:0:0:0:
324,152,143263,1,0,0:0:0:0:
448,224,143435,1,0,0:0:0:0:
416,352,143607,2,0,P|372:336|328:280,1,120
312,252,143952,2,0,P|288:216|256:188,1,80
48,108,144297,5,0,0:0:0:0:
252,96,144469,1,0,0:0:0:0:
164,220,144642,1,0,0:0:0:0:
100,24,144814,1,0,0:0:0:0:
64,208,144987,1,0,0:0:0:0:
64,208,145159,2,0,P|96:172|144:152,1,80
140,236,145504,1,0,0:0:0:0:
124,316,145676,5,0,0:0:0:0:
160,308,145763,1,0,0:0:0:0:
196,288,145849,1,0,0:0:0:0:
216,260,145935,1,0,0:0:0:0:
232,228,146021,2,0,P|252:188|280:156,1,80
324,56,146366,2,0,P|356:84|384:128,1,80
392,144,146625,1,0,0:0:0:0:
400,180,146711,2,0,P|416:224|440:248,1,80
468,360,147056,6,0,P|424:364|384:344,1,80
284,320,147400,1,0,0:0:0:0:
196,276,147573,1,0,0:0:0:0:
76,236,147745,2,0,P|108:184|132:168,1,80
152,156,148004,1,0,0:0:0:0:
184,140,148090,2,0,P|216:112|236:76,1,80
128,48,148435,1,0,0:0:0:0:
336,40,148607,5,0,0:0:0:0:
336,40,148694,1,0,0:0:0:0:
336,40,148780,2,0,P|364:80|372:112,1,80
480,200,149125,2,0,P|444:232|408:248,1,80
288,340,149469,2,0,P|264:288|264:264,1,80
240,120,149814,5,0,0:0:0:0:
344,240,149987,1,0,0:0:0:0:
264,52,150159,1,0,0:0:0:0:
280,208,150331,1,0,0:0:0:0:
180,240,150504,2,0,P|120:248|96:244,1,80
0,160,150849,2,0,P|36:124|76:112,1,80
184,28,151194,5,0,0:0:0:0:
188,60,151280,1,0,0:0:0:0:
204,88,151366,1,0,0:0:0:0:
228,108,151452,1,0,0:0:0:0:
260,120,151538,2,0,P|308:120|340:108,1,80
420,8,151883,2,0,P|452:40|464:72,1,80
476,248,152228,2,0,P|444:200|444:172,1,80
336,108,152573,2,0,P|316:148|316:188,1,80
360,288,152918,5,0,0:0:0:0:
256,336,153090,1,0,0:0:0:0:
208,232,153263,1,0,0:0:0:0:
312,184,153435,1,0,0:0:0:0:
416,108,153607,2,0,P|376:72|324:64,1,80
236,56,153952,5,0,0:0:0:0:
208,68,154038,1,0,0:0:0:0:
188,96,154125,1,0,0:0:0:0:
180,124,154211,1,0,0:0:0:0:
176,156,154297,2,0,P|156:204|136:224,1,80
48,336,154642,2,0,P|12:292|8:268,1,80
24,88,154987,6,0,P|64:136|72:176,1,80
172,248,155331,2,0,P|136:272|88:284,1,80
116,128,155676,2,0,P|156:104|200:96,1,80
296,0,156021,2,0,P|324:36|328:76,1,80
388,196,156366,2,0,P|344:212|300:208,1,80
172,284,156711,2,0,P|152:228|152:200,1,80
188,96,157056,5,0,0:0:0:0:
296,0,157228,1,0,0:0:0:0:
436,52,157400,1,0,0:0:0:0:
324,140,157573,1,0,0:0:0:0:
436,192,157745,6,0,P|360:264|292:260,1,160
256,192,158263,1,0,0:0:0:0:
76,192,158435,2,0,P|152:264|220:260,1,160
72,80,159125,6,0,L|156:40,1,80
160,136,159469,2,0,L|236:96,1,80
76,192,159814,2,0,P|100:252|56:336,1,160
440,304,160504,6,0,L|356:344,1,80
352,248,160848,2,0,L|276:288,1,80
436,192,161193,2,0,P|412:132|456:48,1,160
168,280,161883,5,0,0:0:0:0:
92,196,162056,1,0,0:0:0:0:
92,196,162142,1,0,0:0:0:0:
92,196,162228,2,0,P|84:148|92:112,1,80
32,44,162573,1,0,0:0:0:0:
184,112,162745,1,0,0:0:0:0:
292,40,162918,1,0,0:0:0:0:
408,56,163090,2,0,P|348:140|284:156,1,160
297,155,163607,1,0,0:0:0:0:
448,336,163952,6,0,P|376:284|284:296,1,160
220,232,164469,1,0,0:0:0:0:
60,320,164642,2,0,P|84:232|164:196,1,160
432,56,165331,6,0,P|432:104|416:136,1,80
352,216,165676,1,0,0:0:0:0:
300,100,165849,1,0,0:0:0:0:
300,100,165935,1,0,0:0:0:0:
300,100,166021,2,0,P|228:64|144:80,1,160
112,296,166711,6,0,P|156:308|200:300,1,80
208,196,167056,1,0,0:0:0:0:
352,216,167228,1,0,0:0:0:0:
352,216,167314,1,0,0:0:0:0:
352,216,167400,2,0,B|392:176|376:80|376:80|400:72,1,160
216,80,168090,5,0,0:0:0:0:
104,180,168263,1,0,0:0:0:0:
156,24,168435,1,0,0:0:0:0:
168,224,168607,1,0,0:0:0:0:
120,328,168780,6,0,P|212:332|268:288,1,160
324,192,169297,1,0,0:0:0:0:
300,84,169469,2,0,P|384:88|432:152,1,160
464,332,170159,6,0,P|412:304|392:284,1,80
324,192,170504,1,0,0:0:0:0:
300,176,170590,1,0,0:0:0:0:
268,168,170676,1,0,0:0:0:0:
236,164,170763,1,0,0:0:0:0:
208,168,170849,2,0,P|160:196|144:224,1,80
88,344,171194,2,0,P|44:308|20:272,1,80
76,196,171538,6,0,B|88:144|56:68|56:68|80:48,1,160
172,80,172056,1,0,0:0:0:0:
280,36,172228,2,0,P|284:128|236:180,1,160
368,344,172918,6,0,P|432:308|448:216,1,160
352,240,173435,1,0,0:0:0:0:
248,304,173607,1,0,0:0:0:0:
172,208,173780,1,0,0:0:0:0:
272,144,173952,1,0,0:0:0:0:
224,52,174125,2,0,P|316:44|376:100,1,160
366,83,174642,1,0,0:0:0:0:
456,252,174987,6,0,L|404:312,1,80
316,252,175331,1,0,0:0:0:0:
240,332,175504,1,0,0:0:0:0:
240,332,175590,1,0,0:0:0:0:
240,332,175676,2,0,P|144:312|116:256,1,160
48,56,176366,6,0,L|120:108,1,80
180,52,176711,2,0,L|252:104,1,80
316,52,177056,2,0,L|448:148,1,160
464,328,177745,6,0,L|392:276,1,80
332,332,178090,2,0,L|260:280,1,80
168,300,178435,5,0,0:0:0:0:
132,296,178521,1,0,0:0:0:0:
100,284,178607,1,0,0:0:0:0:
72,268,178694,1,0,0:0:0:0:
52,244,178780,1,0,0:0:0:0:
48,212,178866,1,0,0:0:0:0:
52,180,178952,1,0,0:0:0:0:
72,160,179038,1,0,0:0:0:0:
100,144,179125,2,0,P|144:128|176:104,1,80
340,88,179469,2,0,P|296:104|264:128,1,80
352,188,179814,5,0,0:0:0:0:
256,192,200159,12,0,201883,0:0:0:0:
372,60,202573,6,0,P|424:112|392:288,1,256
140,324,203952,2,0,P|88:272|120:96,1,256
280,344,205331,6,0,B|372:328|384:272|384:272|408:216|488:200,1,256
232,40,206711,2,0,B|140:56|128:112|128:112|104:168|24:184,1,256
60,244,208090,6,0,P|120:308|184:316,1,128
452,244,208780,2,0,P|392:308|328:316,1,128
328,132,209469,6,0,L|424:40,1,128
184,132,210159,2,0,L|88:40,1,128
140,252,210849,6,0,P|212:252|264:288,1,128
372,252,211538,2,0,P|300:252|248:288,1,128
180,360,212056,1,0,0:0:0:0:
88,348,212228,2,0,P|36:300|28:240,1,128
100,144,212745,5,0,0:0:0:0:
100,144,212831,1,0,0:0:0:0:
100,144,212918,2,0,P|152:112|168:68,1,80
248,0,213263,2,0,P|280:44|280:80,1,80
468,104,213780,1,0,0:0:0:0:
468,104,213952,2,0,P|476:146|467:186,1,80
458,208,214211,1,0,0:0:0:0:
442,236,214297,6,0,P|413:271|361:293,1,80
220,340,214642,2,0,P|232:296|272:256,1,80
260,144,214987,2,0,P|316:156|348:184,1,80
460,312,215331,2,0,P|412:304|372:284,1,80
248,256,215676,5,0,0:0:0:0:
248,256,215849,1,0,0:0:0:0:
152,336,216021,2,0,P|128:296|120:252,1,80
184,56,216538,1,0,0:0:0:0:
184,56,216711,1,0,0:0:0:0:
276,152,216883,5,0,0:0:0:0:
276,152,216969,1,0,0:0:0:0:
276,152,217056,2,0,P|328:156|360:144,1,80
468,76,217400,1,0,0:0:0:0:
464,256,217573,1,0,0:0:0:0:
464,256,217659,1,0,0:0:0:0:
464,256,217745,2,0,P|420:292|388:304,1,80
188,296,218090,2,0,P|217:268|252:251,1,80
348,176,218435,6,0,L|408:120,1,80
324,80,218780,2,0,L|388:24,1,80
164,176,219125,6,0,L|104:120,1,80
188,80,219470,2,0,L|124:24,1,80
256,144,219814,6,0,L|256:236|256:236,1,80,0|0,0:0|0:0,0:0:0:0:
256,304,220159,2,0,L|256:208,1,80
400,288,220504,6,0,P|360:264|336:220,1,80
400,96,220849,2,0,P|360:120|336:164,1,80,0|0,0:0|0:0,0:0:0:0:
256,224,221194,5,0,0:0:0:0:
236,224,221280,1,0,0:0:0:0:
216,224,221366,1,0,0:0:0:0:
200,224,221452,1,0,0:0:0:0:
176,224,221538,1,0,0:0:0:0:
152,224,221625,1,0,0:0:0:0:
132,224,221711,1,0,0:0:0:0:
112,224,221797,1,0,0:0:0:0:
88,216,221883,5,0,0:0:0:0:
72,200,221969,1,0,0:0:0:0:
64,180,222056,1,0,0:0:0:0:
60,152,222142,1,0,0:0:0:0:
68,124,222228,1,0,0:0:0:0:
80,100,222314,1,0,0:0:0:0:
112,72,222400,1,0,0:0:0:0:
148,60,222487,1,0,0:0:0:0:
188,76,222573,6,0,L|224:100,3,40,0|0|0|0,0:0|0:0|0:0|0:0,0:0:0:0:
248,116,222918,2,0,L|296:144,3,40,0|0|0|0,0:0|0:0|0:0|0:0,0:0:0:0:
316,156,223263,2,0,P|348:172|380:232,1,80
396,344,223607,2,0,P|352:344|304:316,1,80
184,324,223952,5,0,0:0:0:0:
80,264,224125,1,0,0:0:0:0:
80,264,224211,1,0,0:0:0:0:
80,264,224297,2,0,P|100:216|104:172,1,80
72,52,224642,2,0,P|116:44|160:56,1,80
212,180,224987,6,0,P|240:212|300:232,1,80
408,280,225331,1,0,0:0:0:0:
456,112,225504,1,0,0:0:0:0:
328,292,225676,1,0,0:0:0:0:
456,188,225849,1,0,0:0:0:0:
188,332,226021,6,0,P|184:276|204:232,1,80
76,192,226366,2,0,P|108:152|148:128,1,80
264,96,226711,1,0,0:0:0:0:
272,240,226883,1,0,0:0:0:0:
272,240,226969,1,0,0:0:0:0:
272,240,227056,2,0,P|308:284|344:300,1,80
496,328,227400,2,0,P|492:268|472:236,1,80
432,152,227745,1,0,0:0:0:0:
344,64,227918,5,0,0:0:0:0:
344,64,228004,1,0,0:0:0:0:
344,64,228090,1,0,0:0:0:0:
240,160,228263,1,0,0:0:0:0:
164,56,228435,6,0,P|132:84|104:140,1,80
64,280,228780,1,0,0:0:0:0:
168,164,228952,1,0,0:0:0:0:
88,352,229125,1,0,0:0:0:0:
112,116,229297,1,0,0:0:0:0:
148,244,229469,6,0,P|188:264|240:264,1,80
352,340,229814,2,0,P|368:292|368:252,1,80
420,128,230159,2,0,P|380:116|328:124,1,80
224,268,230504,2,0,P|280:276|312:268,1,80
460,272,230849,1,0,0:0:0:0:
320,196,231021,1,0,0:0:0:0:
352,340,231194,1,0,0:0:0:0:
448,168,231366,1,0,0:0:0:0:
508,80,231538,6,0,P|468:60|420:60,1,80
276,132,231883,2,0,P|300:180|336:204,1,80
460,272,232228,1,0,0:0:0:0:
288,280,232400,1,0,0:0:0:0:
436,344,232573,1,0,0:0:0:0:
224,328,232745,1,0,0:0:0:0:
92,320,232918,6,0,P|108:260|128:240,1,80
40,152,233263,2,0,P|68:128|124:116,1,80
216,180,233607,1,0,0:0:0:0:
288,280,233780,2,0,P|328:256|348:224,1,80
408,124,234125,1,0,0:0:0:0:
408,124,234211,1,0,0:0:0:0:
408,124,234297,2,0,P|440:72|440:36,1,80
288,48,234642,2,0,P|244:60|204:80,1,80
180,96,234900,1,0,0:0:0:0:
152,116,234987,6,0,P|116:160|104:200,1,80
80,304,235331,1,0,0:0:0:0:
320,356,235504,1,0,0:0:0:0:
232,340,235676,2,0,P|240:288|232:256,1,80
236,132,236021,2,0,P|256:84|280:64,1,80
420,24,236366,2,0,P|457:39|490:70,1,80
368,148,236711,5,0,0:0:0:0:
392,164,236797,1,0,0:0:0:0:
412,192,236883,1,0,0:0:0:0:
424,228,236969,1,0,0:0:0:0:
420,264,237056,2,0,P|396:312|352:340,1,80
232,340,237400,2,0,P|240:292|264:264,1,80
412,192,237745,6,0,P|376:152|332:140,1,80
228,36,238090,2,0,P|204:72|196:116,1,80
48,144,238435,2,0,P|68:188|104:224,1,80
172,300,238780,1,0,0:0:0:0:
228,168,238952,1,0,0:0:0:0:
228,168,239038,1,0,0:0:0:0:
228,168,239125,2,0,P|256:136|296:116,1,80
396,24,239469,5,0,0:0:0:0:
408,48,239556,1,0,0:0:0:0:
416,80,239642,1,0,0:0:0:0:
416,108,239728,1,0,0:0:0:0:
412,140,239814,2,0,P|408:180|428:228,1,80
508,324,240159,2,0,P|472:348|424:360,1,80
400,360,240418,1,0,0:0:0:0:
360,356,240504,2,0,P|312:332|288:304,1,80
148,296,240849,6,0,P|160:248|188:216,1,80
296,124,241194,2,0,P|264:96|224:84,1,80
88,28,241538,2,0,P|76:72|84:112,1,80
88,292,241883,1,0,0:0:0:0:
8,160,242056,1,0,0:0:0:0:
172,224,242228,1,0,0:0:0:0:
4,260,242400,1,0,0:0:0:0:
152,152,242573,6,0,P|192:128|224:120,1,80
320,24,242918,2,0,P|348:56|360:104,1,80
324,284,243263,2,0,P|296:252|284:204,1,80
192,128,243607,2,0,P|240:104|288:96,1,80
360,196,243952,2,0,P|316:216|276:216,1,80
196,340,244297,1,0,0:0:0:0:
140,240,244469,1,0,0:0:0:0:
56,336,244642,1,0,0:0:0:0:
12,228,244814,1,0,0:0:0:0:
256,192,244987,12,0,247400,0:0:0:0:
384,116,247745,5,0,0:0:0:0:
376,144,247831,1,0,0:0:0:0:
360,172,247918,1,0,0:0:0:0:
336,196,248004,1,0,0:0:0:0:
308,212,248090,2,0,P|268:220|228:216,1,80
96,144,248435,2,0,P|76:196|84:248,1,80
148,324,248780,5,0,0:0:0:0:
448,292,249125,2,0,P|416:240|388:220,1,80
312,152,249469,1,0,0:0:0:0:
240,44,249642,1,0,0:0:0:0:
240,44,249728,1,0,0:0:0:0:
240,44,249814,2,0,P|204:76|188:116,1,80
124,208,250159,6,0,L|36:208,1,80
200,304,250504,2,0,L|104:304,1,80
388,176,250849,6,0,L|476:176,1,80
312,80,251194,2,0,L|408:80,1,80
104,48,251711,1,0,0:0:0:0:
12,136,251883,2,0,P|52:164|96:168,1,80
128,296,252228,2,0,P|172:272|200:244,1,80
276,140,252573,2,0,L|300:104,2,40,0|0|0,0:0|0:0|0:0,0:0:0:0:
436,148,252918,6,0,P|424:200|396:236,1,80
384,368,253263,2,0,P|328:348|304:320,1,80
164,280,253607,2,0,P|200:232|228:216,1,80
360,152,253952,2,0,P|332:112|296:92,1,80
56,52,254469,1,0,0:0:0:0:
104,148,254642,6,0,P|120:188|116:236,1,80
68,328,254987,2,0,L|40:368,2,40,0|0|0,0:0|0:0|0:0,0:0:0:0:
180,344,255331,1,0,0:0:0:0:
276,292,255504,1,0,0:0:0:0:
324,200,255676,1,0,0:0:0:0:
296,100,255849,1,0,0:0:0:0:
176,112,256021,6,0,L|136:80,3,40,0|0|0|0,0:0|0:0|0:0|0:0,0:0:0:0:
116,64,256366,1,0,0:0:0:0:
116,64,256711,1,0,0:0:0:0:
36,172,256883,1,0,0:0:0:0:
36,172,256969,1,0,0:0:0:0:
36,172,257056,2,0,P|56:220|80:248,1,80
192,332,257400,2,0,P|212:292|216:248,1,80
176,112,257745,6,0,P|220:104|264:112,1,80
400,60,258090,2,0,P|412:112|404:156,1,80
452,332,258607,1,0,0:0:0:0:
356,292,258780,1,0,0:0:0:0:
328,280,258866,1,0,0:0:0:0:
296,272,258952,1,0,0:0:0:0:
264,272,259038,1,0,0:0:0:0:
236,280,259125,2,0,P|192:296|160:304,1,80
0,256,259469,2,0,P|44:240|76:232,1,80
236,280,259814,6,0,P|244:240|240:196,1,80
164,84,260159,2,0,P|208:64|244:60,1,80
468,120,260676,1,0,0:0:0:0:
404,236,260849,2,0,P|360:196|348:172,1,80
208,140,261194,6,0,L|112:116,1,80
304,240,261538,2,0,L|380:264,1,80
208,240,261883,6,0,L|128:264,1,80
304,140,262228,2,0,L|384:116,1,80
368,312,262745,1,0,0:0:0:0:
368,312,262918,2,0,P|320:336|284:336,1,80
140,296,263263,2,0,P|164:244|188:220,1,80
304,140,263607,2,0,P|268:104|236:96,1,80
36,44,264125,1,0,0:0:0:0:
48,160,264297,5,0,0:0:0:0:
68,184,264383,1,0,0:0:0:0:
96,208,264469,1,0,0:0:0:0:
128,224,264556,1,0,0:0:0:0:
160,236,264642,2,0,P|200:240|248:232,1,80
364,328,264987,2,0,P|388:280|392:240,1,80
404,136,265331,1,0,0:0:0:0:
308,48,265504,1,0,0:0:0:0:
180,104,265676,1,0,0:0:0:0:
272,172,265849,5,0,0:0:0:0:
272,172,265935,1,0,0:0:0:0:
272,172,266021,2,0,P|256:220|232:248,1,80
120,352,266366,2,0,P|92:300|88:272,1,80
88,248,266625,1,0,0:0:0:0:
88,220,266711,2,0,P|80:172|64:144,1,80
116,32,267056,5,0,0:0:0:0:
140,44,267142,1,0,0:0:0:0:
160,64,267228,1,0,0:0:0:0:
180,88,267314,1,0,0:0:0:0:
192,120,267400,2,0,P|216:160|244:184,1,80
392,192,267745,2,0,P|384:232|352:276,1,80
48,256,268263,1,0,0:0:0:0:
48,256,268435,2,0,P|88:216|120:208,1,80
120,92,268780,6,0,P|168:104|200:128,1,80
244,256,269125,2,0,P|288:232|308:200,1,80
224,52,269642,1,0,0:0:0:0:
120,92,269814,2,0,L|91:63,3,40,0|0|0|0,0:0|0:0|0:0|0:0,0:0:0:0:
152,124,270159,1,0,0:0:0:0:
152,124,270504,1,0,0:0:0:0:
56,288,270849,6,0,P|92:308|144:312,1,80
276,360,271194,2,0,P|284:300|276:272,1,80
184,184,271538,2,0,P|224:156|264:144,1,80
348,44,271883,2,0,P|376:80|388:124,1,80
384,248,272228,6,0,L|460:288,1,80
300,316,272573,2,0,L|388:360,1,80
128,248,272918,6,0,L|52:288,1,80
212,316,273263,2,0,L|124:360,1,80
216,80,273780,1,0,0:0:0:0:
216,80,273952,2,0,P|156:84|120:100,1,80
52,232,274297,2,0,P|96:248|140:248,1,80
220,160,274642,2,0,P|268:160|296:172,1,80
416,276,274987,2,0,P|444:236|448:192,1,80
444,88,275331,5,0,0:0:0:0:
424,68,275418,1,0,0:0:0:0:
396,56,275504,1,0,0:0:0:0:
368,52,275590,1,0,0:0:0:0:
340,56,275676,2,0,P|296:72|272:96,1,80
232,264,276021,2,0,P|276:248|300:224,1,80
216,96,276538,1,0,0:0:0:0:
132,64,276711,6,0,L|48:24,1,80
72,152,277056,2,0,L|156:192,1,80
136,320,277400,2,0,P|188:316|228:288,1,80
360,288,277745,2,0,P|344:224|324:204,1,80
224,152,278090,5,0,0:0:0:0:
232,124,278176,1,0,0:0:0:0:
256,96,278263,1,0,0:0:0:0:
284,84,278349,1,0,0:0:0:0:
316,80,278435,2,0,P|360:80|400:96,1,80
484,168,278780,1,0,0:0:0:0:
448,292,278952,1,0,0:0:0:0:
448,292,279038,1,0,0:0:0:0:
448,292,279125,1,0,0:0:0:0:
