osu file format v13

[General]
AudioFilename: Dixie Flatline feat. Mew-Stella.mp3
AudioLeadIn: 0
PreviewTime: 46711
Countdown: 0
SampleSet: Soft
StackLeniency: 0.7
Mode: 0
LetterboxInBreaks: 1
WidescreenStoryboard: 1

[Editor]
Bookmarks: 3607,25331,43952,47400,68780,91883,134297,157056,179814,200159,202228,221194,247745,279125
DistanceSpacing: 1.2
BeatDivisor: 4
GridSize: 4
TimelineZoom: 1

[Metadata]
Title:Stella
TitleUnicode:ステラ
Artist:Dixie Flatline ft. Mew
ArtistUnicode:Dixie Flatline ft. Mew
Creator:Indeed
Version:Hard
Source:
Tags:vocaloid
BeatmapID:464091
BeatmapSetID:195607

[Difficulty]
HPDrainRate:5
CircleSize:4
OverallDifficulty:5
ApproachRate:7.5
SliderMultiplier:1.4
SliderTickRate:1

[Events]
//Background and Video events
0,0,"stella bg.jpg",0,0
//Break Periods
2,179841,199334
//Storyboard Layer 0 (Background)
//Storyboard Layer 1 (Fail)
//Storyboard Layer 2 (Pass)
//Storyboard Layer 3 (Foreground)
//Storyboard Sound Samples
//Background Colour Transformations
3,100,163,162,255

[TimingPoints]
3263,344.827586206897,4,2,0,45,1,0
3607,-100,4,2,0,45,0,0
25331,-100,4,2,0,50,0,0
47400,-100,4,2,0,75,0,1
69469,-100,4,2,0,60,0,0
91538,-100,4,2,0,45,0,0
135676,-100,4,2,0,75,0,1
157745,-100,4,2,0,60,0,0
202573,-125,4,2,0,60,0,0
212918,-100,4,2,0,60,0,0
223952,-100,4,2,0,75,0,1
246021,-100,4,2,0,65,0,0

[HitObjects]
408,80,3607,5,0,0:0:0:0:
268,68,3952,2,0,P|280:148|332:188,1,140
456,228,4642,2,0,P|412:292|336:304,1,140
216,332,5331,2,0,P|192:256|220:192,1,140
260,132,5849,1,0,0:0:0:0:
320,76,6021,6,0,P|252:48|188:92,1,140
120,44,6538,2,0,B|88:120|156:152|160:176|160:176|152:192,1,140
80,204,7056,2,0,B|136:256|136:256|156:288|144:328,1,140
344,340,7745,2,0,L|316:320,3,35,0|0|0|0,0:0|0:0|0:0|0:0,0:0:0:0:
280,296,8090,1,0,0:0:0:0:
280,296,8435,1,0,0:0:0:0:
352,88,9125,6,0,P|420:132|496:132,2,140,0|0|0,0:0|0:0|0:0,0:0:0:0:
272,236,10159,2,0,P|212:188|140:196,1,140
48,56,10849,2,0,P|44:140|80:200,1,140
124,252,11366,1,0,0:0:0:0:
100,332,11538,2,0,P|168:328|208:268,1,140
184,192,12056,2,0,P|240:180|312:232,1,140
376,312,12745,2,0,P|431:352|498:342,1,140
452,272,13263,6,0,L|460:232,3,35,0|0|0|0,0:0|0:0|0:0|0:0,0:0:0:0:
468,196,13607,1,0,0:0:0:0:
468,196,13952,1,0,0:0:0:0:
368,24,14642,6,0,P|308:76|292:136,1,140
280,300,15331,1,0,0:0:0:0:
128,372,15676,2,0,P|96:284|116:236,1,140
172,88,16366,1,0,0:0:0:0:
172,88,16711,1,0,0:0:0:0:
336,44,17056,2,0,B|312:92|312:92|344:136|344:180,1,140
260,156,17573,2,0,B|276:172|268:244|268:244|280:296,1,140
336,352,18090,2,0,B|372:308|352:252|352:252|396:244,1,140
464,100,18780,6,0,L|440:136,3,35,0|0|0|0,0:0|0:0|0:0|0:0,0:0:0:0:
420,164,19125,1,0,0:0:0:0:
420,164,19469,1,0,0:0:0:0:
380,340,20159,6,0,P|292:328|268:272,1,140
176,148,20849,1,0,0:0:0:0:
32,64,21194,2,0,P|4:148|24:208,1,140
100,340,21883,2,0,P|128:264|116:204,1,140
100,124,22400,1,0,0:0:0:0:
156,52,22573,2,0,P|192:88|180:176,1,140
180,204,23004,2,0,P|192:272|232:304,1,105
432,300,23607,1,0,0:0:0:0:
432,300,23952,1,0,0:0:0:0:
388,84,24814,6,0,L|460:24,2,70,0|0|0,0:0|0:0|0:0,0:0:0:0:
312,160,25331,2,0,P|264:220|196:240,1,140
120,240,25849,1,0,0:0:0:0:
48,88,26194,1,0,0:0:0:0:
20,168,26366,2,0,P|96:168|128:100,1,140
156,40,26883,1,0,0:0:0:0:
236,64,27056,2,0,L|304:104,1,70
296,184,27400,2,0,L|368:224,1,70
432,260,27745,5,0,0:0:0:0:
432,260,27918,1,0,0:0:0:0:
476,332,28090,2,0,P|404:344|356:288,1,140
288,344,28607,2,0,B|264:296|292:248|292:248|240:252,1,140
196,316,29125,2,0,P|168:248|200:184,1,140
76,68,29814,6,0,L|112:100,3,35,0|0|0|0,0:0|0:0|0:0|0:0,0:0:0:0:
132,120,30159,1,0,0:0:0:0:
132,120,30504,1,0,0:0:0:0:
284,48,30849,2,0,P|340:96|404:88,1,140
484,64,31366,1,0,0:0:0:0:
404,184,31711,1,0,0:0:0:0:
484,148,31883,2,0,P|484:220|432:264,1,140
352,252,32400,2,0,P|278:234|208:248,1,140
136,276,32918,6,0,P|120:316|120:348,2,70,0|0|0,0:0|0:0|0:0,0:0:0:0:
132,192,33435,1,0,0:0:0:0:
48,176,33607,2,0,P|92:116|160:112,1,140
208,44,34125,2,0,B|256:92|228:152|228:152|256:168,1,140
256,248,34642,2,0,P|320:216|328:152,1,140
456,48,35331,6,0,L|424:84,3,35,0|0|0|0,0:0|0:0|0:0|0:0,0:0:0:0:
404,108,35676,1,0,0:0:0:0:
404,108,36021,1,0,0:0:0:0:
440,272,36366,6,0,P|380:332|312:320,1,140
248,304,36883,1,0,0:0:0:0:
92,244,37228,1,0,0:0:0:0:
32,188,37400,2,0,P|96:160|164:208,1,140
232,220,37918,2,0,B|260:172|192:116|220:72,1,140
280,32,38435,2,0,L|352:64,1,70
420,92,38780,2,0,L|388:164,1,70
432,228,39125,6,0,P|364:240|312:184,1,140
276,120,39642,2,0,P|240:76|208:60,1,70
148,44,39987,1,0,0:0:0:0:
64,32,40159,2,0,P|92:116|140:128,1,140
72,284,40849,6,0,L|104:252,3,35,0|0|0|0,0:0|0:0|0:0|0:0,0:0:0:0:
124,228,41194,1,0,0:0:0:0:
124,228,41538,1,0,0:0:0:0:
264,324,41883,6,0,P|324:280|384:300,1,140
456,340,42400,1,0,0:0:0:0:
368,196,42745,1,0,0:0:0:0:
448,220,42918,2,0,P|436:140|372:120,1,140
304,116,43435,1,0,0:0:0:0:
232,72,43607,2,0,L|152:40,1,70
156,128,43952,2,0,L|84:100,1,70
80,188,44297,2,0,L|8:160,1,70
256,192,44642,12,0,46366,0:0:0:0:
408,56,47400,6,0,L|380:148,1,70
364,204,47745,1,0,0:0:0:0:
364,204,47918,1,0,0:0:0:0:
412,272,48090,2,0,P|336:284|284:224,1,140
240,176,48607,1,0,0:0:0:0:
192,108,48780,2,0,P|136:68|69:79,1,140
116,148,49297,1,0,0:0:0:0:
72,220,49469,2,0,L|24:292,1,70
116,292,49814,2,0,L|72:360,1,70
160,364,50159,6,0,P|240:344|268:276,1,140
340,340,50676,2,0,P|344:264|292:212,1,140
220,220,51194,2,0,P|244:152|316:136,1,140
388,132,51711,1,0,0:0:0:0:
420,52,51883,2,0,L|336:64,1,70
304,132,52228,2,0,L|220:144,1,70
220,224,52573,2,0,L|136:232,1,70
108,232,52831,1,0,0:0:0:0:
64,232,52918,6,0,P|28:164|48:96,1,140
88,36,53435,1,0,0:0:0:0:
168,56,53607,2,0,L|240:88,1,70
176,148,53952,2,0,L|244:180,1,70
256,260,54297,2,0,P|316:220|312:144,1,140
452,56,54987,5,0,0:0:0:0:
452,56,55331,1,0,0:0:0:0:
368,204,55676,2,0,L|332:268,1,70
296,340,56021,1,0,0:0:0:0:
212,336,56194,2,0,P|140:296|136:228,1,140
52,216,56711,2,0,P|104:164|184:176,1,140
288,52,57400,6,0,L|364:52,1,70
348,136,57745,2,0,L|432:136,1,70
472,200,58090,2,0,L|408:256,1,70
404,328,58435,2,0,P|344:288|348:216,1,140
256,224,58952,1,0,0:0:0:0:
169,225,59125,2,0,P|165:292|108:328,1,140
88,248,59642,1,0,0:0:0:0:
68,168,59814,2,0,L|28:104,1,70
76,36,60159,2,0,L|120:108,1,70
184,140,60504,6,0,P|208:72|272:44,1,140
348,40,61021,1,0,0:0:0:0:
432,32,61194,2,0,P|404:108|340:120,1,140
268,112,61711,2,0,B|260:172|316:204|316:204|324:244,1,140
368,304,62228,2,0,B|332:352|244:268|216:324,1,140
68,328,62918,6,0,P|80:272|96:256,1,70
44,192,63263,2,0,P|80:172|120:172,1,70
124,88,63607,2,0,P|168:104|184:128,1,70
200,160,63866,1,0,0:0:0:0:
212,200,63952,2,0,P|248:264|316:288,1,140
388,308,64469,5,0,0:0:0:0:
448,248,64642,2,0,L|492:184,1,70
444,120,64987,1,0,0:0:0:0:
444,120,65159,2,0,P|396:168|324:176,1,140
244,172,65676,1,0,0:0:0:0:
128,52,66021,6,0,L|80:116,1,70
156,156,66366,2,0,L|108:220,1,70
32,224,66711,2,0,P|72:292|128:296,1,140
192,348,67228,2,0,B|232:292|192:240|192:240|204:208,1,140
232,140,67745,1,0,0:0:0:0:
192,68,67918,2,0,P|260:60|312:104,1,140
364,168,68435,1,0,0:0:0:0:
428,324,68780,6,0,L|476:268,1,70
404,224,69125,2,0,L|356:160,1,70
396,92,69469,2,0,P|324:88|280:148,1,140
180,272,70159,2,0,P|252:276|296:216,1,140
136,164,70849,2,0,P|64:160|20:220,1,140
180,272,71538,2,0,P|252:276|296:216,1,140
460,224,72228,6,0,B|432:152|408:120|408:120|416:92,1,140
248,92,72918,2,0,B|254:114|254:114|230:146|202:218,1,140
328,328,73607,2,0,B|368:280|288:216|352:172,1,140
172,248,74297,6,0,P|120:212|112:192,2,70,0|0|0,0:0|0:0|0:0,0:0:0:0:
220,316,74814,2,0,P|256:248|232:192,1,140
168,144,75331,1,0,0:0:0:0:
316,64,75676,6,0,P|352:88|364:116,2,70,0|0|0,0:0|0:0|0:0,0:0:0:0:
248,16,76194,2,0,P|240:92|288:140,1,140
344,188,76711,1,0,0:0:0:0:
232,312,77056,6,0,P|272:320|296:336,2,70,0|0|0,0:0|0:0|0:0,0:0:0:0:
160,356,77573,2,0,P|152:280|200:232,1,140
264,192,78090,1,0,0:0:0:0:
396,88,78435,6,0,L|456:132,1,70
400,196,78780,2,0,L|464:244,1,70
496,312,79125,2,0,B|432:332|388:284|388:284|340:288,1,140
200,316,79814,6,0,L|144:272,1,70,0|0,0:0|0:0,0:0:0:0:
212,224,80159,2,0,L|156:180,1,70
72,184,80504,2,0,P|96:124|168:100,1,140
256,96,81021,1,0,0:0:0:0:
349,99,81194,2,0,P|413:121|440:184,1,140
388,344,81883,6,0,P|328:296|324:228,1,140
190,236,82573,2,0,P|179:304|124:344,1,140
84,180,83263,2,0,P|120:120|196:112,1,140
327,108,83952,2,0,P|393:121|428:180,1,140
376,324,84642,2,0,P|308:288|296:220,1,140
164,124,85331,6,0,P|116:104|100:80,2,70,0|0|0,0:0|0:0|0:0,0:0:0:0:
232,72,85849,2,0,P|248:148|208:200,1,140
144,240,86366,1,0,0:0:0:0:
308,276,86711,6,0,P|340:296|352:324,2,70,0|0|0,0:0|0:0|0:0,0:0:0:0:
236,320,87228,2,0,P|228:240|276:196,1,140
340,164,87745,1,0,0:0:0:0:
208,60,88090,6,0,P|180:40|168:8,2,70,0|0|0,0:0|0:0|0:0,0:0:0:0:
292,80,88607,2,0,P|244:144|172:136,1,140
104,132,89125,1,0,0:0:0:0:
88,300,89469,6,0,L|156:276,1,70
208,344,89814,2,0,L|280:316,1,70
356,340,90159,2,0,P|348:272|272:240,1,140
252,224,90590,2,0,L|224:196|224:196,3,35,0|0|0|0,0:0|0:0|0:0|0:0,0:0:0:0:
192,156,91194,1,0,0:0:0:0:
112,128,91366,1,0,0:0:0:0:
112,128,91452,1,0,0:0:0:0:
112,128,91538,2,0,P|132:92|168:76,1,70
232,40,91883,5,0,0:0:0:0:
392,84,92228,2,0,P|356:160|296:172,1,140
228,324,92918,2,0,P|200:240|224:188,1,140
260,124,93435,1,0,0:0:0:0:
344,136,93607,2,0,P|320:56|264:44,1,140
188,48,94125,1,0,0:0:0:0:
104,40,94297,2,0,P|124:104|196:132,1,140
184,216,94814,2,0,P|121:243|101:308,1,140
184,296,95331,2,0,B|236:316|236:316|288:284|336:316,1,140
456,208,96021,6,0,L|476:136,1,70
392,128,96366,2,0,L|396:56,1,70,0|0,0:0|0:0,0:0:0:0:
316,84,96711,2,0,L|292:16,1,70
228,72,97056,2,0,L|176:16,1,70
96,24,97400,6,0,B|104:60|132:92|132:92|112:128|104:160,1,140
72,224,97918,1,0,0:0:0:0:
16,284,98090,2,0,P|84:304|140:264,1,140
264,156,98780,1,0,0:0:0:0:
328,208,98952,1,0,0:0:0:0:
332,292,99125,2,0,P|396:264|408:192,1,140
408,116,99642,1,0,0:0:0:0:
468,60,99814,6,0,B|456:36|416:20|376:32|356:48|356:48|336:36,1,140
272,84,100331,2,0,B|332:116|332:116|284:144|268:188,1,140
292,248,100849,2,0,P|212:228|192:176,1,140
76,52,101538,6,0,L|124:108,1,70
164,176,101883,2,0,L|96:236,1,70
60,288,102228,2,0,L|144:320,1,70
168,324,102487,1,0,0:0:0:0:
208,332,102573,2,0,P|260:340|352:312,1,140
440,180,103263,5,0,0:0:0:0:
384,120,103435,1,0,0:0:0:0:
396,36,103607,2,0,P|320:64|300:128,1,140
304,200,104125,1,0,0:0:0:0:
360,264,104297,2,0,P|296:288|248:260,1,105
228,256,104642,2,0,B|200:240|208:188|208:188|136:160,1,140
68,140,105159,1,0,0:0:0:0:
4,88,105331,6,0,P|64:56|132:88,1,140
196,32,105849,2,0,B|228:64|212:112|212:112|280:136,1,140
308,200,106366,2,0,P|348:144|324:76,1,140
420,220,107056,6,0,L|460:284,1,70
400,344,107400,2,0,L|360:280,1,70
292,328,107745,2,0,L|248:264,1,70
228,236,108004,1,0,0:0:0:0:
200,204,108090,2,0,B|152:156|92:196|92:196|80:160,1,140
208,60,108780,6,0,P|304:56|336:96,1,140
372,156,109297,1,0,0:0:0:0:
456,140,109469,2,0,B|464:224|392:240|392:240|396:280,1,140
396,332,109987,1,0,0:0:0:0:
320,368,110159,2,0,B|292:320|324:276|324:276|272:260,1,140
200,240,110676,1,0,0:0:0:0:
116,252,110849,2,0,L|44:280,2,70,0|0|0,0:0|0:0|0:0,0:0:0:0:
104,168,111366,2,0,L|20:168,2,70,0|0|0,0:0|0:0|0:0,0:0:0:0:
120,84,111883,2,0,L|48:56,2,70,0|0|0,0:0|0:0|0:0,0:0:0:0:
288,56,112573,6,0,L|260:136,1,70
240,204,112918,1,0,0:0:0:0:
212,284,113090,1,0,0:0:0:0:
284,328,113263,1,0,0:0:0:0:
352,276,113435,1,0,0:0:0:0:
328,196,113607,6,0,P|400:204|436:264,1,140
352,276,114125,2,0,P|391:331|458:336,1,140
436,256,114642,2,0,L|472:112,1,140
408,60,115159,2,0,L|372:208,1,140
328,268,115676,2,0,P|296:232|296:192,1,70
212,188,116021,2,0,P|244:136|276:124,1,70
312,76,116366,2,0,B|264:28|200:64|200:64|172:48,1,140
116,8,116883,2,0,P|108:84|164:136,1,140
232,128,117400,2,0,P|205:193|122:209,1,140
272,324,118090,6,0,L|344:308,1,70
424,292,118435,1,0,0:0:0:0:
504,268,118607,1,0,0:0:0:0:
440,212,118780,1,0,0:0:0:0:
360,232,118952,1,0,0:0:0:0:
360,232,119038,1,0,0:0:0:0:
360,232,119125,2,0,P|308:216|288:192,1,70
232,152,119469,5,0,0:0:0:0:
168,96,119642,1,0,0:0:0:0:
112,36,119814,2,0,P|88:72|92:120,1,70
96,180,120159,1,0,0:0:0:0:
52,252,120331,1,0,0:0:0:0:
28,332,120504,2,0,P|64:336|108:312,1,70
172,288,120849,1,0,0:0:0:0:
248,320,121021,1,0,0:0:0:0:
332,320,121194,6,0,P|324:276|296:252,1,70
236,216,121538,2,0,P|256:192|300:180,1,70
372,204,121883,2,0,P|364:132|304:96,1,140
228,88,122400,2,0,L|88:56,1,140
8,48,122918,2,0,B|4:120|80:140|80:140|84:164,1,140
156,304,123607,6,0,L|216:352,1,70
301,347,123952,2,0,L|356:304,1,70
256,276,124297,2,0,L|256:192,1,70
256,164,124556,1,0,0:0:0:0:
256,124,124642,2,0,P|320:100|384:152,1,140
460,156,125159,6,0,P|420:212|352:216,1,140
336,300,125676,1,0,0:0:0:0:
420,308,125849,1,0,0:0:0:0:
500,340,126021,2,0,P|500:280|480:252,1,70
436,216,126366,2,0,P|404:184|400:152,1,70
456,96,126711,2,0,P|376:76|328:112,1,140
280,172,127228,5,0,0:0:0:0:
248,252,127400,1,0,0:0:0:0:
100,336,127745,1,0,0:0:0:0:
24,296,127918,2,0,P|88:252|156:272,1,140
204,324,128435,2,0,P|236:256|196:200,1,140
84,88,129125,6,0,L|144:52,1,70
208,108,129469,2,0,L|272:156,1,70
316,84,129814,2,0,L|392:108,1,70
424,116,130073,1,0,0:0:0:0:
460,136,130159,6,0,B|484:184|484:184|448:216|472:288,1,140
500,340,130676,2,0,B|436:364|392:304|392:304|360:304,1,140
312,356,131194,2,0,P|292:296|336:232,1,140
404,192,131711,2,0,B|368:144|304:156|304:156|276:112,1,140
320,56,132228,2,0,P|260:56|240:68,1,70
168,52,132573,2,0,P|180:104|200:128,1,70
232,188,132918,6,2,P|256:224|260:264,1,70
244,332,133263,1,0,0:0:0:0:
168,364,133435,1,0,0:0:0:0:
104,312,133607,1,0,0:0:0:0:
140,236,133780,1,0,0:0:0:0:
68,196,133952,2,0,P|91:166|136:156,1,70
192,108,134297,6,0,L|232:80,3,35,0|0|0|0,0:0|0:0|0:0|0:0,0:0:0:0:
264,88,134642,2,0,L|296:116,3,35,0|0|0|0,0:0|0:0|0:0|0:0,0:0:0:0:
332,108,134987,2,0,L|372:80,3,35,0|0|0|0,0:0|0:0|0:0|0:0,0:0:0:0:
404,88,135332,2,0,L|436:116,3,35,0|0|0|0,0:0|0:0|0:0|0:0,0:0:0:0:
456,144,135676,6,0,P|468:196|432:288,1,140
376,332,136194,1,0,0:0:0:0:
292,344,136366,2,0,P|312:280|380:248,1,140
456,224,136883,1,0,0:0:0:0:
456,144,137056,2,0,L|424:80,1,70
352,124,137400,2,0,L|316:56,1,70
252,12,137745,2,0,B|220:72|260:120|260:120|244:156,1,140
220,220,138263,1,0,0:0:0:0:
244,300,138435,6,0,P|176:296|140:232,1,140
56,244,138952,2,0,B|56:184|112:160|112:160|96:120,1,140
36,76,139469,2,0,B|48:48|96:28|144:56|144:56|176:68,1,140
312,132,140159,1,0,0:0:0:0:
396,120,140331,6,0,P|380:80|348:56,2,70,0|0|0,0:0|0:0|0:0,0:0:0:0:
464,172,140849,2,0,P|424:200|388:200,1,70
364,212,141107,1,0,0:0:0:0:
324,220,141194,2,0,P|276:232|232:308,1,140
160,348,141711,2,0,B|144:296|172:236|172:236|140:216,1,140
72,192,142228,1,0,0:0:0:0:
16,132,142400,2,0,P|92:112|148:152,1,140
200,200,142918,2,0,P|224:160|220:128,1,70
252,60,143263,6,0,L|328:76,1,70
308,156,143607,2,0,L|412:180,1,105
452,192,143952,2,0,B|476:212|476:212|412:236|416:308,1,140
500,296,144469,1,0,0:0:0:0:
340,344,144814,1,0,0:0:0:0:
256,348,144987,2,0,B|248:320|272:260|328:256|328:256|320:216,1,140
160,264,145676,6,0,L|96:216,1,70
120,140,146021,2,0,L|184:188,1,70
252,148,146366,2,0,L|188:100,1,70,0|0,0:0|0:0,0:0:0:0:
164,80,146625,1,0,0:0:0:0:
128,56,146711,2,0,P|48:52|24:112,1,140
20,180,147228,1,0,0:0:0:0:
56,256,147400,2,0,P|112:304|184:308,1,140
248,356,147918,2,0,P|256:276|208:232,1,140
152,184,148435,1,0,0:0:0:0:
8,100,148780,6,0,P|60:52|132:68,1,140
204,92,149297,1,0,0:0:0:0:
260,28,149469,2,0,P|292:100|260:160,1,140
200,204,149987,2,0,B|244:252|300:232|300:232|328:256,1,140
364,324,150504,2,0,B|436:308|364:216|460:212,1,140
344,72,151194,6,0,L|272:56,1,70,0|0,0:0|0:0,0:0:0:0:
252,136,151538,2,0,L|176:148,1,70
188,232,151883,2,0,L|124:268,1,70
84,276,152142,1,0,0:0:0:0:
44,268,152228,2,0,P|20:184|48:140,1,140
104,84,152745,1,0,0:0:0:0:
104,84,152918,2,0,P|128:168|100:212,1,140
44,268,153435,1,0,0:0:0:0:
116,312,153607,2,0,L|188:344,1,70
232,272,153952,2,0,L|296:300,1,70
376,328,154297,5,0,0:0:0:0:
456,300,154469,1,0,0:0:0:0:
488,224,154642,1,0,0:0:0:0:
460,144,154814,1,0,0:0:0:0:
436,64,154987,2,0,P|380:116|388:180,1,140
324,232,155504,2,0,B|296:164|296:164|244:152|236:124,1,140
212,52,156021,1,0,0:0:0:0:
144,0,156194,2,0,P|124:68|184:128,1,140
400,40,157056,6,0,L|456:92,1,70
388,144,157400,2,0,L|444:196,1,70
376,248,157745,2,0,P|316:304|248:292,1,140
96,276,158435,2,0,P|156:220|224:232,1,140
284,72,159125,2,0,P|312:148|280:208,1,140
204,344,159814,2,0,P|176:268|208:208,1,140
40,156,160504,6,0,L|172:88,1,140
332,92,161194,2,0,L|468:164,1,140
456,244,161883,2,0,L|332:309,1,140
176,248,162573,2,0,P|148:284|144:320,2,70,0|0|0,0:0|0:0|0:0,0:0:0:0:
260,240,163090,2,0,P|212:172|144:180,1,140
400,88,163952,6,0,P|416:52|456:28,2,70,0|0|0,0:0|0:0|0:0,0:0:0:0:
324,120,164469,2,0,P|376:168|444:156,1,140
192,196,165331,6,0,P|152:172|136:140,2,70,0|0|0,0:0|0:0|0:0,0:0:0:0:
276,180,165849,2,0,P|256:256|200:276,1,140
52,72,166711,6,0,P|20:116|20:144,2,70,0|0|0,0:0|0:0|0:0,0:0:0:0:
116,16,167228,2,0,P|136:88|96:140,1,140
292,304,168090,6,0,L|344:240,1,70
404,300,168435,2,0,L|428:224,1,70
500,196,168780,2,0,P|444:152|376:168,1,140
252,56,169469,2,0,P|236:128|292:188,1,140
224,340,170159,2,0,P|240:268|184:208,1,140
172,192,170590,2,0,L|144:172,2,35,0|0|0,0:0|0:0|0:0,0:0:0:0:
143,171,170849,1,0,0:0:0:0:
143,171,171194,1,0,0:0:0:0:
272,64,171538,6,0,B|320:88|320:88|368:52|428:92,1,140
476,120,172056,1,0,0:0:0:0:
416,180,172228,2,0,L|308:292,1,140
158,201,172918,6,0,P|186:263|156:324,1,140
104,264,173434,1,0,0:0:0:0:
49,322,173607,2,0,P|21:260|52:200,1,140
108,136,174125,1,0,0:0:0:0:
68,64,174297,6,0,P|140:56|188:104,1,140
325,99,174987,2,0,P|376:54|444:64,1,140
404,228,175676,2,0,P|384:308|324:332,1,140
175,331,176366,2,0,P|117:295|108:228,1,140
256,312,177056,2,0,L|256:168,1,140
140,52,177745,2,0,B|120:128|120:128|72:148|64:176,1,140
124,324,178435,6,0,L|196:344,1,70
224,264,178780,2,0,L|304:256,1,70
296,172,179125,2,0,L|368:148,1,70
324,76,179469,2,0,L|368:12,1,70
256,192,200159,12,0,201883,0:0:0:0:
384,104,202573,6,0,P|440:200|396:308,1,224
128,280,203952,2,0,P|72:184|116:76,1,224
300,272,205331,6,0,B|360:196|360:196|440:172|448:112,1,224
212,112,206711,2,0,B|152:188|152:188|72:212|64:272,1,224
356,336,208090,6,0,L|428:236,1,112
448,112,208780,2,0,P|360:128|344:152,1,112
168,140,209469,6,0,P|124:106|69:110,1,112
96,244,210159,2,0,L|161:334,1,112
268,252,210849,6,0,L|352:172,1,112
244,132,211538,2,0,L|160:212,1,112
52,284,212228,2,0,P|112:312|164:296,1,112
316,348,212918,6,0,P|352:328|372:288,1,70
412,232,213263,1,0,0:0:0:0:
480,184,213435,2,0,P|424:152|352:176,1,140
288,224,213952,2,0,B|252:160|300:108|300:108|276:88,1,140
128,48,214642,2,0,P|104:92|80:104,1,70
20,148,214987,2,0,P|52:176|88:184,1,70
120,256,215331,2,0,P|148:236|160:192,1,70
208,132,215676,6,0,P|260:88|272:88,1,70
340,80,216021,1,0,0:0:0:0:
404,24,216194,2,0,P|432:88|392:152,1,140
320,160,216711,2,0,P|364:220|436:220,1,140
304,340,217400,2,0,L|252:288,1,70
184,336,217745,2,0,L|156:260,1,70,0|0,0:0|0:0,0:0:0:0:
80,300,218090,2,0,L|84:216,1,70
72,148,218435,6,0,P|108:120|136:112,1,70
208,152,218780,2,0,P|172:180|144:188,1,70
304,152,219125,6,0,P|330:174|362:187,1,70
436,144,219470,2,0,P|409:121|377:108,1,70
304,44,219814,6,0,P|260:76|256:100,1,70
212,44,220159,2,0,P|256:76|260:100,1,70
264,172,220504,2,0,P|276:224|288:236,1,70
368,248,220849,2,0,P|356:196|344:184,1,70
256,192,221194,12,0,222918,0:0:0:0:
84,88,223952,6,0,L|136:140,1,70
196,192,224297,1,0,0:0:0:0:
196,192,224469,1,0,0:0:0:0:
188,276,224642,2,0,P|264:248|280:196,1,140
276,112,225159,1,0,0:0:0:0:
208,60,225331,2,0,P|264:28|340:56,1,140
396,104,225849,1,0,0:0:0:0:
416,184,226021,2,0,L|480:232,1,70
404,272,226366,2,0,L|464:320,1,70
384,352,226711,6,0,B|324:304|324:304|276:296|260:276,1,140
220,212,227228,2,0,P|184:272|212:340,1,140
124,348,227745,2,0,B|104:312|100:280|116:228|116:228|88:212,1,140
116,52,228435,2,0,L|184:32,1,70
236,96,228780,2,0,L|304:76,1,70
384,60,229125,2,0,L|460:88,1,70
488,104,229383,1,0,0:0:0:0:
492,136,229469,6,0,P|456:172|464:260,1,140
488,324,229987,1,0,0:0:0:0:
408,300,230159,2,0,L|276:248,1,140
216,308,230676,2,0,P|192:264|196:236,1,70
112,224,231021,2,0,P|140:172|156:164,1,70
216,116,231366,1,0,0:0:0:0:
208,32,231538,6,0,P|276:52|300:112,1,140
468,124,232228,2,0,B|468:160|404:192|404:192|432:220|452:248,1,140
504,268,232745,2,0,P|456:308|380:288,1,140
312,336,233263,2,0,B|288:292|300:248|328:220|328:220|296:200,1,140
212,80,233952,2,0,L|144:48,1,70
128,132,234297,2,0,L|48:124,1,70
80,208,234642,2,0,L|8:228,1,70
108,328,234987,6,0,P|168:288|164:216,1,140
256,224,235504,1,0,0:0:0:0:
343,225,235677,2,0,P|347:292|404:328,1,140
424,248,236194,1,0,0:0:0:0:
444,168,236366,2,0,L|484:104,1,70
436,36,236711,2,0,L|392:108,1,70
328,140,237056,6,0,P|304:72|240:44,1,140
164,40,237573,1,0,0:0:0:0:
80,32,237746,2,0,P|108:108|172:120,1,140
244,112,238263,2,0,B|252:172|196:204|196:204|188:244,1,140
144,304,238780,2,0,B|180:352|268:268|296:324,1,140
444,328,239470,6,0,P|432:272|416:256,1,70
468,192,239815,2,0,P|432:172|392:172,1,70
388,88,240159,2,0,P|344:104|328:128,1,70
312,160,240418,1,0,0:0:0:0:
300,200,240504,2,0,P|264:264|196:288,1,140
124,308,241021,5,0,0:0:0:0:
64,248,241194,2,0,L|20:184,1,70
68,120,241539,1,0,0:0:0:0:
68,120,241711,2,0,P|116:168|188:176,1,140
268,172,242228,1,0,0:0:0:0:
384,52,242573,6,0,L|432:116,1,70
356,156,242918,2,0,L|404:220,1,70
480,224,243263,2,0,P|440:292|384:296,1,140
320,348,243780,2,0,B|280:292|320:240|320:240|308:208,1,140
280,140,244297,1,0,0:0:0:0:
320,68,244470,2,0,P|252:60|200:104,1,140
256,192,244987,12,0,247400,0:0:0:0:
396,88,247745,6,0,L|372:120,3,35,0|0|0|0,0:0|0:0|0:0|0:0,0:0:0:0:
348,152,248090,1,0,0:0:0:0:
348,152,248435,1,0,0:0:0:0:
400,336,248780,2,0,P|320:316|304:264,1,140
264,192,249297,1,0,0:0:0:0:
220,120,249469,2,0,P|190:59|123:51,1,140
48,92,249987,1,0,0:0:0:0:
56,176,250159,6,0,L|120:232,1,70
80,300,250504,2,0,L|140:352,1,70
184,280,250849,6,0,L|248:240,1,70
308,296,251194,2,0,L|380:248,1,70
400,236,251452,1,0,0:0:0:0:
432,208,251538,2,0,P|444:156|384:84,1,140
320,56,252056,1,0,0:0:0:0:
244,20,252228,2,0,P|240:96|288:136,1,140
236,204,252745,1,0,0:0:0:0:
204,280,252918,2,0,L|172:344,1,70
88,332,253263,6,0,L|104:292,3,35,0|0|0|0,0:0|0:0|0:0|0:0,0:0:0:0:
116,260,253607,1,0,0:0:0:0:
116,260,253952,1,0,0:0:0:0:
88,96,254297,2,0,B|136:80|180:160|236:128,1,140
272,200,254814,1,0,0:0:0:0:
456,300,254987,2,0,B|408:316|364:236|308:268,1,140
256,308,255504,5,0,0:0:0:0:
256,308,255590,1,0,0:0:0:0:
256,308,255676,2,0,P|208:292|192:272,1,70
132,220,256021,2,0,L|100:192,3,35,0|0|0|0,0:0|0:0|0:0|0:0,0:0:0:0:
76,168,256366,1,0,0:0:0:0:
76,168,256711,1,0,0:0:0:0:
204,60,257056,1,0,0:0:0:0:
256,192,257400,12,0,259814,0:0:0:0:
388,68,260159,5,0,0:0:0:0:
456,116,260331,1,0,0:0:0:0:
440,200,260504,1,0,0:0:0:0:
356,200,260676,1,0,0:0:0:0:
324,124,260849,6,0,L|252:112,1,70
216,188,261194,2,0,L|144:200,1,70
216,284,261538,2,0,L|144:272,1,70
324,340,261883,2,0,L|252:352,1,70
324,340,262228,2,0,L|356:264,1,70
364,236,262487,1,0,0:0:0:0:
380,196,262573,2,0,P|376:116|336:76,1,140
256,192,263263,12,0,265331,0:0:0:0:
96,104,265676,6,0,P|136:120|168:120,1,70
152,36,266021,2,0,P|186:38|218:52,1,70
268,120,266366,2,0,P|308:160|336:168,1,70
360,180,266625,1,0,0:0:0:0:
396,200,266711,2,0,P|428:268|392:320,1,140
324,364,267228,1,0,0:0:0:0:
252,324,267400,2,0,P|180:288|116:288,1,140
40,308,267918,1,0,0:0:0:0:
40,308,268090,1,0,0:0:0:0:
256,192,268435,12,0,270849,0:0:0:0:
424,68,271194,6,0,L|376:132,1,70
304,96,271538,2,0,L|244:168,1,70
176,144,271883,2,0,P|200:220|268:232,1,140
336,240,272400,1,0,0:0:0:0:
410,206,272573,2,0,P|413:273|364:320,1,140
284,348,273090,1,0,0:0:0:0:
284,348,273263,1,0,0:0:0:0:
256,192,273607,12,0,276366,0:0:0:0:
180,180,276711,6,0,L|248:140,1,70
264,64,277056,2,0,P|324:100|328:164,1,140
312,248,277573,1,0,0:0:0:0:
364,316,277745,2,0,P|300:332|236:288,1,140
176,240,278263,1,0,0:0:0:0:
92,228,278435,2,0,L|36:180,1,70
72,104,278780,1,0,0:0:0:0:
124,40,278952,1,0,0:0:0:0:
124,40,279038,1,0,0:0:0:0:
124,40,279125,1,0,0:0:0:0:
