osu file format v14

[General]
AudioFilename: wd.mp3
AudioLeadIn: 0
PreviewTime: 233972
Countdown: 0
SampleSet: Soft
StackLeniency: 0.3
Mode: 0
LetterboxInBreaks: 0
WidescreenStoryboard: 0

[Editor]
DistanceSpacing: 0.8
BeatDivisor: 4
GridSize: 4
TimelineZoom: 1

[Metadata]
Title:Just Be Friends
TitleUnicode:Just Be Friends
Artist:Dixie Flatline feat. Megurine Luka
ArtistUnicode:Dixie Flatline feat. 巡音ルカ
Creator:z1085684963
Version:Best Friend
Source:
Tags:三重の人 mienohito EXIT TUNES PRESENTS Vocaloanthems(ボカロアンセムズ) feat.初音ミク Vocaloanthems Hatsune Miku 初音ミク -Project DIVA- 2nd Suzuki_1112 Ellyu
BeatmapID:1229797
BeatmapSetID:580901

[Difficulty]
HPDrainRate:5
CircleSize:4.5
OverallDifficulty:8
ApproachRate:9.1
SliderMultiplier:1.6
SliderTickRate:1

[Events]
//Background and Video events
0,0,"02(2).jpg",0,0
//Break Periods
//Storyboard Layer 0 (Background)
//Storyboard Layer 1 (Fail)
//Storyboard Layer 2 (Pass)
//Storyboard Layer 3 (Foreground)
//Storyboard Sound Samples

[TimingPoints]
5916,468.75,4,2,0,60,1,0
5916,-100,4,2,0,60,0,0
20916,-66.6666666666667,4,2,0,60,0,1
32634,-80,4,2,0,60,0,1
33572,-100,4,2,0,60,0,1
35212,-66.6666666666667,4,2,0,60,0,1
35447,-100,4,2,0,50,0,0
49509,-90.9090909090909,4,2,0,50,0,0
49978,-83.3333333333333,4,2,0,50,0,0
50916,-100,4,2,0,50,0,0
64509,-90.9090909090909,4,2,0,50,0,0
64978,-83.3333333333333,4,2,0,50,0,0
65447,-100,4,2,0,50,0,0
65916,-100,4,2,0,60,0,0
80916,-100,4,2,0,70,0,0
124509,-90.9090909090909,4,2,0,70,0,0
124978,-83.3333333333333,4,2,0,70,0,0
125447,-76.9230769230769,4,2,0,70,0,0
125916,-100,4,2,0,50,0,0
133416,-100,4,2,0,15,0,0
134353,-100,4,2,0,20,0,0
135291,-100,4,2,0,25,0,0
136228,-100,4,2,0,30,0,0
137169,-100,4,2,0,35,0,0
138103,-100,4,2,0,40,0,0
139041,-100,4,2,0,45,0,0
139978,-66.6666666666667,4,2,0,50,0,0
140916,-100,4,2,0,50,0,0
154509,-90.9090909090909,4,2,0,50,0,0
154978,-83.3333333333333,4,2,0,50,0,0
155447,-100,4,2,0,50,0,0
155916,-100,4,2,0,60,0,0
170916,-100,4,2,0,70,0,0
200916,-200,4,2,0,50,0,0
224353,-200,4,2,0,55,0,0
225291,-200,4,2,0,60,0,0
226228,-200,4,2,0,65,0,0
227166,-200,4,2,0,70,0,0
228103,-200,4,2,0,75,0,0
229041,-200,4,2,0,80,0,0
230916,-100,4,2,0,80,0,0
231853,-100,4,2,0,85,0,0
232791,-100,4,2,0,90,0,0
233962,-100,4,2,0,60,0,1
234666,-100,4,2,0,80,0,0
295603,-100,4,2,0,60,0,0
296541,-100,4,2,0,40,0,0
297478,-100,4,2,0,30,0,0
298416,-100,4,2,0,20,0,0
299353,-100,4,2,0,10,0,0
300291,-100,4,2,0,5,0,0

[Colours]
Combo1 : 255,193,30
Combo2 : 60,255,60
Combo3 : 52,225,239
Combo4 : 0,204,0
Combo5 : 77,77,255
Combo6 : 255,0,0

[HitObjects]
256,192,759,12,0,5447,0:0:0:0:
240,276,5681,5,0,2:0:0:0:
316,316,5916,2,0,L|420:308,2,80,4|0|0,0:0|0:0|1:0,0:0:0:0:
240,276,6619,1,0,0:0:0:0:
240,276,6736,1,0,0:0:0:0:
240,276,6853,2,0,L|160:282,2,80,0|0|0,1:0|0:0|1:0,0:0:0:0:
312,228,7556,1,0,0:0:0:0:
448,252,7791,6,0,P|488:200|468:124,1,120,0|0,1:0|0:0,0:0:0:0:
500,132,8259,2,0,P|448:92|372:112,1,120,0|0,1:0|0:0,0:0:0:0:
376,84,8728,2,0,P|384:44|408:28,1,40,0|0,1:0|0:0,0:0:0:0:
252,96,8962,2,0,P|278:65|307:63,1,40
132,40,9197,1,0,1:0:0:0:
166,20,9314,1,0,0:0:0:0:
205,12,9431,1,0,0:0:0:0:
56,244,9666,6,0,L|60:144,2,80,0|0|0,1:0|0:0|1:0,0:0:0:0:
108,308,10369,1,0,0:0:0:0:
116,300,10485,1,0,0:0:0:0:
124,292,10603,2,0,L|120:371,2,80,0|0|0,1:0|0:0|1:0,0:0:0:0:
200,260,11306,1,0,0:0:0:0:
144,128,11541,6,0,P|196:88|272:108,1,120,0|0,1:0|0:0,0:0:0:0:
264,76,12009,2,0,P|304:128|284:204,1,120,0|0,1:0|0:0,0:0:0:0:
288,200,12478,2,0,P|332:212|352:208,1,40,0|0,1:0|0:0,0:0:0:0:
344,292,12712,2,0,P|388:280|403:266,1,40
420,368,12947,2,0,P|472:340|488:320,2,80,0|0|0,1:0|0:0|1:0,0:0:0:0:
188,252,13650,38,0,L|136:256,1,40
120,276,13884,2,0,P|112:232|112:196,1,80,0|0,1:0|0:0,0:0:0:0:
44,140,14353,1,0,1:0:0:0:
188,160,14587,2,0,P|196:116|196:80,1,80,0|0,0:0|1:0,0:0:0:0:
128,24,15056,1,0,0:0:0:0:
128,24,15291,5,0,1:0:0:0:
188,160,15759,1,0,1:0:0:0:
44,140,16228,1,0,1:0:0:0:
44,140,16345,2,0,L|48:192,2,40
120,108,16697,1,0,1:0:0:0:
128,24,16814,1,0,0:0:0:0:
52,56,16931,1,0,0:0:0:0:
188,160,17166,5,0,1:0:0:0:
368,72,17400,2,0,L|420:68,1,40
436,48,17634,2,0,P|444:92|444:128,1,80,0|0,1:0|0:0,0:0:0:0:
488,272,18103,1,0,1:0:0:0:
408,220,18337,2,0,P|400:264|400:300,1,80,0|0,0:0|1:0,0:0:0:0:
472,360,18806,1,0,0:0:0:0:
488,272,19041,5,0,1:0:0:0:
336,164,19509,1,0,1:0:0:0:
319,350,19978,1,0,1:0:0:0:
319,350,20095,2,0,L|368:340,2,40
380,268,20447,5,0,1:0:0:0:
336,164,20681,1,0,0:0:0:0:
222,138,20916,6,0,P|290:166|362:154,1,120.000004577637,4|0,0:0|0:0,0:0:0:0:
364,52,21384,2,0,P|296:24|224:36,1,120.000004577637,8|0,0:0|0:0,0:0:0:0:
250,26,21736,1,0,0:0:0:0:
250,26,21853,1,0,1:0:0:0:
152,60,22087,1,2,0:0:0:0:
72,156,22322,1,8,0:0:0:0:
56,308,22556,70,0,B|156:264|132:340|248:292,1,180.000006866455,2|0,0:0|0:0,0:0:0:0:
292,248,23025,2,0,P|300:184|268:132,2,120.000004577637,0|8|0,0:0|0:0|0:0,0:0:0:0:
304,328,23728,2,0,P|349:365|408:367,1,120.000004577637,0|0,1:0|0:0,0:0:0:0:
500,272,24197,1,8,0:0:0:0:
460,160,24431,1,0,0:0:0:0:
488,48,24666,6,0,P|488:108|437:178,1,120.000004577637,0|0,1:0|0:0,0:0:0:0:
344,120,25134,2,0,P|344:60|395:-10,1,120.000004577637,8|0,0:0|0:0,0:0:0:0:
372,8,25486,1,0,0:0:0:0:
372,8,25603,1,0,1:0:0:0:
384,200,25837,1,2,0:0:0:0:
240,288,26072,1,8,0:0:0:0:
251,96,26306,70,0,B|216:64|216:64|76:56,1,180.000006866455,2|0,0:0|0:0,0:0:0:0:
28,112,26775,2,0,P|8:40|36:-4,2,120.000004577637,0|8|0,0:0|0:0|0:0,0:0:0:0:
104,136,27478,2,0,P|124:208|96:252,1,120.000004577637,0|0,1:0|0:0,0:0:0:0:
24,316,27947,1,8,0:0:0:0:
200,288,28181,1,0,0:0:0:0:
364,360,28416,6,0,P|440:364|480:328,1,120.000004577637,0|0,1:0|0:0,0:0:0:0:
452,220,28884,2,0,P|393:210|343:240,1,120.000004577637,8|0,0:0|0:0,0:0:0:0:
343,240,29236,1,0,0:0:0:0:
343,240,29353,1,0,1:0:0:0:
264,312,29587,1,2,0:0:0:0:
124,292,29822,1,8,0:0:0:0:
44,156,30056,70,0,P|8:76|76:16,1,180.000006866455,2|0,0:0|0:0,0:0:0:0:
84,92,30525,2,0,L|208:88,2,120.000004577637,0|8|0,0:0|0:0|0:0,0:0:0:0:
308,88,31228,2,0,L|428:92,1,120.000004577637,0|0,1:0|0:0,0:0:0:0:
428,92,31697,6,0,L|420:168,1,60.0000022888184,8|0,0:0|0:0,0:0:0:0:
404,340,31931,1,0,0:0:0:0:
420,352,32166,2,0,P|432:304|404:224,1,120.000004577637
324,112,32634,6,0,L|316:182,2,50,8|0|0,0:0|0:0|0:0,0:0:0:0:
308,344,33103,2,0,P|319:299|293:225,1,100
220,132,33572,6,0,L|213:191,2,40,8|0|0,0:0|0:0|0:0,0:0:0:0:
196,336,34041,2,0,P|205:298|183:235,1,80
40,276,34509,2,0,P|30:313|52:376,1,80,8|0,0:0|0:0,0:0:0:0:
60,368,34861,1,0,0:0:0:0:
116,312,34978,6,0,P|124:284|120:244,1,40
8,200,35212,2,0,P|0:172|4:132,1,60.0000022888184
200,124,35447,6,0,P|212:64|212:8,1,80,8|0,0:0|1:0,0:0:0:0:
213,45,35916,5,0,1:0:0:0:
288,72,36033,1,0,0:0:0:0:
304,68,36150,1,0,0:0:0:0:
488,40,36384,2,0,L|396:36,1,80,8|0,0:0|0:0,0:0:0:0:
396,24,36736,2,0,P|384:72|392:124,1,80
396,124,37087,1,0,0:0:0:0:
351,252,37322,1,8,0:0:0:0:
485,227,37556,1,0,0:0:0:0:
452,216,37673,2,0,P|412:208|352:252,1,120
320,344,38259,5,8,0:0:0:0:
186,319,38493,1,0,0:0:0:0:
219,308,38610,2,0,P|259:300|319:344,1,120
419,296,39197,2,0,L|416:376,1,80,8|0,0:0|0:0,0:0:0:0:
512,348,39666,5,0,1:0:0:0:
460,200,39900,1,0,0:0:0:0:
312,252,40134,2,0,L|220:260,1,80,8|0,0:0|0:0,0:0:0:0:
208,276,40486,2,0,P|196:224|208:168,1,80
232,128,40837,1,0,0:0:0:0:
76,148,41072,1,8,0:0:0:0:
136,2,41306,1,0,0:0:0:0:
152,12,41423,2,0,B|172:24|172:24|280:12,1,120
312,88,42009,5,8,0:0:0:0:
252,234,42243,1,0,0:0:0:0:
236,224,42360,2,0,B|216:212|216:212|108:224,1,120
64,284,42947,2,0,L|56:368,1,80,8|0,0:0|0:0,0:0:0:0:
40,208,43416,5,0,1:0:0:0:
20,132,43533,1,0,0:0:0:0:
24,112,43650,1,0,0:0:0:0:
28,92,43767,1,0,0:0:0:0:
32,72,43884,2,0,B|60:60|60:60|92:0,1,80,8|0,0:0|0:0,0:0:0:0:
176,212,44353,6,0,L|240:224,1,40,0|0,1:0|0:0,0:0:0:0:
116,160,44587,1,0,0:0:0:0:
164,228,44705,2,0,L|168:316,2,80
232,92,45291,5,0,1:0:0:0:
256,84,45408,1,0,0:0:0:0:
280,84,45525,1,0,0:0:0:0:
312,96,45642,1,0,0:0:0:0:
376,40,45759,5,8,0:0:0:0:
400,36,45876,1,0,0:0:0:0:
424,32,45993,1,0,0:0:0:0:
456,44,46110,1,0,0:0:0:0:
488,144,46228,6,0,B|440:152|440:152|392:136,1,80,0|0,1:0|0:0,0:0:0:0:
340,176,46580,2,0,P|332:224|328:268,1,80
352,332,46931,1,0,0:0:0:0:
200,52,47166,6,0,P|208:100|212:144,1,80,0|0,1:0|0:0,0:0:0:0:
224,144,47517,2,0,P|176:152|132:156,1,80
112,148,47869,1,0,0:0:0:0:
16,84,48103,1,0,1:0:0:0:
36,228,48337,1,0,0:0:0:0:
24,252,48455,2,0,P|24:308|64:340,1,80
112,360,48806,1,0,0:0:0:0:
188,332,48923,6,0,P|212:280|188:200,1,120
201,219,49509,2,0,P|264:212|300:168,1,88.000002685547,8|0,0:0|0:0,0:0:0:0:
282,197,49978,2,0,P|288:272|376:328,1,143.999995605469,0|0,1:0|0:0,0:0:0:0:
452,340,50447,5,8,0:0:0:0:
472,268,50564,1,0,0:0:0:0:
488,192,50681,1,0,0:0:0:0:
372,44,50916,5,0,0:0:0:0:
297,71,51033,2,0,L|236:64,1,40
48,48,51384,2,0,P|88:20|140:36,1,80,8|0,0:0|0:0,0:0:0:0:
152,96,51736,2,0,L|144:192,1,80
160,196,52087,1,0,0:0:0:0:
68,220,52322,1,8,0:0:0:0:
132,292,52556,1,0,0:0:0:0:
132,292,52673,2,0,L|260:300,1,120
352,352,53259,5,8,0:0:0:0:
467,232,53494,1,0,0:0:0:0:
467,232,53611,2,0,L|348:240,1,120
251,299,54197,2,0,P|208:296|176:268,1,80,8|0,0:0|0:0,0:0:0:0:
228,56,54666,5,0,1:0:0:0:
348,60,54900,1,0,0:0:0:0:
468,64,55134,2,0,P|496:120|484:144,1,80,8|0,0:0|0:0,0:0:0:0:
432,184,55486,2,0,L|324:196,1,80
328,184,55837,1,0,0:0:0:0:
319,290,56072,1,8,0:0:0:0:
232,228,56306,1,0,0:0:0:0:
232,228,56423,2,0,B|144:224|144:224|92:244,1,120
128,120,57009,5,8,0:0:0:0:
10,112,57244,1,0,0:0:0:0:
10,112,57361,2,0,B|98:108|98:108|150:128,1,120
114,235,57947,2,0,L|118:317,1,80,8|0,0:0|0:0,0:0:0:0:
228,352,58416,5,0,1:0:0:0:
252,360,58533,1,0,0:0:0:0:
324,332,58650,5,0,0:0:0:0:
332,308,58767,1,0,0:0:0:0:
400,264,58884,5,8,0:0:0:0:
396,244,59001,1,0,0:0:0:0:
392,224,59119,1,0,0:0:0:0:
388,204,59236,1,0,0:0:0:0:
436,140,59353,6,0,L|476:128,1,40,0|0,1:0|0:0,0:0:0:0:
504,204,59587,1,0,0:0:0:0:
496,120,59705,2,0,L|504:32,2,80
428,12,60291,5,0,1:0:0:0:
404,4,60408,1,0,0:0:0:0:
332,32,60525,5,0,0:0:0:0:
324,56,60642,1,0,0:0:0:0:
260,104,60759,5,8,0:0:0:0:
240,108,60876,1,0,0:0:0:0:
220,112,60994,1,0,0:0:0:0:
200,116,61111,1,0,0:0:0:0:
128,72,61228,5,0,1:0:0:0:
128,72,61345,2,0,P|116:128|124:152,1,80
32,120,61697,2,0,P|17:64|0:46,1,80,8|0,0:0|0:0,0:0:0:0:
188,336,62166,5,0,1:0:0:0:
216,248,62400,1,0,0:0:0:0:
216,248,62517,2,0,L|120:264,1,80
60,244,62869,1,0,0:0:0:0:
60,244,62986,2,0,B|16:284|16:284|72:308,1,120
188,336,63572,1,8,0:0:0:0:
292,272,63806,1,0,0:0:0:0:
292,272,63923,6,0,P|360:276|415:303,1,120
406,297,64509,2,0,P|416:244|440:212,1,88.000002685547,8|0,0:0|0:0,0:0:0:0:
435,216,64978,2,0,P|368:180|332:116,1,143.999995605469,0|0,1:0|0:0,0:0:0:0:
368,24,65447,5,8,0:0:0:0:
440,16,65564,1,0,0:0:0:0:
512,8,65681,1,0,0:0:0:0:
200,64,65916,5,4,0:0:0:0:
200,64,66150,1,0,0:0:0:0:
200,64,66384,2,0,P|148:40|100:56,1,80,8|0,0:0|0:0,0:0:0:0:
60,84,66736,2,0,P|32:128|44:204,1,120
116,300,67322,2,0,P|168:324|216:308,1,80,8|0,0:0|0:0,0:0:0:0:
256,280,67673,2,0,P|284:236|272:160,1,120
200,64,68259,2,0,P|148:40|100:56,1,80,8|0,0:0|0:0,0:0:0:0:
60,84,68611,2,0,P|32:128|44:204,1,120
116,300,69197,2,0,P|168:324|216:308,1,80,8|0,0:0|0:0,0:0:0:0:
368,356,69666,6,0,L|446:338,3,80,0|0|8|0,1:0|0:0|0:0|0:0,0:0:0:0:
432,316,70486,2,0,L|440:224,1,80
424,216,70837,2,0,L|532:192,2,80,0|8|0,0:0|0:0|0:0,0:0:0:0:
412,196,71423,1,0,0:0:0:0:
336,168,71541,6,0,P|316:104|336:64,1,80,0|0,1:0|0:0,0:0:0:0:
480,12,72009,2,0,P|498:46|497:86,1,80,8|0,0:0|0:0,0:0:0:0:
484,104,72361,1,0,0:0:0:0:
408,72,72478,2,0,L|404:111,2,40,0|0|0,1:0|0:0|0:0,0:0:0:0:
200,124,72947,2,0,L|208:224,1,80,8|0,0:0|0:0,0:0:0:0:
184,280,73298,1,0,0:0:0:0:
112,316,73416,5,0,1:0:0:0:
206,203,73650,1,0,0:0:0:0:
256,340,73884,1,8,0:0:0:0:
112,316,74119,2,0,P|44:336|44:244,1,160
48,188,74822,2,0,P|104:176|148:184,1,80,8|0,0:0|0:0,0:0:0:0:
400,316,75291,5,0,1:0:0:0:
306,203,75525,1,0,0:0:0:0:
256,340,75759,1,8,0:0:0:0:
400,316,75994,1,0,0:0:0:0:
400,316,76111,2,0,P|456:316|488:232,1,120
464,188,76697,1,8,0:0:0:0:
384,148,76931,6,0,L|380:244,1,80,0|0,0:0|1:0,0:0:0:0:
320,288,77400,2,0,L|323:367,1,80,0|8,0:0|0:0,0:0:0:0:
128,236,77869,6,0,L|132:140,1,80,0|0,0:0|1:0,0:0:0:0:
192,96,78338,2,0,L|188:16,1,80,0|8,0:0|0:0,0:0:0:0:
256,192,78806,12,0,80212,0:0:0:0:
64,56,80447,5,0,0:0:0:0:
64,56,80681,1,0,0:0:0:0:
44,160,80915,2,0,L|24:268,1,80,4|0,0:0|0:0,0:0:0:0:
124,144,81384,2,0,L|176:228,1,80,8|0,0:0|0:0,0:0:0:0:
172,76,81853,1,0,1:0:0:0:
172,76,82087,2,0,L|284:100,1,80,0|8,0:0|0:0,0:0:0:0:
416,344,82556,6,0,P|412:292|396:160,1,160
404,172,83103,1,0,0:0:0:0:
408,160,83181,1,0,0:0:0:0:
412,148,83259,1,8,0:0:0:0:
456,24,83494,2,0,P|476:68|464:120,1,80,0|0,0:0|1:0,0:0:0:0:
340,240,83962,2,0,P|320:196|332:144,1,80,0|8,0:0|0:0,0:0:0:0:
473,98,84431,2,0,P|496:40|528:24,1,80,0|0,0:0|1:0,0:0:0:0:
322,165,84900,2,0,P|299:223|267:239,1,80,0|8,0:0|0:0,0:0:0:0:
96,96,85369,5,0,0:0:0:0:
96,96,85486,2,0,L|100:192,1,80
99,175,85837,1,0,0:0:0:0:
25,57,86072,1,8,0:0:0:0:
160,48,86306,2,0,P|88:16|16:92,1,160
36,228,87009,2,0,P|108:260|180:184,1,160,8|0,0:0|1:0,0:0:0:0:
96,96,87712,2,0,L|100:192,1,80,0|8,0:0|0:0,0:0:0:0:
112,360,88181,2,0,L|108:304,1,40
108,292,88416,5,0,1:0:0:0:
8,328,88650,1,0,0:0:0:0:
212,312,88884,2,0,B|256:308|256:308|312:328,1,80,8|0,0:0|0:0,0:0:0:0:
360,352,89236,2,0,P|400:340|428:300,1,80
420,232,89587,2,0,L|432:140,1,80,0|8,0:0|0:0,0:0:0:0:
444,52,90056,1,0,0:0:0:0:
352,272,90291,5,0,1:0:0:0:
207,82,90525,2,0,L|176:76,2,26.6666666666667
216,96,90759,2,0,P|248:76|308:104,1,80,8|0,0:0|0:0,0:0:0:0:
336,148,91228,1,0,1:0:0:0:
148,288,91462,2,0,L|144:376,2,80,0|8|0,0:0|0:0|0:0,0:0:0:0:
68,304,92048,6,0,P|32:264|52:192,1,120
156,160,92634,1,8,0:0:0:0:
225,311,92869,2,0,P|266:271|261:213,1,120
244,204,93337,2,0,L|328:196,2,80,0|8|0,0:0|0:0|0:0,0:0:0:0:
332,216,94041,5,0,1:0:0:0:
420,228,94275,1,0,0:0:0:0:
368,296,94509,1,8,0:0:0:0:
316,364,94744,2,0,L|144:356,1,160
48,376,95448,5,8,0:0:0:0:
48,376,95682,1,0,0:0:0:0:
156,356,95916,6,0,P|200:344|232:328,1,80,0|0,1:0|0:0,0:0:0:0:
108,288,96384,2,8,P|132:248|144:212,1,80,8|0,0:0|0:0,0:0:0:0:
28,272,96853,1,0,1:0:0:0:
28,272,97087,2,8,P|20:228|8:188,1,80,0|8,0:0|0:0,0:0:0:0:
156,72,97556,6,0,P|116:128|44:80,1,160
88,20,98259,1,8,0:0:0:0:
248,88,98494,2,0,L|412:72,1,160
304,332,99431,2,0,L|140:316,1,160
484,60,100369,1,0,0:0:0:0:
456,132,100486,2,0,L|464:216,1,80
460,316,100837,2,0,L|452:236,1,80,0|8,0:0|0:0,0:0:0:0:
377,137,101306,6,0,P|408:67|484:60,1,160
377,137,102009,2,0,P|301:145|256:83,1,160,8|0,0:0|1:0,0:0:0:0:
312,16,102712,1,0,0:0:0:0:
184,36,102947,1,8,0:0:0:0:
60,4,103181,1,0,0:0:0:0:
44,12,103298,6,0,B|20:28|20:28|12:112,1,80
52,148,103650,1,0,0:0:0:0:
32,272,103884,2,0,L|40:356,1,80,8|0,0:0|0:0,0:0:0:0:
168,236,104236,2,0,P|124:216|84:240,1,80
44,284,104587,2,0,L|52:368,1,80,0|8,0:0|0:0,0:0:0:0:
124,300,105056,1,0,0:0:0:0:
360,336,105291,5,0,1:0:0:0:
274,114,105525,1,0,0:0:0:0:
252,250,105759,2,0,P|288:224|296:184,1,80,8|0,0:0|0:0,0:0:0:0:
274,114,106228,1,0,1:0:0:0:
439,332,106462,2,0,L|360:336,2,80,0|8|0,0:0|0:0|0:0,0:0:0:0:
492,280,107048,6,0,P|512:228|496:160,1,120
432,324,107634,2,0,L|352:327,1,80,8|0,0:0|0:0,0:0:0:0:
280,367,107986,2,0,P|260:315|276:247,1,120
272,253,108572,1,8,0:0:0:0:
176,312,108806,1,0,0:0:0:0:
80,252,109041,6,0,P|64:216|72:172,1,80,0|0,1:0|0:0,0:0:0:0:
188,136,109509,2,0,P|204:100|196:56,1,80,8|0,0:0|0:0,0:0:0:0:
184,48,109861,1,0,0:0:0:0:
168,40,109978,2,0,L|116:44,1,40,0|0,1:0|0:0,0:0:0:0:
92,56,110212,2,0,L|40:60,1,40
16,184,110447,2,0,L|68:188,1,40,8|0,0:0|0:0,0:0:0:0:
92,200,110681,2,0,L|144:204,1,40
208,216,110916,5,4,0:0:0:0:
236,376,111384,1,8,0:0:0:0:
368,188,111853,1,0,1:0:0:0:
396,348,112322,1,8,0:0:0:0:
464,304,112556,6,0,P|480:244|432:200,1,120
368,188,113025,2,0,P|312:168|296:128,2,80,0|8|0,0:0|0:0|0:0,0:0:0:0:
247,96,113728,2,0,P|189:90|153:135,1,120,0|0,1:0|0:0,0:0:0:0:
144,160,114197,1,8,0:0:0:0:
120,168,114314,1,0,0:0:0:0:
128,144,114431,1,0,0:0:0:0:
56,48,114666,5,0,1:0:0:0:
224,180,115134,1,8,0:0:0:0:
25,259,115603,1,0,1:0:0:0:
56,48,116072,1,8,0:0:0:0:
12,116,116306,2,0,B|4:152|16:184|16:184|60:180|88:216,1,120
25,259,116775,2,0,L|20:352,2,80,0|8|0,0:0|0:0|0:0,0:0:0:0:
88,380,117478,2,0,B|116:388|136:369|136:369|148:337|140:301,1,120,0|0,1:0|0:0,0:0:0:0:
132,284,117947,1,8,0:0:0:0:
144,296,118064,1,0,0:0:0:0:
156,304,118181,1,0,0:0:0:0:
208,216,118416,5,0,1:0:0:0:
464,268,118884,1,8,0:0:0:0:
360,368,119353,1,0,1:0:0:0:
312,116,119822,1,8,0:0:0:0:
252,64,120056,2,0,P|312:32|368:56,1,120
392,120,120525,2,0,L|384:212,2,80,0|8|0,0:0|0:0|0:0,0:0:0:0:
418,272,121228,2,0,P|474:286|532:236,1,120,0|0,1:0|0:0,0:0:0:0:
464,208,121697,2,0,L|468:148,1,40,8|0,0:0|0:0,0:0:0:0:
480,328,121931,1,0,0:0:0:0:
464,208,122166,6,0,L|469:119,1,80,0|0,1:0|0:0,0:0:0:0:
344,148,122634,2,0,L|348:208,1,40,8|0,0:0|0:0,0:0:0:0:
360,28,122868,1,0,0:0:0:0:
344,148,123103,6,0,L|349:236,1,80,0|0,1:0|0:0,0:0:0:0:
224,204,123572,2,0,L|228:144,1,40,8|0,0:0|0:0,0:0:0:0:
240,324,123806,1,0,0:0:0:0:
224,204,124041,6,0,L|229:115,1,80,0|0,1:0|0:0,0:0:0:0:
136,196,124509,6,0,L|141:107,1,88.000002685547,8|0,0:0|0:0,0:0:0:0:
48,188,124978,6,0,L|54:90,1,95.9999970703126,0|0,1:0|0:0,0:0:0:0:
48,80,125330,1,0,0:0:0:0:
40,68,125447,1,8,0:0:0:0:
84,264,125681,1,0,0:0:0:0:
136,196,125916,1,4,1:2:0:0:
256,192,126150,12,0,129665,0:0:0:0:
256,192,129783,12,0,133416,0:0:0:0:
112,292,133884,5,8,0:3:0:0:
192,256,134353,1,4,0:3:0:0:
256,312,134822,1,8,0:3:0:0:
256,192,135291,5,4,0:3:0:0:
400,292,135759,1,8,0:3:0:0:
320,256,136228,1,4,0:3:0:0:
256,312,136697,1,8,0:3:0:0:
112,292,137166,5,4,0:3:0:0:
192,256,137635,1,8,0:3:0:0:
256,192,138103,1,4,0:3:0:0:
320,256,138572,1,8,0:3:0:0:
400,292,139041,5,4,0:3:0:0:
256,312,139509,1,8,0:3:0:0:
112,292,139978,2,0,L|44:296,1,60.0000022888184
56,372,140212,2,0,L|115:368,1,60.0000022888184
84,332,140447,1,8,0:0:0:0:
84,332,140681,1,0,0:0:0:0:
212,64,140916,5,4,0:0:0:0:
156,120,141033,1,0,0:0:0:0:
136,124,141150,1,0,0:0:0:0:
116,128,141267,1,0,0:0:0:0:
64,184,141384,2,0,P|40:136|56:84,1,80,8|0,0:0|0:0,0:0:0:0:
76,40,141736,2,0,P|124:16|176:32,1,80
212,64,142087,5,0,0:0:0:0:
356,72,142322,1,8,0:0:0:0:
500,80,142556,1,0,0:0:0:0:
488,68,142673,2,0,L|480:172,1,80
428,200,143025,2,0,P|428:252|448:280,1,80,0|8,0:0|0:0,0:0:0:0:
364,340,143494,1,0,0:0:0:0:
368,332,143611,2,0,P|332:314|293:317,1,80
241,371,143963,2,0,L|161:377,2,80,0|8|0,0:0|0:0|0:0,0:0:0:0:
88,352,144666,6,0,P|68:308|76:276,1,80,0|0,1:0|0:0,0:0:0:0:
0,160,145134,2,0,P|-5:198|13:233,1,80,8|0,0:0|0:0,0:0:0:0:
74,278,145486,2,0,P|126:286|186:226,1,120
216,376,146072,2,0,P|210:337|229:302,1,80,8|0,0:0|0:0,0:0:0:0:
290,258,146424,2,0,P|342:250|402:310,1,120
384,372,147009,1,8,0:0:0:0:
464,340,147244,1,0,0:0:0:0:
464,340,147361,2,0,B|484:304|484:304|476:216,1,120
452,152,147947,2,0,B|456:112|456:112|480:64,1,80,8|0,0:0|0:0,0:0:0:0:
328,20,148416,5,0,1:0:0:0:
332,40,148533,1,0,0:0:0:0:
276,92,148650,5,0,0:0:0:0:
272,112,148767,1,0,0:0:0:0:
196,136,148884,5,8,0:0:0:0:
163,159,149001,1,0,0:0:0:0:
124,163,149118,1,0,0:0:0:0:
88,147,149235,1,0,0:0:0:0:
40,84,149353,5,0,1:0:0:0:
34,71,149470,1,0,0:0:0:0:
32,58,149587,1,0,0:0:0:0:
32,45,149705,2,0,P|72:28|128:44,1,80
136,44,150056,2,0,L|132:104,1,40
88,147,150291,5,0,1:0:0:0:
84,167,150408,1,0,0:0:0:0:
140,219,150525,5,0,0:0:0:0:
144,239,150642,1,0,0:0:0:0:
220,263,150759,5,8,0:0:0:0:
252,286,150876,1,0,0:0:0:0:
291,290,150993,1,0,0:0:0:0:
327,274,151110,1,0,0:0:0:0:
376,211,151228,5,0,1:0:0:0:
381,198,151345,1,0,0:0:0:0:
383,185,151462,1,0,0:0:0:0:
384,172,151580,2,0,P|348:144|304:148,1,80
280,212,151931,1,0,0:0:0:0:
160,32,152166,6,0,L|64:48,1,80,0|0,1:0|0:0,0:0:0:0:
64,32,152517,2,0,P|60:88|52:128,1,80
28,184,152869,1,0,0:0:0:0:
28,184,152986,2,0,P|36:236|40:312,1,120
136,280,153572,1,8,0:0:0:0:
212,344,153806,1,0,0:0:0:0:
212,344,153923,6,0,L|336:336,1,120
416,296,154509,2,0,L|412:392,1,88.000002685547,8|0,0:0|0:0,0:0:0:0:
336,144,154978,2,0,L|340:240,1,95.9999970703126,0|0,1:0|0:0,0:0:0:0:
476,56,155447,6,0,L|473:118,1,40,8|0,0:0|0:0,0:0:0:0:
472,132,155681,2,0,L|469:194,1,40
468,208,155916,5,4,0:0:0:0:
339,239,156150,1,0,0:0:0:0:
216,188,156384,1,8,0:0:0:0:
144,76,156619,1,0,0:0:0:0:
80,28,156736,2,0,P|64:80|80:120,1,80
144,80,157087,5,0,0:0:0:0:
256,68,157322,1,8,0:0:0:0:
368,80,157556,1,0,0:0:0:0:
432,32,157673,2,0,P|448:84|432:124,1,80
368,84,158024,5,0,0:0:0:0:
256,72,158259,1,8,0:0:0:0:
144,84,158494,1,0,0:0:0:0:
70,111,158611,2,0,P|20:80|12:4,1,120
128,160,159197,2,0,L|124:256,1,80,8|0,0:0|0:0,0:0:0:0:
220,344,159666,5,0,1:0:0:0:
80,304,159900,2,0,P|36:304|-4:312,2,80,0|8|0,0:0|0:0|0:0,0:0:0:0:
124,239,160486,2,0,P|161:252|195:272,1,80
265,237,160837,2,0,P|290:267|310:302,1,80,0|8,0:0|0:0,0:0:0:0:
472,112,161306,5,0,0:0:0:0:
472,112,161423,1,0,0:0:0:0:
472,112,161541,2,0,P|432:119|392:118,2,80,0|0|8,1:0|0:0|0:0,0:0:0:0:
348,183,162244,2,0,P|310:169|276:149,1,80,0|0,0:0|1:0,0:0:0:0:
207,185,162595,2,0,P|181:154|161:119,1,80
164,40,162947,1,8,0:0:0:0:
44,168,163181,2,0,L|48:236,1,40
48,232,163416,5,0,1:0:0:0:
36,328,163650,1,0,0:0:0:0:
144,244,163884,1,8,0:0:0:0:
132,340,164119,2,0,L|216:332,1,80,0|0,0:0|1:0,0:0:0:0:
300,332,164587,2,0,L|380:340,1,80,0|8,0:0|0:0,0:0:0:0:
476,356,165056,2,0,L|472:292,1,40
472,288,165291,5,0,1:0:0:0:
348,260,165525,1,0,0:0:0:0:
472,288,165759,1,8,0:0:0:0:
435,167,165994,2,0,P|428:124|456:84,1,80,0|0,0:0|1:0,0:0:0:0:
188,36,166462,2,0,P|205:71|198:110,1,80,0|8,0:0|0:0,0:0:0:0:
12,224,166931,5,0,0:0:0:0:
160,184,167166,1,0,1:0:0:0:
200,332,167400,2,0,P|244:348|304:332,1,80,0|8,0:0|0:0,0:0:0:0:
500,160,167869,5,0,0:0:0:0:
352,200,168104,1,0,1:0:0:0:
312,52,168337,2,0,P|268:36|208:52,1,80,0|8,0:0|0:0,0:0:0:0:
256,192,168806,12,0,170212,0:0:0:0:
448,328,170447,5,0,0:0:0:0:
448,328,170681,1,0,0:0:0:0:
468,224,170915,2,0,L|488:116,1,80,4|0,0:0|0:0,0:0:0:0:
388,240,171384,2,0,L|336:156,1,80,8|0,0:0|0:0,0:0:0:0:
340,308,171853,1,0,1:0:0:0:
340,308,172087,2,0,L|228:284,1,80,0|8,0:0|0:0,0:0:0:0:
224,104,172556,6,0,P|140:112|40:132,1,160
56,136,173103,2,0,P|38:133|11:116,2,26.6666666666667,0|0|8,0:0|0:0|0:0,0:0:0:0:
20,32,173494,2,0,P|60:8|120:28,1,80,0|0,0:0|1:0,0:0:0:0:
280,164,173962,2,0,P|240:188|180:168,1,80,0|8,0:0|0:0,0:0:0:0:
91,9,174431,2,0,P|63:37|56:76,1,80,0|0,0:0|1:0,0:0:0:0:
208,185,174900,2,0,P|236:157|243:118,1,80,0|8,0:0|0:0,0:0:0:0:
440,64,175369,5,0,0:0:0:0:
440,64,175486,2,0,L|348:56,1,80
348,40,175837,1,0,0:0:0:0:
500,8,176072,1,8,0:0:0:0:
451,155,176306,2,0,P|444:248|476:332,1,160
396,352,177009,2,0,P|340:295|267:263,1,160,8|0,0:0|1:0,0:0:0:0:
148,220,177712,2,0,L|156:320,1,80,0|8,0:0|0:0,0:0:0:0:
36,264,178181,5,0,0:0:0:0:
36,264,178298,2,0,P|20:192|40:124,1,120
8,36,178884,1,8,0:0:0:0:
84,80,179119,1,0,0:0:0:0:
84,80,179236,2,0,P|156:64|224:84,1,120
312,52,179822,1,8,0:0:0:0:
268,132,180056,1,0,0:0:0:0:
356,236,180291,5,0,1:0:0:0:
479,199,180525,2,0,L|476:168,2,26.6666666666667
488,216,180759,2,0,P|460:252|408:256,1,80,8|0,0:0|0:0,0:0:0:0:
300,344,181228,1,0,1:0:0:0:
160,288,181462,2,0,L|80:284,2,80,0|8|0,0:0|0:0|0:0,0:0:0:0:
212,347,182048,6,0,P|239:296|224:239,1,120
128,184,182634,1,8,0:0:0:0:
19,332,182869,1,0,0:0:0:0:
19,332,182986,2,0,P|4:275|31:224,1,120
128,184,183572,2,0,P|136:132|120:76,1,80,8|0,0:0|0:0,0:0:0:0:
68,32,184041,5,0,1:0:0:0:
36,120,184275,1,0,0:0:0:0:
164,20,184509,1,8,0:0:0:0:
228,88,184744,2,0,P|294:91|356:28,1,160
464,8,185447,5,8,0:0:0:0:
464,8,185681,1,0,0:0:0:0:
356,28,185915,6,0,P|312:40|280:56,1,80,4|0,0:0|0:0,0:0:0:0:
404,96,186384,2,0,P|380:136|368:172,1,80,8|0,0:0|0:0,0:0:0:0:
484,112,186852,1,0,1:0:0:0:
484,112,187087,2,0,P|492:156|504:196,1,80,0|8,0:0|0:0,0:0:0:0:
416,300,187556,2,0,P|364:344|300:324,1,120
304,312,188025,2,0,L|208:312,1,80,0|8,0:0|0:0,0:0:0:0:
56,360,188494,1,0,0:0:0:0:
124,288,188728,6,0,P|132:248|112:208,1,80,0|0,1:0|0:0,0:0:0:0:
100,200,189080,2,0,P|60:192|20:212,1,80
12,224,189431,1,0,0:0:0:0:
56,116,189666,6,0,P|48:76|68:36,1,80,0|0,1:0|0:0,0:0:0:0:
132,0,190018,2,0,P|172:-8|212:12,1,80
260,64,190369,1,0,0:0:0:0:
304,128,190486,2,0,P|352:144|416:88,1,120
476,220,191072,1,8,0:0:0:0:
380,308,191306,6,0,P|312:260|228:280,1,160
139,375,192009,2,0,P|214:340|239:257,1,160,8|0,0:0|0:0,0:0:0:0:
160,218,192712,1,0,0:0:0:0:
280,96,192947,1,8,0:0:0:0:
326,261,193181,1,0,0:0:0:0:
352,276,193298,6,0,B|392:292|392:292|472:272,1,120
492,284,193767,1,0,0:0:0:0:
460,352,193884,2,0,L|374:375,1,80,8|0,0:0|0:0,0:0:0:0:
382,372,194236,2,0,L|308:340,1,80
308,340,194587,2,0,L|269:269,1,80,0|8,0:0|0:0,0:0:0:0:
304,192,195056,5,0,0:0:0:0:
176,142,195291,1,0,1:0:0:0:
68,228,195525,1,0,0:0:0:0:
176,142,195759,2,0,P|132:134|98:157,1,80,8|0,0:0|0:0,0:0:0:0:
68,228,196228,1,0,1:0:0:0:
124,352,196462,1,0,0:0:0:0:
148,220,196697,1,8,0:0:0:0:
188,296,196931,6,0,L|244:308,1,40
248,224,197166,1,0,1:0:0:0:
304,348,197400,1,0,0:0:0:0:
328,216,197635,1,8,0:0:0:0:
368,292,197869,6,0,L|424:304,1,40
432,220,198103,1,0,1:0:0:0:
488,344,198337,1,0,0:0:0:0:
512,212,198572,1,8,0:0:0:0:
468,84,198806,1,0,0:0:0:0:
468,84,199041,6,0,P|416:84|372:44,1,80,0|0,1:0|0:0,0:0:0:0:
340,144,199509,2,0,P|288:144|244:184,1,80,8|0,0:0|0:0,0:0:0:0:
200,68,199978,2,0,P|163:31|160:-28,1,80,0|0,1:0|0:0,0:0:0:0:
152,236,200447,2,0,P|115:272|112:332,1,80,8|0,0:0|0:0,0:0:0:0:
24,120,200916,5,4,0:0:0:0:
24,120,201384,1,2,0:1:0:0:
96,152,201619,2,2,L|176:148,2,80,2|2|2,0:1|0:1|0:1,0:1:0:0:
24,120,202791,2,2,P|16:72|36:36,1,80,2|2,0:1|0:1,0:1:0:0:
104,20,203494,1,0,0:1:0:0:
244,108,203728,6,2,L|248:80,1,20,2|2,0:1|0:1,0:1:0:0:
312,32,203962,2,2,L|314:51,1,20,2|2,0:1|0:1,0:1:0:0:
368,128,204197,2,2,L|372:100,1,20,2|2,0:1|0:1,0:1:0:0:
436,52,204431,2,2,L|438:71,1,20,2|2,0:1|0:1,0:1:0:0:
492,148,204666,5,2,0:1:0:0:
492,148,204783,1,2,0:1:0:0:
492,148,204900,1,2,0:1:0:0:
492,148,205017,1,2,0:1:0:0:
460,224,205134,5,2,0:1:0:0:
460,224,205251,1,2,0:1:0:0:
460,224,205368,1,2,0:1:0:0:
460,224,205485,1,2,0:1:0:0:
428,300,205603,6,2,L|432:340,3,40,2|2|2|2,0:1|0:1|0:1|0:1,0:1:0:0:
312,368,206541,2,2,L|316:328,3,40,2|2|2|2,0:1|0:1|0:1|0:1,0:1:0:0:
140,288,207478,5,2,0:1:0:0:
116,284,207595,1,2,0:1:0:0:
92,280,207712,1,2,0:1:0:0:
68,276,207830,1,2,0:1:0:0:
160,256,207947,5,2,0:1:0:0:
104,264,208064,1,2,0:1:0:0:
48,272,208181,1,2,0:1:0:0:
304,44,208416,5,4,0:0:0:0:
336,116,208650,2,2,L|332:196,2,80,2|2|2,0:1|0:1|0:1,0:1:0:0:
372,260,210056,2,2,P|384:304|368:340,1,80,2|2,0:1|0:1,0:1:0:0:
360,344,210603,2,2,P|348:348|336:348,1,13.3333333333333,2|2,0:1|0:1,0:1:0:0:
336,348,210759,1,2,0:1:0:0:
500,370,210994,1,2,0:1:0:0:
512,340,211111,1,2,0:1:0:0:
512,308,211228,6,2,L|495:305,7,10,2|2|2|2|2|2|2|2,0:1|0:1|0:1|0:1|0:1|0:1|0:1|0:1,0:1:0:0:
488,232,211697,2,2,L|474:234,5,10,2|2|2|2|2|2,0:1|0:1|0:1|0:1|0:1|0:1,0:1:0:0:
392,124,212166,6,2,L|344:136,1,40,2|2,0:1|0:1,0:1:0:0:
320,44,212634,1,2,0:1:0:0:
328,148,212869,2,2,P|336:88|332:64,1,80,2|2,0:1|0:1,0:1:0:0:
192,148,213572,1,2,0:1:0:0:
184,44,213807,2,2,P|176:104|180:128,1,80,2|2,0:1|0:1,0:1:0:0:
88,100,214509,1,2,0:1:0:0:
12,152,214744,1,2,0:1:0:0:
12,152,214978,6,2,L|16:184,1,20,2|2,0:1|0:1,0:1:0:0:
80,208,215212,2,2,L|76:240,1,20,2|2,0:1|0:1,0:1:0:0:
28,288,215447,2,2,L|32:320,1,20,2|2,0:1|0:1,0:1:0:0:
96,344,215681,2,2,L|92:388,1,40,2|4,0:1|0:0,0:1:0:0:
256,256,216384,5,8,0:0:0:0:
256,256,217322,1,8,0:0:0:0:
256,256,218259,1,8,0:0:0:0:
256,256,219197,1,8,0:0:0:0:
304,192,219666,1,0,0:0:0:0:
256,128,220134,5,8,0:0:0:0:
256,128,221072,1,8,0:0:0:0:
256,128,222009,1,8,0:0:0:0:
256,128,222947,1,8,0:0:0:0:
256,256,223416,5,0,1:0:0:0:
320,192,223884,1,8,0:0:0:0:
256,128,224353,1,0,1:0:0:0:
192,192,224821,1,8,0:0:0:0:
340,280,225291,5,0,1:0:0:0:
344,108,225759,1,8,0:0:0:0:
172,104,226228,1,0,1:0:0:0:
168,276,226696,1,8,0:0:0:0:
404,220,227166,5,0,1:0:0:0:
284,44,227634,1,8,0:0:0:0:
108,164,228103,1,0,1:0:0:0:
228,340,228571,1,8,0:0:0:0:
316,360,228806,6,0,L|320:384,2,20,0|8|0,0:0|0:0|1:0,0:0:0:0:
424,132,229275,2,0,L|448:128,2,20,0|8|0,0:0|0:0|0:0,0:0:0:0:
196,24,229744,2,0,L|192:0,2,20,0|8|0,0:0|0:0|1:0,0:0:0:0:
88,252,230213,2,0,L|64:256,2,20,0|8|0,0:0|0:0|0:0,0:0:0:0:
228,340,230681,5,0,0:0:0:0:
228,340,230798,1,8,0:0:0:0:
228,340,230916,6,0,L|176:376,1,40,0|0,1:0|0:0,0:0:0:0:
108,164,231150,2,0,L|72:112,1,40,0|0,1:0|0:0,0:0:0:0:
284,44,231384,2,0,L|336:8,1,40,0|0,1:0|0:0,0:0:0:0:
404,220,231618,2,0,L|440:272,1,40,0|0,1:0|0:0,0:0:0:0:
168,276,231853,6,0,L|100:284,1,40,0|0,1:0|0:0,0:0:0:0:
172,104,232087,2,0,L|164:36,1,40,0|0,1:0|0:0,0:0:0:0:
344,108,232322,2,0,L|412:100,1,40,0|0,1:0|0:0,0:0:0:0:
340,280,232556,2,0,L|348:348,1,40,0|0,1:0|0:0,0:0:0:0:
208,184,232791,5,0,1:0:0:0:
264,144,232908,1,0,1:0:0:0:
304,200,233025,1,0,1:0:0:0:
248,240,233142,1,0,1:0:0:0:
208,184,233259,6,0,L|188:156,1,20,0|0,1:0|1:0,1:0:0:0:
264,144,233376,6,0,L|292:124,1,20,0|0,1:0|1:0,1:0:0:0:
304,200,233494,6,0,L|324:228,1,20,0|0,1:0|1:0,1:0:0:0:
248,240,233611,6,0,L|220:260,1,20,0|0,1:0|1:0,1:0:0:0:
256,192,233728,5,0,1:0:0:0:
220,272,234666,6,0,P|192:312|160:340,1,80,4|0,0:0|0:0,0:0:0:0:
204,120,235134,2,0,P|184:76|175:34,1,80,8|0,0:0|0:0,0:0:0:0:
343,183,235603,1,0,1:0:0:0:
343,183,235837,2,0,P|391:187|432:201,1,80,0|8,0:0|0:0,0:0:0:0:
452,332,236306,2,0,P|412:352|372:264,1,160
492,240,237009,1,8,0:0:0:0:
366,270,237244,6,0,P|358:318|346:362,1,80,0|0,0:0|1:0,0:0:0:0:
146,114,237712,2,0,P|154:66|166:22,1,80,0|8,0:0|0:0,0:0:0:0:
271,332,238181,2,0,P|310:341|350:348,1,80,0|0,0:0|1:0,0:0:0:0:
240,51,238650,2,0,P|201:42|162:36,1,80,0|8,0:0|0:0,0:0:0:0:
68,212,239119,5,0,0:0:0:0:
68,212,239236,2,0,L|-16:220,1,80
24,140,239587,1,0,0:0:0:0:
36,296,239822,1,8,0:0:0:0:
24,140,240056,2,0,B|20:192|20:192|40:236|40:236|36:296,1,160
96,352,240759,2,0,B|156:348|156:348|200:368|200:368|252:364,1,160,8|0,0:0|1:0,0:0:0:0:
220,284,241462,1,0,0:0:0:0:
284,180,241697,1,8,0:0:0:0:
440,160,241931,1,0,0:0:0:0:
440,160,242048,6,0,P|472:120|452:52,1,120
392,12,242634,1,8,0:0:0:0:
236,32,242869,1,0,0:0:0:0:
236,32,242986,2,0,P|204:72|224:140,1,120
284,180,243572,1,8,0:0:0:0:
292,104,243806,5,0,0:0:0:0:
52,144,244041,1,0,1:0:0:0:
207,332,244275,1,0,0:0:0:0:
183,193,244509,2,0,P|224:224|216:280,1,80,8|0,0:0|0:0,0:0:0:0:
207,332,244978,1,0,1:0:0:0:
24,376,245212,2,0,P|12:332|28:288,2,80,0|8|0,0:0|0:0|0:0,0:0:0:0:
90,336,245798,6,0,B|152:309|141:358|218:326,1,120
256,264,246384,1,8,0:0:0:0:
422,336,246619,2,0,B|359:309|370:358|293:326,1,120
336,256,247087,2,0,L|340:176,2,80,0|8|0,0:0|0:0|0:0,0:0:0:0:
256,264,247791,5,0,1:0:0:0:
176,252,248025,1,0,0:0:0:0:
72,376,248259,1,8,0:0:0:0:
152,384,248494,2,0,B|160:296|80:336|96:224,1,160
160,176,249197,1,8,0:0:0:0:
256,192,249431,1,0,0:0:0:0:
292,272,249666,6,0,P|320:312|352:340,1,80,4|0,1:2|0:0,0:0:0:0:
308,120,250134,2,0,P|328:76|337:34,1,80,8|0,0:0|0:0,0:0:0:0:
169,183,250603,1,0,1:0:0:0:
169,183,250837,2,0,P|121:187|80:201,1,80,0|8,0:0|0:0,0:0:0:0:
16,72,251306,2,0,P|76:104|140:80,1,120
148,80,251775,2,0,L|160:12,1,40
160,16,252009,1,8,0:0:0:0:
80,24,252244,5,0,0:0:0:0:
232,68,252478,1,0,1:0:0:0:
380,8,252712,1,0,0:0:0:0:
396,12,252830,2,0,L|408:104,1,80
444,160,253181,1,0,0:0:0:0:
292,204,253415,1,0,1:0:0:0:
144,144,253649,1,0,0:0:0:0:
128,148,253767,2,0,L|116:240,1,80
60,280,254119,5,0,0:0:0:0:
60,280,254236,2,0,P|56:348|120:380,1,120
192,324,254822,1,8,0:0:0:0:
300,352,255056,2,0,P|316:300|420:288,1,160
512,196,255759,2,0,P|496:248|392:260,1,160,8|0,0:0|1:0,0:0:0:0:
392,252,256462,1,0,0:0:0:0:
384,240,256697,1,8,0:0:0:0:
304,112,256931,5,0,0:0:0:0:
312,124,257048,2,0,L|216:132,1,80
160,164,257400,2,0,L|152:232,1,40
168,84,257634,2,0,L|88:77,1,80,8|0,0:0|0:0,0:0:0:0:
12,44,257986,2,0,L|16:180,1,120
20,304,258572,1,8,0:0:0:0:
76,232,258806,5,0,0:0:0:0:
308,264,259041,1,0,1:0:0:0:
219,47,259275,1,0,0:0:0:0:
200,181,259509,2,0,P|212:236|252:260,1,80,8|0,0:0|0:0,0:0:0:0:
308,264,259978,1,0,1:0:0:0:
440,196,260212,2,0,L|352:200,2,80,0|8|0,0:0|0:0|0:0,0:0:0:0:
496,252,260798,6,0,P|492:296|400:300,1,120
447,180,261384,2,0,L|368:184,1,80,8|0,0:0|0:0,0:0:0:0:
312,128,261736,2,0,P|316:84|408:80,1,120
456,168,262322,1,8,0:0:0:0:
356,264,262556,1,0,0:0:0:0:
356,264,262791,6,0,P|352:308|360:356,1,80,0|0,1:0|0:0,0:0:0:0:
156,316,263259,2,0,P|160:272|152:224,1,80,8|0,0:0|0:0,0:0:0:0:
364,256,263728,2,0,P|360:300|368:348,1,80,0|0,1:0|0:0,0:0:0:0:
148,324,264197,2,0,P|152:280|144:232,1,80,8|0,0:0|0:0,0:0:0:0:
104,256,264548,1,0,0:0:0:0:
68,284,264666,5,4,0:0:0:0:
252,264,265134,1,8,0:0:0:0:
232,80,265603,1,0,1:0:0:0:
48,100,266072,1,8,0:0:0:0:
184,172,266306,6,0,P|132:172|84:152,1,80,0|0,0:0|1:0,0:0:0:0:
48,100,266775,1,0,0:0:0:0:
136,40,267009,1,8,0:0:0:0:
232,80,267244,1,0,0:0:0:0:
232,80,267361,2,0,P|280:72|340:84,1,80
328,80,267712,1,0,0:0:0:0:
280,304,267947,2,0,P|232:312|172:300,1,80,8|0,0:0|0:0,0:0:0:0:
256,192,268416,12,0,269822,0:0:0:0:
256,192,270056,12,0,272166,1:0:0:0:
212,332,272634,5,8,0:0:0:0:
376,348,273103,1,0,1:0:0:0:
464,208,273572,1,8,0:0:0:0:
392,160,273806,2,0,P|376:108|448:28,1,160
256,136,274509,2,0,L|256:228,1,80,8|0,0:0|0:0,0:0:0:0:
120,159,274978,2,0,P|131:83|76:30,1,160,0|8,1:0|0:0,0:0:0:0:
64,36,275564,1,0,0:0:0:0:
52,40,275681,1,0,0:0:0:0:
40,256,275916,6,0,L|48:348,1,80,0|0,1:0|0:0,0:0:0:0:
200,324,276384,2,0,L|205:391,2,40,8|0|0,0:0|0:0|0:0,0:0:0:0:
120,272,276853,2,0,L|128:364,1,80,0|0,1:0|0:0,0:0:0:0:
256,192,277322,1,8,0:0:0:0:
412,324,277556,2,0,P|340:340|284:284,1,160
444,244,278259,1,8,0:0:0:0:
360,256,278494,1,0,0:0:0:0:
392,176,278728,2,0,P|467:160|532:224,1,160,0|8,1:0|0:0,0:0:0:0:
312,40,279666,5,0,1:0:0:0:
44,112,280134,1,8,0:0:0:0:
164,20,280603,1,0,1:0:0:0:
92,288,281071,1,8,0:0:0:0:
92,288,281306,2,0,P|168:316|148:392,1,160
256,328,282009,2,0,L|256:248,1,80,8|0,0:0|0:0,0:0:0:0:
352,382,282478,2,0,P|348:308|420:288,1,160,0|8,1:0|0:0,0:0:0:0:
436,296,283064,1,0,0:0:0:0:
452,300,283181,1,0,0:0:0:0:
504,144,283416,6,0,P|448:160|412:188,1,80,0|0,1:0|0:0,0:0:0:0:
492,228,283884,1,8,0:0:0:0:
256,192,284236,1,0,0:0:0:0:
256,192,284353,1,0,1:0:0:0:
232,80,284587,1,0,0:0:0:0:
280,304,284822,1,8,0:0:0:0:
256,192,285056,6,0,L|92:168,1,160
20,156,285759,1,8,0:0:0:0:
48,228,285994,1,0,0:0:0:0:
97,168,286228,2,0,P|105:120|101:88,1,80,0|0,1:0|0:0,0:0:0:0:
48,228,286697,2,0,L|44:304,2,40,8|0|0,0:0|0:0|0:0,0:0:0:0:
60,28,287166,5,0,1:0:0:0:
136,24,287283,2,0,L|200:36,1,40,8|0,0:0|0:0,0:0:0:0:
316,140,287634,2,0,L|224:152,1,80,8|0,0:0|0:0,0:0:0:0:
220,136,287986,2,0,L|299:125,1,80,8|0,0:0|0:0,0:0:0:0:
316,140,288337,2,0,L|308:204,1,40
284,308,288572,1,8,0:0:0:0:
148,344,288806,6,0,P|188:312|172:204,1,160
96,188,289509,1,8,0:0:0:0:
120,268,289744,1,0,0:0:0:0:
40,248,289978,2,0,P|16:175|64:112,1,160,0|8,1:0|0:0,0:0:0:0:
208,364,290916,5,0,1:0:0:0:
448,204,291384,1,8,0:0:0:0:
304,364,291853,1,0,1:0:0:0:
64,204,292322,1,8,0:0:0:0:
52,124,292556,2,0,P|108:80|144:168,1,160
256,16,293259,2,0,L|256:104,1,80,8|0,0:0|0:0,0:0:0:0:
460,124,293728,2,0,P|404:80|368:168,1,160,0|8,1:0|0:0,0:0:0:0:
360,156,294314,1,0,0:0:0:0:
368,172,294431,1,0,0:0:0:0:
324,252,294666,5,4,1:2:0:0:
256,192,294900,12,0,302400,0:0:0:0:
