osu file format v14

[General]
AudioFilename: audio.mp3
AudioLeadIn: 0
PreviewTime: 79525
Countdown: 0
SampleSet: Soft
StackLeniency: 0.7
Mode: 3
LetterboxInBreaks: 0
SpecialStyle: 0
WidescreenStoryboard: 1

[Editor]
Bookmarks: 65697,72728,80228
DistanceSpacing: 2
BeatDivisor: 16
GridSize: 8
TimelineZoom: 2.1

[Metadata]
Title:Just Be Friends
TitleUnicode:Just Be Friends
Artist:Dixie Flatline feat. Megurine Luka
ArtistUnicode:Dixie Flatline feat. 巡音ルカ
Creator:Ssandi NImo
Version:Yui's Normal
Source:プロジェクトセカイ カラフルステージ! feat. 初音ミク
Tags:yuiazu- exit tune Vocaloid project sekai colorful stage! Prosekai Pjsekai Purosekai プロセカ SEGA Craft Egg Colorful Palette video mobile rhythm game japanese pop j-pop jpop
BeatmapID:3752913
BeatmapSetID:1820843

[Difficulty]
HPDrainRate:7
CircleSize:4
OverallDifficulty:7
ApproachRate:5
SliderMultiplier:1.4
SliderTickRate:1

[Events]
//Background and Video events
Video,-37,"jbf_x264.mp4"
0,0,"BG2.jpg",0,0
//Break Periods
//Storyboard Layer 0 (Background)
//Storyboard Layer 1 (Fail)
//Storyboard Layer 2 (Pass)
//Storyboard Layer 3 (Foreground)
//Storyboard Layer 4 (Overlay)
//Storyboard Sound Samples
Sample,50228,0,"LR_Ride FInish.wav",80
Sample,65228,0,"LR_Ride FInish.wav",80
Sample,83978,0,"normal-hitnormal.wav",25
Sample,87728,0,"normal-hitnormal.wav",25
Sample,91478,0,"normal-hitnormal.wav",25
Sample,95228,0,"LR_Ride FInish.wav",80
Sample,98978,0,"normal-hitnormal.wav",25
Sample,106478,0,"normal-hitnormal.wav",25
Sample,110228,0,"LR_Ride FInish.wav",80

[TimingPoints]
3353,468.75,4,2,1,70,1,0

[HitObjects]
64,192,4759,5,0,0:0:0:80:LR4_Snare DWRS.wav
448,192,4759,1,0,0:0:0:0:
192,192,4993,1,0,0:0:0:40:LR3_Kick BPD.wav
320,192,5228,128,0,5462:0:0:0:40:LR3_Kick BPD.wav
448,192,5228,1,0,0:0:0:80:LR_Ride FInish.wav
64,192,5462,128,0,5696:0:0:0:0:
448,192,5696,1,0,0:0:0:40:LR3_Kick BPD.wav
192,192,5931,128,0,6165:0:0:0:0:
320,192,6165,128,0,6399:0:0:0:40:LR3_Kick BPD.wav
64,192,6399,128,0,6634:0:0:0:0:
448,192,6634,1,0,0:0:0:40:LR3_Kick BPD.wav
320,192,6868,128,0,7103:0:0:0:0:
192,192,7103,128,0,7337:0:0:0:40:LR3_Kick BPD.wav
448,192,7337,128,0,7571:0:0:0:0:
64,192,7571,1,0,0:0:0:40:LR3_Kick BPD.wav
192,192,7806,1,0,0:0:0:0:
448,192,8040,1,0,0:0:0:40:LR3_Kick BPD.wav
64,192,8157,1,0,0:0:0:0:
320,192,8274,1,0,0:0:0:0:
192,192,8392,1,0,0:0:0:0:
448,192,8509,1,0,0:0:0:40:LR3_Kick BPD.wav
64,192,8743,1,0,0:0:0:0:
320,192,8978,128,0,9212:0:0:0:40:LR3_Kick BPD.wav
448,192,8978,1,0,0:0:0:0:
192,192,9212,128,0,9446:0:0:0:0:
448,192,9446,1,0,0:0:0:40:LR3_Kick BPD.wav
64,192,9681,128,0,9915:0:0:0:0:
192,192,9915,128,0,10149:0:0:0:40:LR3_Kick BPD.wav
448,192,10149,128,0,10384:0:0:0:0:
320,192,10384,1,0,0:0:0:40:LR3_Kick BPD.wav
64,192,10618,128,0,10853:0:0:0:0:
448,192,10853,128,0,11087:0:0:0:40:LR3_Kick BPD.wav
192,192,11087,128,0,11321:0:0:0:0:
64,192,11321,1,0,0:0:0:40:LR3_Kick BPD.wav
448,192,11556,1,0,0:0:0:0:
192,192,11790,1,0,0:0:0:40:LR3_Kick BPD.wav
320,192,11907,1,0,0:0:0:0:
64,192,12024,1,0,0:0:0:0:
448,192,12142,1,0,0:0:0:0:
64,192,12259,1,0,0:0:0:80:LR4_Snare DWRS.wav
192,192,12259,1,0,0:0:0:0:
320,192,12493,1,0,0:0:0:40:LR3_Kick BPD.wav
192,192,12728,1,0,0:0:0:40:LR3_Kick BPD.wav
448,192,12728,128,0,12962:0:0:0:0:
64,192,12962,128,0,13196:0:0:0:0:
320,192,13196,1,0,0:0:0:40:LR3_Kick BPD.wav
192,192,13431,128,0,13665:0:0:0:0:
448,192,13665,128,0,13899:0:0:0:40:LR3_Kick BPD.wav
320,192,13899,128,0,14134:0:0:0:0:
64,192,14134,1,0,0:0:0:40:LR3_Kick BPD.wav
192,192,14368,128,0,14603:0:0:0:0:
320,192,14603,128,0,14837:0:0:0:40:LR3_Kick BPD.wav
64,192,14837,128,0,15071:0:0:0:0:
448,192,15071,1,0,0:0:0:40:LR3_Kick BPD.wav
320,192,15306,1,0,0:0:0:0:
192,192,15540,1,0,0:0:0:40:LR3_Kick BPD.wav
448,192,15657,1,0,0:0:0:0:
64,192,15774,1,0,0:0:0:0:
320,192,15892,1,0,0:0:0:0:
192,192,16009,1,0,0:0:0:40:LR3_Kick BPD.wav
448,192,16243,1,0,0:0:0:0:
64,192,16478,128,0,16712:0:0:0:40:LR3_Kick BPD.wav
192,192,16478,1,0,0:0:0:0:
320,192,16712,128,0,16946:0:0:0:0:
192,192,16946,1,0,0:0:0:40:LR3_Kick BPD.wav
448,192,17181,128,0,17415:0:0:0:0:
64,192,17415,128,0,17649:0:0:0:40:LR3_Kick BPD.wav
320,192,17649,128,0,17884:0:0:0:0:
192,192,17884,1,0,0:0:0:40:LR3_Kick BPD.wav
448,192,18118,128,0,18353:0:0:0:0:
64,192,18353,128,0,18587:0:0:0:40:LR3_Kick BPD.wav
320,192,18587,128,0,18821:0:0:0:0:
448,192,18821,1,0,0:0:0:40:LR3_Kick BPD.wav
64,192,19056,1,0,0:0:0:0:
192,192,19290,1,0,0:0:0:40:LR3_Kick BPD.wav
448,192,19407,1,0,0:0:0:0:
64,192,19524,1,0,0:0:0:0:
320,192,19642,1,0,0:0:0:0:
192,192,19759,1,0,0:0:0:80:LR4_Snare DWRS.wav
448,192,19759,1,0,0:0:0:0:
192,192,19993,1,0,0:0:0:40:LR3_Kick BPD.wav
64,192,20228,1,0,0:0:0:40:LR3_Kick BPD.wav
448,192,20228,128,0,20462:0:0:0:80:LR_Ride FInish.wav
192,192,20462,128,0,20696:0:0:0:0:
320,192,20696,1,0,0:0:0:40:LR_DS - Snare Wet High.wav
448,192,20696,1,0,0:0:0:0:
64,192,20931,128,0,21165:0:0:0:0:
320,192,21165,128,0,21399:0:0:0:40:LR3_Kick BPD.wav
192,192,21399,128,0,21634:0:0:0:0:
64,192,21634,1,0,0:0:0:40:LR_DS - Snare Wet High.wav
448,192,21634,1,0,0:0:0:0:
320,192,21868,128,0,22337:0:0:0:0:
192,192,22103,1,0,0:0:0:40:LR3_Kick BPD.wav
64,192,22337,128,0,22571:0:0:0:0:
320,192,22571,1,0,0:0:0:40:LR_DS - Snare Wet High.wav
448,192,22571,128,0,22806:0:0:0:0:
64,192,22806,128,0,23040:0:0:0:0:
320,192,23040,1,0,0:0:0:40:LR3_Kick BPD.wav
192,192,23157,1,0,0:0:0:0:
448,192,23274,1,0,0:0:0:0:
64,192,23392,1,0,0:0:0:0:
192,192,23509,1,0,0:0:0:40:LR_DS - Snare Wet High.wav
320,192,23509,128,0,23743:0:0:0:0:
64,192,23743,128,0,23978:0:0:0:0:
320,192,23978,1,0,0:0:0:40:LR3_Kick BPD.wav
448,192,23978,128,0,24212:0:0:0:25:normal-hitnormal.wav
192,192,24212,128,0,24446:0:0:0:0:
64,192,24446,1,0,0:0:0:40:LR_DS - Snare Wet High.wav
448,192,24446,1,0,0:0:0:0:
320,192,24681,128,0,24915:0:0:0:0:
64,192,24915,128,0,25149:0:0:0:40:LR3_Kick BPD.wav
448,192,25149,128,0,25384:0:0:0:0:
64,192,25384,1,0,0:0:0:40:LR_DS - Snare Wet High.wav
320,192,25384,1,0,0:0:0:0:
192,192,25618,128,0,26087:0:0:0:0:
320,192,25853,1,0,0:0:0:40:LR3_Kick BPD.wav
448,192,26087,128,0,26321:0:0:0:0:
64,192,26321,128,0,26556:0:0:0:40:LR_DS - Snare Wet High.wav
192,192,26321,1,0,0:0:0:0:
448,192,26556,128,0,26790:0:0:0:0:
192,192,26790,1,0,0:0:0:40:LR3_Kick BPD.wav
320,192,26907,1,0,0:0:0:0:
64,192,27024,1,0,0:0:0:0:
448,192,27142,1,0,0:0:0:0:
192,192,27259,128,0,27493:0:0:0:40:LR_DS - Snare Wet High.wav
320,192,27259,1,0,0:0:0:0:
448,192,27493,128,0,27728:0:0:0:0:
64,192,27728,128,0,27962:0:0:0:40:LR3_Kick BPD.wav
192,192,27728,1,0,0:0:0:25:normal-hitnormal.wav
320,192,27962,128,0,28196:0:0:0:0:
64,192,28196,1,0,0:0:0:40:LR_DS - Snare Wet High.wav
448,192,28196,1,0,0:0:0:0:
192,192,28431,128,0,28665:0:0:0:0:
448,192,28665,128,0,28899:0:0:0:40:LR3_Kick BPD.wav
64,192,28899,128,0,29134:0:0:0:0:
192,192,29134,1,0,0:0:0:40:LR_DS - Snare Wet High.wav
448,192,29134,1,0,0:0:0:0:
320,192,29368,128,0,29837:0:0:0:0:
192,192,29603,1,0,0:0:0:40:LR3_Kick BPD.wav
64,192,29837,128,0,30071:0:0:0:0:
320,192,30071,1,0,0:0:0:40:LR_DS - Snare Wet High.wav
448,192,30071,128,0,30306:0:0:0:0:
64,192,30306,128,0,30540:0:0:0:0:
320,192,30540,1,0,0:0:0:40:LR3_Kick BPD.wav
448,192,30657,1,0,0:0:0:0:
192,192,30774,1,0,0:0:0:0:
320,192,30892,1,0,0:0:0:0:
64,192,31009,1,0,0:0:0:40:LR_DS - Snare Wet High.wav
192,192,31009,128,0,31243:0:0:0:0:
448,192,31243,128,0,31478:0:0:0:0:
64,192,31478,128,0,31946:0:0:0:25:normal-hitnormal.wav
192,192,31712,128,0,31946:0:0:0:0:
320,192,31946,128,0,32181:0:0:0:40:LR_DS - Snare Wet High.wav
448,192,31946,1,0,0:0:0:0:
64,192,32181,128,0,32415:0:0:0:0:
448,192,32415,128,0,32884:0:0:0:0:
320,192,32649,128,0,32884:0:0:0:0:
64,192,32884,1,0,0:0:0:40:LR_DS - Snare Wet High.wav
192,192,32884,128,0,33118:0:0:0:0:
448,192,33118,128,0,33353:0:0:0:0:
64,192,33353,128,0,33821:0:0:0:0:
192,192,33587,128,0,33821:0:0:0:0:
320,192,33821,1,0,0:0:0:40:LR_DS - Snare Wet High.wav
448,192,33821,1,0,0:0:0:0:
64,192,34056,1,0,0:0:0:0:
320,192,34290,1,0,0:0:0:0:
192,192,34407,1,0,0:0:0:0:
448,192,34524,1,0,0:0:0:0:
192,192,34642,1,0,0:0:0:0:
64,192,34759,1,0,0:0:0:40:LR_DS - Snare Wet High.wav
448,192,34759,1,0,0:0:0:0:
320,192,34993,1,0,0:0:0:40:LR3_Kick BPD.wav
192,192,35228,128,0,35579:0:0:0:40:LR3_Kick BPD.wav
320,192,35228,1,0,0:0:0:0:
64,192,35696,1,0,0:0:0:40:LR_DS - Snare Wet High.wav
448,192,35696,1,0,0:0:0:0:
192,192,35931,1,0,0:0:0:0:
320,192,36165,1,0,0:0:0:40:LR3_Kick BPD.wav
448,192,36165,128,0,36517:0:0:0:0:
64,192,36634,1,0,0:0:0:40:LR_DS - Snare Wet High.wav
192,192,36634,1,0,0:0:0:0:
320,192,36868,128,0,37103:0:0:0:0:
192,192,37103,128,0,37337:0:0:0:40:LR3_Kick BPD.wav
448,192,37337,128,0,37571:0:0:0:0:
64,192,37571,1,0,0:0:0:40:LR_DS - Snare Wet High.wav
192,192,37571,128,0,37806:0:0:0:0:
320,192,37806,128,0,38040:0:0:0:0:
64,192,38040,128,0,38274:0:0:0:40:LR3_Kick BPD.wav
192,192,38274,128,0,38509:0:0:0:0:
320,192,38509,1,0,0:0:0:40:LR_DS - Snare Wet High.wav
448,192,38509,128,0,38743:0:0:0:0:
192,192,38743,1,0,0:0:0:0:
64,192,38978,128,0,39329:0:0:0:40:LR3_Kick BPD.wav
320,192,38978,1,0,0:0:0:25:normal-hitnormal.wav
192,192,39446,1,0,0:0:0:40:LR_DS - Snare Wet High.wav
448,192,39446,1,0,0:0:0:0:
64,192,39681,1,0,0:0:0:0:
320,192,39915,128,0,40267:0:0:0:40:LR3_Kick BPD.wav
448,192,39915,1,0,0:0:0:0:
64,192,40384,1,0,0:0:0:40:LR_DS - Snare Wet High.wav
192,192,40384,1,0,0:0:0:0:
448,192,40618,128,0,40853:0:0:0:0:
320,192,40853,128,0,41087:0:0:0:40:LR3_Kick BPD.wav
192,192,41087,128,0,41321:0:0:0:0:
64,192,41321,1,0,0:0:0:40:LR_DS - Snare Wet High.wav
448,192,41321,128,0,41556:0:0:0:0:
320,192,41556,128,0,41790:0:0:0:0:
64,192,41790,128,0,42024:0:0:0:40:LR3_Kick BPD.wav
192,192,42024,128,0,42259:0:0:0:0:
320,192,42259,1,0,0:0:0:40:LR_DS - Snare Wet High.wav
448,192,42259,128,0,42493:0:0:0:0:
64,192,42493,128,0,42728:0:0:0:0:
192,192,42728,1,0,0:0:0:40:LR3_Kick BPD.wav
320,192,42728,128,0,43079:0:0:0:25:normal-hitnormal.wav
64,192,43196,1,0,0:0:0:40:LR_DS - Snare Wet High.wav
448,192,43196,1,0,0:0:0:0:
320,192,43431,1,0,0:0:0:0:
64,192,43665,1,0,0:0:0:40:LR3_Kick BPD.wav
192,192,43665,128,0,44017:0:0:0:0:
320,192,44134,1,0,0:0:0:40:LR_DS - Snare Wet High.wav
448,192,44134,1,0,0:0:0:0:
64,192,44368,128,0,44603:0:0:0:0:
192,192,44603,128,0,44837:0:0:0:40:LR3_Kick BPD.wav
448,192,44837,128,0,45071:0:0:0:0:
64,192,45071,128,0,45306:0:0:0:40:LR_DS - Snare Wet High.wav
320,192,45071,1,0,0:0:0:0:
192,192,45306,128,0,45540:0:0:0:0:
448,192,45540,128,0,45774:0:0:0:40:LR3_Kick BPD.wav
320,192,45774,128,0,46009:0:0:0:0:
64,192,46009,128,0,46243:0:0:0:40:LR_DS - Snare Wet High.wav
192,192,46009,1,0,0:0:0:0:
448,192,46243,128,0,46478:0:0:0:0:
64,192,46478,1,0,0:0:0:40:LR3_Kick BPD.wav
192,192,46478,128,0,46829:0:0:0:25:normal-hitnormal.wav
320,192,46946,1,0,0:0:0:40:LR_DS - Snare Wet High.wav
448,192,46946,1,0,0:0:0:0:
64,192,47181,1,0,0:0:0:0:
192,192,47415,1,0,0:0:0:40:LR3_Kick BPD.wav
320,192,47415,128,0,47767:0:0:0:0:
64,192,47884,1,0,0:0:0:40:LR_DS - Snare Wet High.wav
448,192,47884,1,0,0:0:0:0:
192,192,48118,128,0,48353:0:0:0:0:
320,192,48353,128,0,48587:0:0:0:40:LR3_Kick BPD.wav
448,192,48587,128,0,48821:0:0:0:0:
64,192,48821,128,0,49056:0:0:0:40:LR_DS - Snare Wet High.wav
192,192,48821,1,0,0:0:0:0:
320,192,49056,128,0,49290:0:0:0:0:
192,192,49290,128,0,49524:0:0:0:40:LR3_Kick BPD.wav
448,192,49524,128,0,49759:0:0:0:0:
64,192,49759,128,0,50228:0:0:0:40:LR_DS - Snare Wet High.wav
320,192,49759,1,0,0:0:0:0:
192,192,49993,128,0,50228:0:0:0:0:
320,192,50228,128,0,50579:0:0:0:40:LR3_Kick BPD.wav
448,192,50228,1,0,0:0:0:25:normal-hitnormal.wav
64,192,50696,1,0,0:0:0:40:LR_DS - Snare Wet High.wav
192,192,50696,1,0,0:0:0:0:
320,192,50931,1,0,0:0:0:0:
64,192,51165,1,0,0:0:0:40:LR3_Kick BPD.wav
448,192,51165,128,0,51517:0:0:0:0:
192,192,51634,1,0,0:0:0:40:LR_DS - Snare Wet High.wav
320,192,51634,1,0,0:0:0:0:
64,192,51868,128,0,52103:0:0:0:0:
448,192,52103,128,0,52337:0:0:0:40:LR3_Kick BPD.wav
320,192,52337,128,0,52571:0:0:0:0:
64,192,52571,1,0,0:0:0:40:LR_DS - Snare Wet High.wav
192,192,52571,128,0,52806:0:0:0:0:
448,192,52806,128,0,53040:0:0:0:0:
64,192,53040,128,0,53274:0:0:0:40:LR3_Kick BPD.wav
320,192,53274,128,0,53509:0:0:0:0:
192,192,53509,128,0,53743:0:0:0:40:LR_DS - Snare Wet High.wav
448,192,53509,1,0,0:0:0:0:
320,192,53743,1,0,0:0:0:0:
64,192,53978,128,0,54329:0:0:0:40:LR3_Kick BPD.wav
448,192,53978,1,0,0:0:0:25:normal-hitnormal.wav
192,192,54446,1,0,0:0:0:40:LR_DS - Snare Wet High.wav
320,192,54446,1,0,0:0:0:0:
448,192,54681,1,0,0:0:0:0:
64,192,54915,1,0,0:0:0:40:LR3_Kick BPD.wav
192,192,54915,128,0,55267:0:0:0:0:
320,192,55384,1,0,0:0:0:40:LR_DS - Snare Wet High.wav
448,192,55384,1,0,0:0:0:0:
64,192,55618,128,0,55853:0:0:0:0:
192,192,55853,128,0,56087:0:0:0:40:LR3_Kick BPD.wav
448,192,56087,128,0,56321:0:0:0:0:
64,192,56321,1,0,0:0:0:40:LR_DS - Snare Wet High.wav
320,192,56321,128,0,56556:0:0:0:0:
192,192,56556,128,0,56790:0:0:0:0:
448,192,56790,128,0,57024:0:0:0:40:LR3_Kick BPD.wav
64,192,57024,128,0,57259:0:0:0:0:
192,192,57259,128,0,57493:0:0:0:40:LR_DS - Snare Wet High.wav
448,192,57259,1,0,0:0:0:0:
320,192,57493,128,0,57728:0:0:0:0:
64,192,57728,1,0,0:0:0:40:LR3_Kick BPD.wav
448,192,57728,128,0,58079:0:0:0:25:normal-hitnormal.wav
64,192,58196,1,0,0:0:0:40:LR_DS - Snare Wet High.wav
192,192,58196,1,0,0:0:0:0:
320,192,58431,1,0,0:0:0:0:
64,192,58665,128,0,59017:0:0:0:40:LR3_Kick BPD.wav
448,192,58665,1,0,0:0:0:0:
192,192,59134,1,0,0:0:0:40:LR_DS - Snare Wet High.wav
320,192,59134,1,0,0:0:0:0:
448,192,59368,128,0,59603:0:0:0:0:
64,192,59603,128,0,59837:0:0:0:40:LR3_Kick BPD.wav
192,192,59837,128,0,60071:0:0:0:0:
320,192,60071,128,0,60306:0:0:0:40:LR_DS - Snare Wet High.wav
448,192,60071,1,0,0:0:0:0:
64,192,60306,128,0,60540:0:0:0:0:
448,192,60540,128,0,60774:0:0:0:40:LR3_Kick BPD.wav
320,192,60774,128,0,61009:0:0:0:0:
64,192,61009,1,0,0:0:0:40:LR_DS - Snare Wet High.wav
192,192,61009,128,0,61243:0:0:0:0:
448,192,61243,1,0,0:0:0:0:
64,192,61478,128,0,61829:0:0:0:40:LR3_Kick BPD.wav
320,192,61478,1,0,0:0:0:25:normal-hitnormal.wav
192,192,61946,1,0,0:0:0:40:LR_DS - Snare Wet High.wav
448,192,61946,1,0,0:0:0:0:
64,192,62181,1,0,0:0:0:0:
192,192,62415,1,0,0:0:0:40:LR3_Kick BPD.wav
320,192,62415,128,0,62767:0:0:0:0:
64,192,62884,1,0,0:0:0:40:LR_DS - Snare Wet High.wav
448,192,62884,1,0,0:0:0:0:
192,192,63118,128,0,63353:0:0:0:0:
320,192,63353,128,0,63587:0:0:0:40:LR3_Kick BPD.wav
64,192,63587,128,0,63821:0:0:0:0:
320,192,63821,1,0,0:0:0:40:LR_DS - Snare Wet High.wav
448,192,63821,128,0,64056:0:0:0:0:
192,192,64056,128,0,64290:0:0:0:0:
320,192,64290,128,0,64524:0:0:0:40:LR3_Kick BPD.wav
64,192,64524,128,0,64759:0:0:0:0:
192,192,64759,1,0,0:0:0:40:LR_DS - Snare Wet High.wav
448,192,64759,128,0,65228:0:0:0:0:
320,192,64993,128,0,65228:0:0:0:0:
64,192,65228,128,0,65579:0:0:0:40:LR3_Kick BPD.wav
192,192,65228,1,0,0:0:0:25:normal-hitnormal.wav
320,192,65696,1,0,0:0:0:40:LR_DS - Snare Wet High.wav
448,192,65696,1,0,0:0:0:0:
192,192,65931,1,0,0:0:0:0:
64,192,66165,1,0,0:0:0:40:LR3_Kick BPD.wav
448,192,66165,128,0,66517:0:0:0:0:
64,192,66634,1,0,0:0:0:40:LR_DS - Snare Wet High.wav
320,192,66634,1,0,0:0:0:0:
192,192,66868,128,0,67337:0:0:0:0:
448,192,67103,1,0,0:0:0:40:LR3_Kick BPD.wav
320,192,67337,128,0,67571:0:0:0:0:
64,192,67571,128,0,68040:0:0:0:40:LR_DS - Snare Wet High.wav
192,192,67571,1,0,0:0:0:0:
448,192,67806,1,0,0:0:0:0:
320,192,68040,128,0,68509:0:0:0:40:LR3_Kick BPD.wav
64,192,68274,1,0,0:0:0:0:
192,192,68509,128,0,68978:0:0:0:40:LR_DS - Snare Wet High.wav
448,192,68509,1,0,0:0:0:0:
64,192,68743,1,0,0:0:0:0:
320,192,68978,1,0,0:0:0:40:LR3_Kick BPD.wav
448,192,68978,128,0,69329:0:0:0:25:normal-hitnormal.wav
64,192,69446,1,0,0:0:0:40:LR_DS - Snare Wet High.wav
192,192,69446,1,0,0:0:0:0:
320,192,69681,1,0,0:0:0:0:
64,192,69915,128,0,70267:0:0:0:40:LR3_Kick BPD.wav
448,192,69915,1,0,0:0:0:0:
192,192,70384,1,0,0:0:0:40:LR_DS - Snare Wet High.wav
448,192,70384,1,0,0:0:0:0:
320,192,70618,128,0,70853:0:0:0:0:
64,192,70853,1,0,0:0:0:40:LR3_Kick BPD.wav
192,192,71087,128,0,71321:0:0:0:0:
320,192,71321,1,0,0:0:0:40:LR_DS - Snare Wet High.wav
448,192,71321,128,0,71790:0:0:0:0:
64,192,71556,1,0,0:0:0:0:
192,192,71790,128,0,72259:0:0:0:40:LR3_Kick BPD.wav
448,192,72024,1,0,0:0:0:0:
64,192,72259,1,0,0:0:0:40:LR_DS - Snare Wet High.wav
320,192,72259,128,0,72728:0:0:0:0:
192,192,72493,1,0,0:0:0:0:
64,192,72728,128,0,73079:0:0:0:40:LR3_Kick BPD.wav
448,192,72728,1,0,0:0:0:25:normal-hitnormal.wav
192,192,73196,1,0,0:0:0:40:LR_DS - Snare Wet High.wav
448,192,73196,1,0,0:0:0:0:
320,192,73431,1,0,0:0:0:0:
64,192,73665,1,0,0:0:0:40:LR3_Kick BPD.wav
192,192,73665,128,0,74017:0:0:0:0:
320,192,74134,1,0,0:0:0:40:LR_DS - Snare Wet High.wav
448,192,74134,1,0,0:0:0:0:
64,192,74368,1,0,0:0:0:0:
448,192,74603,128,0,75071:0:0:0:40:LR3_Kick BPD.wav
320,192,74837,1,0,0:0:0:0:
64,192,75071,128,0,75540:0:0:0:40:LR_DS - Snare Wet High.wav
192,192,75071,1,0,0:0:0:0:
448,192,75306,1,0,0:0:0:0:
320,192,75540,128,0,76009:0:0:0:40:LR3_Kick BPD.wav
192,192,75774,1,0,0:0:0:0:
64,192,76009,1,0,0:0:0:40:LR_DS - Snare Wet High.wav
448,192,76009,1,0,0:0:0:0:
192,192,76243,128,0,76478:0:0:0:0:
320,192,76478,1,0,0:0:0:40:LR3_Kick BPD.wav
448,192,76478,1,0,0:0:0:0:
64,192,76712,128,0,76946:0:0:0:0:
192,192,76946,1,0,0:0:0:40:LR_DS - Snare Wet High.wav
448,192,76946,1,0,0:0:0:0:
320,192,77181,128,0,77415:0:0:0:0:
64,192,77415,1,0,0:0:0:40:LR3_Kick BPD.wav
448,192,77649,128,0,77884:0:0:0:0:
64,192,77884,1,0,0:0:0:40:LR_DS - Snare Wet High.wav
320,192,77884,1,0,0:0:0:0:
192,192,78118,128,0,79173:0:0:0:25:normal-hitnormal.wav
448,192,78118,1,0,0:0:0:0:
448,192,78470,1,0,0:0:0:50:LR3_Snare RSH.wav
64,192,78587,1,0,0:0:0:50:LR3_Snare RSH.wav
320,192,78821,1,0,0:0:0:25:normal-hitnormal.wav
64,192,79056,1,0,0:0:0:50:LR3_Snare RSH.wav
448,192,79173,1,0,0:0:0:25:normal-hitnormal.wav
320,192,79407,1,0,0:0:0:50:LR3_Snare RSH.wav
192,192,79524,1,0,0:0:0:25:normal-hitnormal.wav
64,192,79759,1,0,0:0:0:40:LR_DS - Snare Wet High.wav
448,192,79759,1,0,0:0:0:0:
320,192,79993,1,0,0:0:0:40:LR3_Kick BPD.wav
192,192,80228,128,0,80462:0:0:0:40:LR3_Kick BPD.wav
320,192,80228,1,0,0:0:0:80:LR_Ride FInish.wav
64,192,80462,1,0,0:0:0:0:
192,192,80696,1,0,0:0:0:40:LR4_SnareBPDT.wav
448,192,80696,128,0,80931:0:0:0:0:
320,192,80931,1,0,0:0:0:0:
64,192,81165,128,0,81399:0:0:0:40:LR3_Kick BPD.wav
320,192,81399,128,0,81634:0:0:0:0:
64,192,81634,1,0,0:0:0:40:LR4_SnareBPDT.wav
192,192,81634,128,0,81868:0:0:0:0:
448,192,81868,128,0,82337:0:0:0:0:
192,192,82103,1,0,0:0:0:40:LR3_Kick BPD.wav
64,192,82337,128,0,82571:0:0:0:0:
320,192,82571,1,0,0:0:0:40:LR4_SnareBPDT.wav
448,192,82571,1,0,0:0:0:0:
192,192,82806,128,0,83509:0:0:0:0:
448,192,83040,1,0,0:0:0:40:LR3_Kick BPD.wav
320,192,83274,128,0,83509:0:0:0:0:
64,192,83509,1,0,0:0:0:40:LR4_SnareBPDT.wav
448,192,83509,1,0,0:0:0:0:
320,192,83743,128,0,84446:0:0:0:0:
64,192,83978,1,0,0:0:0:40:LR3_Kick BPD.wav
192,192,84212,128,0,84446:0:0:0:0:
64,192,84446,1,0,0:0:0:40:LR4_SnareBPDT.wav
448,192,84446,1,0,0:0:0:0:
192,192,84681,1,0,0:0:0:0:
320,192,84798,128,0,85149:0:0:0:0:
64,192,84915,1,0,0:0:0:40:LR3_Kick BPD.wav
192,192,85149,128,0,85384:0:0:0:0:
320,192,85384,1,0,0:0:0:40:LR4_SnareBPDT.wav
448,192,85384,128,0,85618:0:0:0:0:
64,192,85618,128,0,86087:0:0:0:0:
192,192,85853,1,0,0:0:0:40:LR3_Kick BPD.wav
320,192,86087,128,0,86321:0:0:0:0:
192,192,86321,128,0,86790:0:0:0:40:LR4_SnareBPDT.wav
448,192,86321,1,0,0:0:0:0:
320,192,86790,1,0,0:0:0:40:LR3_Kick BPD.wav
64,192,86907,1,0,0:0:0:0:
448,192,87024,1,0,0:0:0:0:
192,192,87142,1,0,0:0:0:0:
320,192,87259,1,0,0:0:0:40:LR4_SnareBPDT.wav
448,192,87259,1,0,0:0:0:0:
64,192,87493,1,0,0:0:0:0:
320,192,87610,128,0,87962:0:0:0:25:normal-hitnormal.wav
448,192,87728,1,0,0:0:0:40:LR3_Kick BPD.wav
192,192,87962,128,0,88196:0:0:0:0:
64,192,88196,1,0,0:0:0:40:LR4_SnareBPDT.wav
448,192,88196,1,0,0:0:0:0:
320,192,88431,1,0,0:0:0:0:
64,192,88548,128,0,88899:0:0:0:0:
192,192,88665,1,0,0:0:0:40:LR3_Kick BPD.wav
448,192,88899,128,0,89134:0:0:0:0:
64,192,89134,1,0,0:0:0:40:LR4_SnareBPDT.wav
192,192,89134,1,0,0:0:0:0:
320,192,89368,128,0,89603:0:0:0:0:
64,192,89603,128,0,89837:0:0:0:40:LR3_Kick BPD.wav
448,192,89837,128,0,90071:0:0:0:0:
192,192,90071,1,0,0:0:0:40:LR4_SnareBPDT.wav
320,192,90071,128,0,90306:0:0:0:0:
64,192,90306,128,0,90540:0:0:0:0:
192,192,90540,1,0,0:0:0:40:LR3_Kick BPD.wav
448,192,90657,1,0,0:0:0:0:
320,192,90774,1,0,0:0:0:0:
64,192,90892,1,0,0:0:0:0:
192,192,91009,1,0,0:0:0:40:LR4_SnareBPDT.wav
448,192,91009,1,0,0:0:0:0:
320,192,91243,1,0,0:0:0:0:
64,192,91360,128,0,91712:0:0:0:25:normal-hitnormal.wav
192,192,91478,1,0,0:0:0:40:LR3_Kick BPD.wav
448,192,91712,128,0,91946:0:0:0:0:
64,192,91946,1,0,0:0:0:40:LR4_SnareBPDT.wav
320,192,91946,1,0,0:0:0:0:
192,192,92181,128,0,92415:0:0:0:0:
320,192,92415,1,0,0:0:0:40:LR3_Kick BPD.wav
64,192,92649,128,0,92884:0:0:0:0:
192,192,92884,1,0,0:0:0:40:LR4_SnareBPDT.wav
448,192,92884,128,0,93118:0:0:0:0:
320,192,93118,128,0,93353:0:0:0:0:
192,192,93353,128,0,93587:0:0:0:40:LR3_Kick BPD.wav
448,192,93587,128,0,93821:0:0:0:0:
64,192,93821,128,0,94056:0:0:0:40:LR4_SnareBPDT.wav
320,192,93821,1,0,0:0:0:0:
192,192,94056,128,0,94290:0:0:0:0:
448,192,94290,1,0,0:0:0:40:LR3_Kick BPD.wav
320,192,94407,1,0,0:0:0:0:
64,192,94524,1,0,0:0:0:0:
192,192,94642,1,0,0:0:0:0:
320,192,94759,1,0,0:0:0:40:LR4_SnareBPDT.wav
448,192,94759,1,0,0:0:0:0:
64,192,94993,128,0,95228:0:0:0:0:
192,192,95228,1,0,0:0:0:40:LR3_Kick BPD.wav
448,192,95228,128,0,95462:0:0:0:25:normal-hitnormal.wav
320,192,95462,128,0,95696:0:0:0:0:
64,192,95696,1,0,0:0:0:40:LR4_SnareBPDT.wav
192,192,95696,128,0,96165:0:0:0:0:
448,192,96165,128,0,96399:0:0:0:40:LR3_Kick BPD.wav
64,192,96399,128,0,96634:0:0:0:0:
320,192,96634,128,0,96868:0:0:0:40:LR4_SnareBPDT.wav
448,192,96634,1,0,0:0:0:0:
192,192,96868,128,0,97103:0:0:0:0:
320,192,97103,1,0,0:0:0:40:LR3_Kick BPD.wav
64,192,97337,128,0,97571:0:0:0:0:
192,192,97571,1,0,0:0:0:40:LR4_SnareBPDT.wav
448,192,97571,1,0,0:0:0:0:
320,192,97806,128,0,98509:0:0:0:0:
192,192,98040,1,0,0:0:0:40:LR3_Kick BPD.wav
64,192,98274,128,0,98509:0:0:0:0:
192,192,98509,1,0,0:0:0:40:LR4_SnareBPDT.wav
448,192,98509,1,0,0:0:0:0:
192,192,98743,128,0,99446:0:0:0:0:
320,192,98978,1,0,0:0:0:40:LR3_Kick BPD.wav
448,192,99212,128,0,99446:0:0:0:0:
64,192,99446,1,0,0:0:0:40:LR4_SnareBPDT.wav
320,192,99446,1,0,0:0:0:0:
192,192,99681,1,0,0:0:0:0:
320,192,99798,128,0,100149:0:0:0:0:
64,192,99915,1,0,0:0:0:40:LR3_Kick BPD.wav
448,192,100149,128,0,100384:0:0:0:0:
64,192,100384,128,0,100618:0:0:0:40:LR4_SnareBPDT.wav
192,192,100384,1,0,0:0:0:0:
320,192,100618,128,0,101087:0:0:0:0:
64,192,100853,1,0,0:0:0:40:LR3_Kick BPD.wav
192,192,101087,128,0,101321:0:0:0:0:
320,192,101321,1,0,0:0:0:40:LR4_SnareBPDT.wav
448,192,101321,128,0,101790:0:0:0:0:
64,192,101790,1,0,0:0:0:40:LR3_Kick BPD.wav
192,192,101907,1,0,0:0:0:0:
448,192,102024,1,0,0:0:0:0:
320,192,102142,1,0,0:0:0:0:
64,192,102259,1,0,0:0:0:40:LR4_SnareBPDT.wav
192,192,102259,1,0,0:0:0:0:
448,192,102493,128,0,102728:0:0:0:0:
64,192,102728,128,0,102962:0:0:0:40:LR3_Kick BPD.wav
320,192,102728,1,0,0:0:0:25:normal-hitnormal.wav
192,192,102962,128,0,103196:0:0:0:0:
320,192,103196,1,0,0:0:0:40:LR4_SnareBPDT.wav
448,192,103196,1,0,0:0:0:0:
192,192,103431,1,0,0:0:0:0:
448,192,103548,128,0,103899:0:0:0:0:
64,192,103665,1,0,0:0:0:40:LR3_Kick BPD.wav
320,192,103899,128,0,104134:0:0:0:0:
64,192,104134,1,0,0:0:0:40:LR4_SnareBPDT.wav
192,192,104134,1,0,0:0:0:0:
448,192,104368,128,0,104603:0:0:0:0:
192,192,104603,128,0,104837:0:0:0:40:LR3_Kick BPD.wav
320,192,104837,128,0,105071:0:0:0:0:
64,192,105071,128,0,105306:0:0:0:40:LR4_SnareBPDT.wav
192,192,105071,1,0,0:0:0:0:
448,192,105306,128,0,105540:0:0:0:0:
320,192,105540,1,0,0:0:0:40:LR3_Kick BPD.wav
64,192,105657,1,0,0:0:0:0:
448,192,105774,1,0,0:0:0:0:
192,192,105892,1,0,0:0:0:0:
64,192,106009,1,0,0:0:0:40:LR4_SnareBPDT.wav
320,192,106009,1,0,0:0:0:0:
448,192,106243,1,0,0:0:0:0:
192,192,106360,128,0,106712:0:0:0:25:normal-hitnormal.wav
320,192,106478,1,0,0:0:0:40:LR3_Kick BPD.wav
448,192,106712,128,0,106946:0:0:0:0:
64,192,106946,1,0,0:0:0:40:LR4_SnareBPDT.wav
192,192,106946,1,0,0:0:0:0:
448,192,107181,1,0,0:0:0:0:
320,192,107298,128,0,107649:0:0:0:0:
192,192,107415,1,0,0:0:0:40:LR3_Kick BPD.wav
64,192,107649,128,0,107884:0:0:0:0:
192,192,107884,1,0,0:0:0:40:LR4_SnareBPDT.wav
448,192,107884,1,0,0:0:0:0:
320,192,108118,128,0,108353:0:0:0:0:
192,192,108353,128,0,108587:0:0:0:40:LR3_Kick BPD.wav
448,192,108587,128,0,108821:0:0:0:0:
64,192,108821,128,0,109056:0:0:0:40:LR4_SnareBPDT.wav
192,192,108821,1,0,0:0:0:0:
320,192,109056,128,0,109290:0:0:0:0:
448,192,109290,1,0,0:0:0:40:LR3_Kick BPD.wav
192,192,109524,128,0,109759:0:0:0:0:
320,192,109759,1,0,0:0:0:40:LR4_SnareBPDT.wav
448,192,109759,1,0,0:0:0:0:
64,192,109993,128,0,110228:0:0:0:0:
192,192,110228,1,0,0:0:0:40:LR3_Kick BPD.wav
448,192,110228,128,0,112103:0:0:0:25:normal-hitnormal.wav
64,192,110696,1,0,0:0:0:70:LR4_SnareDropDwS.wav
192,192,110696,1,0,0:0:0:0:
320,192,111165,1,0,0:0:0:40:LR3_Kick BPD.wav
64,192,111634,1,0,0:0:0:70:LR4_SnareDropDwS.wav
192,192,111634,1,0,0:0:0:0:
320,192,112103,1,0,0:0:0:40:LR3_Kick BPD.wav
64,192,112337,128,0,112571:0:0:0:0:
320,192,112571,1,0,0:0:0:70:LR4_SnareDropDwS.wav
448,192,112571,128,0,112806:0:0:0:0:
64,192,112806,1,0,0:0:0:0:
192,192,112923,128,0,113274:0:0:0:0:
320,192,113040,1,0,0:0:0:40:LR3_Kick BPD.wav
448,192,113274,128,0,113509:0:0:0:0:
192,192,113509,1,0,0:0:0:70:LR4_SnareDropDwS.wav
320,192,113509,128,0,113743:0:0:0:0:
64,192,113743,128,0,115384:0:0:0:0:
192,192,113978,1,0,0:0:0:40:LR3_Kick BPD.wav
320,192,114446,1,0,0:0:0:70:LR4_SnareDropDwS.wav
448,192,114446,1,0,0:0:0:0:
192,192,114915,1,0,0:0:0:40:LR3_Kick BPD.wav
192,192,115384,1,0,0:0:0:70:LR4_SnareDropDwS.wav
320,192,115384,1,0,0:0:0:0:
448,192,115618,128,0,117728:0:0:0:0:
320,192,115853,1,0,0:0:0:40:LR3_Kick BPD.wav
64,192,116321,1,0,0:0:0:70:LR4_SnareDropDwS.wav
192,192,116321,1,0,0:0:0:0:
320,192,116790,1,0,0:0:0:40:LR3_Kick BPD.wav
64,192,117259,1,0,0:0:0:70:LR4_SnareDropDwS.wav
192,192,117259,1,0,0:0:0:0:
320,192,117493,1,0,0:0:0:0:
192,192,117728,128,0,117962:0:0:0:40:LR3_Kick BPD.wav
320,192,118196,1,0,0:0:0:70:LR4_SnareDropDwS.wav
448,192,118196,1,0,0:0:0:0:
64,192,118431,1,0,0:0:0:0:
448,192,118665,1,0,0:0:0:40:LR3_Kick BPD.wav
320,192,118899,128,0,119134:0:0:0:0:
64,192,119134,1,0,0:0:0:70:LR4_SnareDropDwS.wav
192,192,119134,128,0,119368:0:0:0:0:
448,192,119368,128,0,119837:0:0:0:0:
320,192,119603,1,0,0:0:0:40:LR3_Kick BPD.wav
64,192,119837,128,0,120071:0:0:0:0:
192,192,120071,128,0,120306:0:0:0:70:LR4_SnareDropDwS.wav
448,192,120071,1,0,0:0:0:0:
320,192,120306,128,0,120540:0:0:0:0:
64,192,120540,128,0,120774:0:0:0:40:LR3_Kick BPD.wav
448,192,120774,128,0,121009:0:0:0:0:
64,192,121009,1,0,0:0:0:70:LR4_SnareDropDwS.wav
320,192,121009,128,0,121243:0:0:0:0:
192,192,121243,128,0,121478:0:0:0:0:
448,192,121478,128,0,121712:0:0:0:40:LR3_Kick BPD.wav
320,192,121712,1,0,0:0:0:0:
64,192,121946,1,0,0:0:0:70:LR4_SnareDropDwS.wav
192,192,121946,1,0,0:0:0:0:
448,192,122181,1,0,0:0:0:0:
192,192,122415,128,0,122649:0:0:0:40:LR3_Kick BPD.wav
64,192,122884,1,0,0:0:0:70:LR4_SnareDropDwS.wav
448,192,122884,128,0,123118:0:0:0:0:
192,192,123118,128,0,123587:0:0:0:0:
320,192,123353,1,0,0:0:0:40:LR3_Kick BPD.wav
64,192,123587,128,0,123821:0:0:0:0:
320,192,123821,1,0,0:0:0:70:LR4_SnareDropDwS.wav
448,192,123821,128,0,124056:0:0:0:0:
192,192,124056,128,0,124290:0:0:0:0:
320,192,124290,128,0,124759:0:0:0:40:LR3_Kick BPD.wav
64,192,124759,128,0,124993:0:0:0:70:LR4_SnareDropDwS.wav
192,192,124759,1,0,0:0:0:0:
448,192,124993,128,0,125228:0:0:0:0:
64,192,125228,128,0,125696:0:0:0:80:LR_Drum Low Finish Long Echo.wav
320,192,125228,1,0,0:0:0:0:
