osu file format v14

[General]
AudioFilename: audio.mp3
AudioLeadIn: 0
PreviewTime: 11846
Countdown: 0
SampleSet: Soft
StackLeniency: 0.7
Mode: 0
LetterboxInBreaks: 0
WidescreenStoryboard: 1

[Editor]
DistanceSpacing: 0.9
BeatDivisor: 8
GridSize: 4
TimelineZoom: 1.5

[Metadata]
Title:Hypnosis Mic -Rhyme Anima- (TV Size)
TitleUnicode:ヒプノシスマイク -Rhyme Anima- (TV Size)
Artist:Division All Stars
ArtistUnicode:Division All Stars
Creator:Addy2607
Version:Normal
Source:ヒプノシスマイク -Division Rap Battle- Rhyme Anima
Tags:kanor yahuri hypmic microphone anime animation multimedia project intro opening theme song japanese hip hop hiphop hip-hop j-rock jrock rock king records ideal factory a-1 pictures evil line records Buster Bros!!! Ikebukuro Ichirou Yamada MC B.B 山田一郎 Jiro Jirou Jirō M.B 二郎 Saburo L.B' 三郎 MAD TRIGGER CREW MTC Yokohama Samatoki Aohitsugi Mr.Hc 碧棺 左馬刻 Jyuto Iruma 45 Rabbit 入間銃兎 Rio Mason Busujima Crazy M 毒島 メイソン 理鶯 Fling Posse Shibuya Ramuda Amemura easy R 飴村乱数 Dice Arisugawa Dead or Alive 有栖川 帝統 Gentaro Yumeno 夢野 幻太郎 Matenro Matenrou Matenrō 麻天狼 Shinjuku Jakurai Jinguj ill-DOC 神宮寺寂雷 Hifumi Izanami GIGOLO 伊弉冉 一二三 Doppo Kannonzaka 観音坂 独歩
BeatmapID:2703294
BeatmapSetID:1302729

[Difficulty]
HPDrainRate:5
CircleSize:3
OverallDifficulty:5
ApproachRate:5
SliderMultiplier:1.1
SliderTickRate:1

[Events]
//Background and Video events
0,0,"gvjZQ5W.jpg",0,0
Video,70,"video.mp4"
//Break Periods
//Storyboard Layer 0 (Background)
//Storyboard Layer 1 (Fail)
//Storyboard Layer 2 (Pass)
//Storyboard Layer 3 (Foreground)
//Storyboard Layer 4 (Overlay)
//Storyboard Sound Samples

[TimingPoints]
315,375,4,2,1,60,1,0
315,-100,4,2,1,60,0,0
5940,-100,4,2,1,60,0,0
6315,-100,4,2,1,60,0,0
11940,-100,4,2,1,70,0,0
12315,-100,4,2,1,70,0,0
12502,-100,4,2,1,60,0,0
17565,-100,4,2,1,70,0,0
18315,-100,4,2,1,60,0,0
22815,-100,4,2,1,70,0,0
23752,-100,4,2,1,70,0,0
24315,-100,4,2,1,60,0,0
24690,-100,4,2,1,60,0,0
25065,-100,4,2,1,60,0,0
25815,-100,4,2,1,60,0,0
27315,-100,4,2,1,60,0,0
28815,-100,4,2,1,70,0,0
29940,-100,4,2,1,70,0,0
30315,-100,4,2,1,60,0,0
30690,-100,4,2,1,60,0,0
35565,-100,4,2,1,70,0,0
35940,-100,4,2,1,70,0,0
36315,-100,4,2,2,50,0,0
40815,-100,4,2,3,70,0,0
42315,-100,4,2,2,50,0,0
45315,-100,4,2,2,50,0,0
46815,-100,4,2,3,70,0,0
48315,-100,4,2,1,60,0,0
48502,-100,4,2,1,60,0,0
49065,-100,4,2,1,60,0,0
51315,-100,4,2,1,60,0,0
52065,-100,4,2,1,60,0,0
54315,-100,4,2,1,60,0,0
56940,-100,4,2,1,60,0,0
57315,-100,4,2,1,60,0,0
59940,-100,4,2,3,70,0,0
61440,-100,4,2,1,70,0,0
61815,-100,4,2,1,70,0,0
62940,-100,4,2,3,60,0,0
63221,-100,4,2,3,60,0,0
63315,-100,4,2,1,80,0,0
84315,-100,4,2,1,80,0,0
85627,-100,4,2,3,60,0,0
87127,-100,4,2,1,70,0,0
88627,-100,4,2,3,60,0,0

[Colours]
Combo1 : 192,192,192
Combo2 : 255,0,0
Combo3 : 13,80,255
Combo4 : 253,234,0

[HitObjects]
492,13,315,6,0,L|488:141,1,110,2|2,3:2|0:0,0:0:0:0:
486,176,877,1,2,3:2:0:0:
486,176,1065,2,0,P|423:155|379:176,1,110,14|2,0:0|0:0,0:0:0:0:
304,228,1815,2,0,L|306:355,1,110,2|2,3:2|0:0,0:0:0:0:
259,356,2377,1,2,3:2:0:0:
259,356,2565,2,0,B|206:336|206:336|153:359,1,110,14|10,0:0|0:0,0:0:0:0:
61,370,3315,6,0,B|18:343|18:343|18:227,1,165,2|2,3:2|3:2,0:0:0:0:
35,182,4065,2,0,P|80:203|140:180,1,110,14|2,0:0|0:0,0:0:0:0:
173,153,4627,1,2,0:0:0:0:
173,153,4815,2,0,P|218:132|278:155,1,110,2|2,3:2|0:0,0:0:0:0:
366,175,5565,2,0,L|368:107,1,55,14|2,0:0|0:0,0:0:0:0:
370,70,5940,1,10,0:0:0:0:
464,39,6315,6,0,L|459:162,1,110,2|2,3:2|0:0,0:0:0:0:
485,191,6877,1,2,3:2:0:0:
485,191,7065,2,0,L|482:256,1,55,12|2,0:0|0:0,0:0:0:0:
479,295,7440,1,2,0:0:0:0:
395,349,7815,2,0,B|342:329|342:329|288:351,1,110,2|2,3:2|0:0,0:0:0:0:
249,338,8377,1,2,3:2:0:0:
249,338,8565,2,0,L|247:260,2,55,14|2|10,0:0|0:0|0:0,0:0:0:0:
153,349,9315,6,0,L|149:228,1,110,2|2,3:2|0:0,0:0:0:0:
169,196,9877,1,2,3:2:0:0:
169,196,10065,2,0,P|225:217|282:194,1,110,14|10,0:0|0:0,0:0:0:0:
320,206,10627,1,10,0:0:0:0:
320,206,10815,2,0,L|317:284,2,55,10|2|10,0:0|3:2|0:0,0:0:0:0:
323,156,11377,1,2,3:2:0:0:
227,42,11940,2,0,L|159:41,1,55,2|2,0:0|0:0,0:0:0:0:
124,26,12315,6,0,P|149:75|129:134,1,110,6|8,3:2|0:0,0:0:0:0:
95,151,12877,1,2,3:2:0:0:
95,151,13065,2,0,L|32:150,2,55,2|2|10,3:2|0:0|0:0,0:0:0:0:
157,225,13815,2,0,L|225:226,1,55,0|2,3:0|3:2,0:0:0:0:
261,226,14190,1,10,0:0:0:0:
336,290,14565,2,0,L|462:291,1,110,0|8,0:0|0:0,0:0:0:0:
489,266,15127,1,2,0:0:0:0:
489,266,15315,6,0,P|464:205|478:157,1,110,2|8,3:2|0:0,0:0:0:0:
511,131,15877,1,2,3:2:0:0:
511,131,16065,2,0,L|510:76,1,55,2|2,3:2|0:0,0:0:0:0:
509,26,16440,1,10,0:0:0:0:
421,57,16815,2,0,B|367:37|367:37|317:56,1,110,2|10,3:2|0:0,0:0:0:0:
247,125,17565,2,0,L|184:125,1,55,2|8,0:0|0:0,0:0:0:0:
166,82,17940,2,0,L|103:82,1,55,8|8,0:0|0:0,0:0:0:0:
71,112,18315,6,0,L|69:236,1,110,6|8,3:2|0:0,0:0:0:0:
70,271,18877,1,2,3:2:0:0:
70,271,19065,2,0,P|129:251|181:273,1,110,2|8,3:2|0:0,0:0:0:0:
256,318,19815,2,0,P|315:338|367:316,1,110,2|8,3:2|0:0,0:0:0:0:
407,325,20377,1,2,3:2:0:0:
407,325,20565,2,0,L|412:403,2,55,2|2|10,0:0|0:0|0:0,0:0:0:0:
456,236,21315,6,0,B|489:213|489:213|486:123,1,110,2|10,3:2|0:0,0:0:0:0:
485,93,21877,1,2,3:2:0:0:
485,93,22065,2,0,L|427:93,1,55,2|2,3:2|0:0,0:0:0:0:
380,91,22440,1,10,0:0:0:0:
292,137,22815,2,0,L|290:207,1,55,10|2,0:0|1:2,0:0:0:0:
291,242,23190,1,10,0:0:0:0:
291,242,23377,1,2,3:2:0:0:
297,340,23752,6,0,L|370:342,2,55,10|10|10,0:0|0:0|0:0,0:0:0:0:
251,360,24315,2,0,L|129:356,1,110,6|10,3:2|0:0,0:0:0:0:
41,353,25065,2,0,P|55:298|27:236,1,110,2|10,0:0|0:0,0:0:0:0:
2,157,25815,2,0,L|63:153,1,55,2|2,3:2|0:0,0:0:0:0:
106,153,26190,1,10,0:0:0:0:
200,183,26565,2,0,L|197:127,1,55,2|10,0:0|0:0,0:0:0:0:
168,87,26940,2,0,L|165:31,1,55,8|8,0:0|0:0,0:0:0:0:
212,19,27315,6,0,P|267:43|329:19,1,110,2|10,3:2|0:0,0:0:0:0:
408,60,28065,1,2,3:2:0:0:
397,158,28440,1,10,0:0:0:0:
379,255,28815,2,0,B|324:237|324:237|264:261,1,110,2|10,3:2|0:0,0:0:0:0:
235,283,29377,1,0,3:0:0:0:
235,283,29565,2,0,L|235:213,1,55,10|10,0:0|0:0,0:0:0:0:
207,186,29940,2,0,L|207:116,1,55,2|0,3:2|0:0,0:0:0:0:
242,95,30315,5,6,3:2:0:0:
178,19,30690,2,0,L|55:18,1,110,10|2,0:0|3:2,0:0:0:0:
2,93,31440,1,10,0:0:0:0:
85,146,31815,2,0,L|84:269,1,110,2|10,3:2|0:0,0:0:0:0:
107,299,32377,1,0,3:0:0:0:
107,299,32565,2,0,L|168:299,1,55,2|0,0:0|0:0,0:0:0:0:
202,270,32940,1,10,0:0:0:0:
300,253,33315,6,0,P|284:307|311:366,1,110,2|8,3:2|0:0,0:0:0:0:
401,358,34065,2,0,P|417:304|390:245,1,110,2|10,3:2|0:0,0:0:0:0:
344,172,34815,2,0,L|227:173,1,110,2|8,3:2|0:0,0:0:0:0:
188,174,35377,1,2,3:2:0:0:
188,174,35565,2,0,L|187:106,1,55,8|2,0:0|1:2,0:0:0:0:
185,69,35940,1,2,3:2:0:0:
266,12,36315,6,0,L|383:11,1,110,6|10,3:2|0:0,0:0:0:0:
474,21,37065,2,0,P|455:77|477:131,1,110,2|10,0:0|0:0,0:0:0:0:
509,214,37815,2,0,P|528:270|506:324,1,110,2|10,0:0|0:0,0:0:0:0:
420,353,38565,2,0,L|359:353,1,55,2|0,3:2|0:0,0:0:0:0:
315,353,38940,1,10,0:0:0:0:
243,285,39315,5,0,3:0:0:0:
331,240,39690,2,0,L|389:240,1,55,10|2,0:0|3:2,0:0:0:0:
426,210,40065,2,0,L|426:150,1,55,2|2,0:0|0:0,0:0:0:0:
426,105,40440,1,10,0:0:0:0:
353,37,40815,2,0,P|294:9|248:27,1,110,6|2,3:2|0:0,0:0:0:0:
213,50,41377,1,4,3:2:0:0:
175,83,41565,2,0,P|116:111|70:93,1,110,6|2,3:2|0:0,0:0:0:0:
32,78,42127,1,4,3:2:0:0:
32,78,42315,6,0,L|35:201,1,110,6|10,3:2|0:0,0:0:0:0:
30,235,42877,1,2,3:2:0:0:
30,235,43065,2,0,P|96:216|135:234,1,110,2|10,0:0|0:0,0:0:0:0:
186,313,43815,2,0,B|243:291|243:291|296:313,1,110,2|10,0:0|0:0,0:0:0:0:
328,337,44377,1,2,1:2:0:0:
328,337,44565,2,0,B|385:359|385:359|438:337,1,110,0|8,3:0|0:0,0:0:0:0:
501,271,45315,6,0,L|500:157,1,110,2|10,3:2|0:0,0:0:0:0:
493,65,46065,2,0,L|417:64,1,55,2|0,0:0|1:0,0:0:0:0:
388,62,46440,1,10,0:2:0:0:
318,132,46815,2,0,P|268:160|217:138,1,110,6|2,3:2|0:0,0:0:0:0:
185,110,47377,1,6,3:2:0:0:
147,77,47565,2,0,P|88:52|38:74,1,110,6|2,3:2|0:0,0:0:0:0:
6,93,48127,1,4,3:2:0:0:
6,93,48315,6,0,L|12:163,2,55,6|2|8,3:2|0:0|0:0,0:0:0:0:
94,136,49065,2,0,L|104:258,1,110,2|8,3:2|0:0,0:0:0:0:
78,288,49627,1,2,0:0:0:0:
78,288,49815,2,0,P|132:269|187:282,1,110,2|8,3:2|0:0,0:0:0:0:
260,340,50565,2,0,P|314:359|369:346,1,110,2|10,3:2|0:0,0:0:0:0:
408,324,51127,1,2,0:0:0:0:
408,324,51315,6,0,L|404:196,1,110,0|8,3:2|0:0,0:0:0:0:
321,158,52065,2,0,B|266:180|266:180|215:160,1,110,2|8,3:2|0:0,0:0:0:0:
180,193,52627,1,2,0:0:0:0:
180,193,52815,2,0,L|183:257,2,55,2|2|10,3:2|0:0|0:0,0:0:0:0:
86,160,53565,2,0,L|83:96,1,55,2|0,3:2|0:0,0:0:0:0:
81,55,53940,1,10,0:0:0:0:
178,37,54315,6,0,P|238:65|295:43,1,110,4|10,3:2|0:0,0:0:0:0:
321,30,54877,1,2,0:0:0:0:
321,30,55065,2,0,P|381:2|438:24,1,110,2|10,3:2|0:0,0:0:0:0:
489,83,55815,2,0,L|492:160,1,55,2|2,3:2|0:0,0:0:0:0:
455,173,56190,2,0,L|458:250,1,55,10|2,0:0|0:0,0:0:0:0:
494,260,56565,2,0,L|497:337,1,55,2|2,3:2|0:0,0:0:0:0:
499,364,56940,1,14,0:0:0:0:
408,323,57315,6,0,B|355:299|355:299|301:325,1,110,2|2,3:2|3:2,0:0:0:0:
266,344,57877,1,10,0:0:0:0:
266,344,58065,2,0,B|213:368|213:368|159:342,1,110,2|2,3:2|3:2,0:0:0:0:
67,352,58815,2,0,P|82:291|50:234,1,110,2|0,3:2|3:0,0:0:0:0:
51,201,59377,1,10,0:0:0:0:
51,201,59565,2,0,L|124:200,1,55,10|10,0:0|0:0,0:0:0:0:
145,170,59940,1,6,3:2:0:0:
205,248,60315,1,6,3:2:0:0:
445,73,61440,6,2,L|372:72,1,55
352,104,61815,2,0,L|279:103,1,55,14|2,0:0|3:2,3:2:0:0:
272,60,62190,2,0,B|243:32|243:32|173:40,1,110,10|10,0:0|0:0,0:0:0:0:
131,27,62752,1,2,1:2:0:0:
131,27,62940,1,6,3:2:0:0:
53,88,63315,6,0,L|66:201,1,110,4|2,3:2|0:0,0:0:0:0:
27,228,63877,1,10,0:0:0:0:
27,228,64065,2,0,L|35:299,1,55,2|2,0:0|0:0,0:0:0:0:
14,330,64440,1,10,0:0:0:0:
14,330,64627,2,0,P|80:312|119:331,1,110,2|2,0:0|3:2,0:0:0:0:
210,357,65377,2,0,L|213:238,1,110,10|2,0:0|0:0,0:0:0:0:
186,204,65940,1,8,0:0:0:0:
186,204,66127,6,0,P|247:230|295:215,1,110,2|2,0:0|3:2,0:0:0:0:
370,164,66877,2,0,P|431:138|479:153,1,110,8|0,0:0|0:0,0:0:0:0:
501,187,67440,1,10,0:0:0:0:
501,187,67627,2,0,L|509:58,1,110,2|2,0:0|3:2,0:0:0:0:
511,27,68190,1,2,0:0:0:0:
424,78,68565,2,0,L|351:73,1,55,2|2,0:0|0:0,0:0:0:0:
334,46,68940,1,10,0:0:0:0:
334,46,69127,6,0,P|279:72|230:53,1,110,2|0,3:2|3:0,0:0:0:0:
202,20,69690,1,2,0:0:0:0:
118,72,70065,2,0,L|53:68,2,55,2|2|10,0:0|0:0|0:0,0:0:0:0:
153,107,70627,2,0,P|123:161|145:225,1,110,2|2,0:0|3:2,0:0:0:0:
137,305,71377,2,0,P|190:286|251:314,1,110,10|2,0:0|0:0,0:0:0:0:
278,333,71940,1,10,0:0:0:0:
278,333,72127,6,0,P|331:352|392:324,1,110,2|2,0:0|3:2,0:0:0:0:
418,303,72690,1,0,0:0:0:0:
418,303,72877,2,0,B|416:191|416:191,1,110,8|0,0:0|0:0,0:0:0:0:
416,143,73440,1,10,0:0:0:0:
396,46,73815,2,0,P|343:26|289:44,1,110,2|12,3:2|0:0,0:0:0:0:
224,111,74565,2,0,L|225:181,1,55,2|0,3:2|3:0,0:0:0:0:
265,197,74940,2,0,L|266:267,1,55,12|0,0:0|3:0,0:0:0:0:
238,293,75315,6,0,P|179:274|135:292,1,110,4|10,3:2|0:0,0:0:0:0:
101,324,75877,1,2,3:2:0:0:
101,324,76065,2,0,L|97:196,1,110,2|10,0:0|0:0,0:0:0:0:
57,184,76627,2,0,L|54:119,1,55,2|0,0:0|3:0,0:0:0:0:
51,79,77002,1,2,3:2:0:0:
138,32,77377,2,0,P|179:57|246:48,1,110,2|0,3:2|3:0,0:0:0:0:
283,30,77940,1,10,0:0:0:0:
283,30,78127,6,0,P|324:5|391:14,1,110,2|2,0:0|3:2,0:0:0:0:
428,38,78690,1,8,0:0:0:0:
486,117,79065,2,0,L|486:180,1,55
484,221,79440,1,8,0:0:0:0:
484,221,79627,2,0,B|431:201|431:201|373:225,1,110,2|2,0:0|0:0,0:0:0:0:
340,248,80190,1,10,0:0:0:0:
307,341,80565,2,0,L|232:340,1,55,2|2,0:0|3:2,0:0:0:0:
213,309,80940,1,10,0:0:0:0:
213,309,81127,6,0,L|93:307,1,110,6|0,3:2|3:0,0:0:0:0:
53,303,81690,2,0,L|55:238,1,55,10|2,0:0|3:2,0:0:0:0:
25,208,82065,2,0,L|27:143,1,55,2|2,0:0|3:2,0:0:0:0:
30,103,82440,1,10,0:0:0:0:
30,103,82627,2,0,P|86:127|142:106,1,110,2|2,0:0|3:2,0:0:0:0:
227,90,83377,2,0,L|230:211,1,110,2|2,3:2|3:2,0:0:0:0:
229,249,83940,2,0,L|230:309,1,55,8|2,0:0|3:2,0:0:0:0:
233,353,84315,6,0,L|293:351,1,55,6|2,3:2|3:2,0:0:0:0:
326,319,84690,2,0,L|386:317,1,55,8|0,0:0|3:0,0:0:0:0:
430,315,85065,2,0,L|428:254,1,55,8|0,0:0|3:0,0:0:0:0:
424,210,85440,1,8,0:0:0:0:
424,210,85627,5,4,3:2:0:0:
488,136,86002,1,8,0:0:0:0:
488,136,86190,1,10,0:0:0:0:
488,136,86377,1,4,0:0:0:0:
406,80,86752,1,10,0:0:0:0:
360,59,86940,1,10,0:0:0:0:
313,76,87127,6,0,P|266:102|213:93,1,110,6|2,3:2|0:0,0:0:0:0:
163,103,87690,2,0,L|162:183,1,55,2|2,0:0|0:0,0:0:0:0:
200,190,88065,2,0,L|199:270,1,55,2|2,0:0|0:0,0:0:0:0:
167,283,88440,1,2,3:2:0:0:
167,283,88627,1,14,0:0:0:0:
