osu file format v14

[General]
AudioFilename: audio.mp3
AudioLeadIn: 0
PreviewTime: 11846
Countdown: 0
SampleSet: Soft
StackLeniency: 0.7
Mode: 0
LetterboxInBreaks: 0
WidescreenStoryboard: 0

[Editor]
DistanceSpacing: 0.4
BeatDivisor: 4
GridSize: 4
TimelineZoom: 1.9

[Metadata]
Title:Hypnosis Mic -Rhyme Anima- (TV Size)
TitleUnicode:ヒプノシスマイク -Rhyme Anima- (TV Size)
Artist:Division All Stars
ArtistUnicode:Division All Stars
Creator:Addy2607
Version:Division Battle
Source:ヒプノシスマイク -Division Rap Battle- Rhyme Anima
Tags:kanor yahuri hypmic microphone anime animation multimedia project intro opening theme song japanese hip hop hiphop hip-hop j-rock jrock rock king records ideal factory a-1 pictures evil line records Buster Bros!!! Ikebukuro Ichirou Yamada MC B.B 山田一郎 Jiro Jirou Jirō M.B 二郎 Saburo L.B' 三郎 MAD TRIGGER CREW MTC Yokohama Samatoki Aohitsugi Mr.Hc 碧棺 左馬刻 Jyuto Iruma 45 Rabbit 入間銃兎 Rio Mason Busujima Crazy M 毒島 メイソン 理鶯 Fling Posse Shibuya Ramuda Amemura easy R 飴村乱数 Dice Arisugawa Dead or Alive 有栖川 帝統 Gentaro Yumeno 夢野 幻太郎 Matenro Matenrou Matenrō 麻天狼 Shinjuku Jakurai Jinguj ill-DOC 神宮寺寂雷 Hifumi Izanami GIGOLO 伊弉冉 一二三 Doppo Kannonzaka 観音坂 独歩
BeatmapID:2701781
BeatmapSetID:1302729

[Difficulty]
HPDrainRate:6.5
CircleSize:3.8
OverallDifficulty:8
ApproachRate:9.2
SliderMultiplier:2
SliderTickRate:1

[Events]
//Background and Video events
0,0,"gvjZQ5W.jpg",0,0
Video,70,"video.mp4"
//Break Periods
//Storyboard Layer 0 (Background)
//Storyboard Layer 1 (Fail)
//Storyboard Layer 2 (Pass)
//Storyboard Layer 3 (Foreground)
//Storyboard Layer 4 (Overlay)
//Storyboard Sound Samples

[TimingPoints]
315,375,4,2,1,60,1,0
315,-100,4,2,1,60,0,0
5940,-83.3333333333333,4,2,1,60,0,0
6315,-100,4,2,1,60,0,0
11940,-71.4285714285714,4,2,1,70,0,0
12315,-90.9090909090909,4,2,1,70,0,0
12502,-90.9090909090909,4,2,1,60,0,0
17565,-90.9090909090909,4,2,1,70,0,0
18315,-90.9090909090909,4,2,1,60,0,0
22815,-90.9090909090909,4,2,1,70,0,0
23752,-71.4285714285714,4,2,1,70,0,0
24315,-83.3333333333333,4,2,1,60,0,0
24690,-142.857142857143,4,2,1,60,0,0
25065,-100,4,2,1,60,0,0
25815,-90.9090909090909,4,2,1,60,0,0
27315,-83.3333333333333,4,2,1,60,0,0
28815,-76.9230769230769,4,2,1,70,0,0
29940,-66.6666666666667,4,2,1,70,0,0
30315,-83.3333333333333,4,2,1,60,0,0
30690,-90.9090909090909,4,2,1,60,0,0
35565,-90.9090909090909,4,2,1,70,0,0
35940,-83.3333333333333,4,2,1,70,0,0
36315,-100,4,2,2,50,0,0
40815,-83.3333333333333,4,2,3,70,0,0
42315,-100,4,2,2,50,0,0
45315,-90.9090909090909,4,2,2,50,0,0
46815,-83.3333333333333,4,2,3,70,0,0
48315,-90.9090909090909,4,2,1,60,0,0
48502,-100,4,2,1,60,0,0
49065,-90.9090909090909,4,2,1,60,0,0
51315,-100,4,2,1,60,0,0
52065,-90.9090909090909,4,2,1,60,0,0
54315,-83.3333333333333,4,2,1,60,0,0
56940,-71.4285714285714,4,2,1,60,0,0
57315,-83.3333333333333,4,2,1,60,0,0
59940,-74.0740740740741,4,2,3,70,0,0
60221,-83.3333333333333,4,2,3,5,0,0
60315,-83.3333333333333,4,2,3,70,0,0
61440,-83.3333333333333,4,2,1,70,0,0
61815,-90.9090909090909,4,2,1,70,0,0
62940,-76.9230769230769,4,2,3,60,0,0
63221,-76.9230769230769,4,2,3,60,0,0
63315,-83.3333333333333,4,2,1,80,0,0
69596,-83.3333333333333,4,2,1,80,0,0
69690,-83.3333333333333,4,2,1,80,0,0
73721,-83.3333333333333,4,2,1,5,0,0
73815,-83.3333333333333,4,2,1,80,0,0
84315,-76.9230769230769,4,2,1,80,0,0
85627,-100,4,2,3,60,0,0
87127,-95.2380952380952,4,2,1,70,0,0
88627,-83.3333333333333,4,2,3,60,0,0

[Colours]
Combo1 : 192,192,192
Combo2 : 255,0,0
Combo3 : 13,80,255
Combo4 : 253,234,0

[HitObjects]
457,365,315,5,2,3:2:0:0:
385,250,502,1,2,0:0:0:0:
324,362,690,1,2,0:0:0:0:
468,199,877,2,0,L|464:266,1,50,2|2,3:2|3:2,0:0:0:0:
471,102,1065,2,0,B|393:93|413:170|321:141,1,150,14|0,0:0|0:0,0:0:0:0:
346,12,1440,2,0,L|350:77,1,50,2|0,0:0|0:0,0:0:0:0:
243,180,1627,2,0,L|247:115,1,50,2|0,0:0|0:0,0:0:0:0:
128,28,1815,6,0,P|191:19|227:43,1,100,2|2,3:2|0:0,0:0:0:0:
83,99,2096,1,2,3:2:0:0:
83,99,2190,2,0,P|43:48|46:5,1,100,2|2,0:0|3:2,0:0:0:0:
167,105,2471,1,2,3:2:0:0:
167,105,2565,2,0,P|143:164|104:183,1,100,14|2,0:0|0:0,0:0:0:0:
3,68,2940,1,10,0:0:0:0:
0,209,3127,1,10,0:0:0:0:
5,248,3221,1,8,0:0:0:0:
14,287,3315,6,0,B|77:283|77:283|104:312|104:312|166:307,1,150,2|0,3:2|0:0,0:0:0:0:
151,308,3690,2,0,L|160:378,1,50,2|0,0:0|0:0,0:0:0:0:
245,204,3877,1,2,3:2:0:0:
245,204,3971,1,2,3:2:0:0:
245,204,4065,2,0,L|237:273,2,50,14|2|2,0:0|0:0|0:0,0:0:0:0:
336,367,4346,2,0,L|327:297,2,50,2|2|2,0:0|0:0|0:0,0:0:0:0:
443,246,4627,1,2,0:0:0:0:
446,206,4721,1,2,0:0:0:0:
450,166,4815,6,0,P|388:186|352:163,1,100,2|2,3:2|0:0,0:0:0:0:
353,25,5096,1,2,3:2:0:0:
353,25,5190,2,0,P|401:68|399:111,1,100,2|2,0:0|3:2,0:0:0:0:
271,85,5471,1,2,3:2:0:0:
271,85,5565,2,0,B|223:104|223:104|172:85,1,100,14|2,0:0|0:0,0:0:0:0:
66,20,5846,1,2,0:0:0:0:
66,20,5940,2,0,P|128:59|50:77,1,179.999994506836,10|8,0:0|0:0,0:0:0:0:
2,152,6315,6,0,L|9:263,1,100,2|2,3:2|0:0,0:0:0:0:
117,297,6596,1,2,0:0:0:0:
117,297,6690,2,0,L|110:186,1,100,2|2,0:0|3:2,0:0:0:0:
110,197,6971,2,0,P|163:218|211:196,1,100,2|0,3:2|0:0,0:0:0:0:
249,50,7252,2,0,L|243:116,1,50,2|0,0:0|0:0,0:0:0:0:
322,211,7440,2,0,L|316:145,1,50,2|0,0:0|0:0,0:0:0:0:
392,27,7627,2,0,L|386:93,1,50,2|0,0:0|0:0,0:0:0:0:
475,225,7815,6,0,P|474:175|437:136,1,100,2|2,3:2|0:0,0:0:0:0:
422,289,8096,1,0,3:2:0:0:
422,289,8190,2,0,P|465:313|518:300,1,100,2|2,0:0|3:2,0:0:0:0:
397,209,8471,1,0,3:0:0:0:
397,209,8565,2,0,P|354:234|338:286,1,100,14|2,0:0|0:0,0:0:0:0:
295,356,8846,1,0,0:0:0:0:
295,356,8940,2,0,L|233:358,1,50,10|0,0:0|0:0,0:0:0:0:
199,247,9127,2,0,L|261:245,1,50,10|8,0:0|0:0,0:0:0:0:
161,339,9315,6,0,P|112:367|63:351,1,100,2|2,3:2|0:0,0:0:0:0:
0,239,9596,1,2,0:0:0:0:
0,239,9690,2,0,P|49:267|98:251,1,100,2|2,0:0|3:2,0:0:0:0:
152,178,9971,1,2,3:2:0:0:
152,178,10065,2,0,L|153:111,1,50,14|0,0:0|0:0,0:0:0:0:
56,93,10252,2,0,L|57:160,1,50,2|0,0:0|0:0,0:0:0:0:
172,18,10440,5,10,0:0:0:0:
209,50,10533,1,8,0:0:0:0:
257,62,10627,1,10,0:0:0:0:
305,52,10721,1,8,0:0:0:0:
344,22,10815,6,0,L|341:89,1,50,10|8,0:0|0:0,0:0:0:0:
460,136,11002,2,0,L|462:68,1,50,2|0,3:2|3:0,0:0:0:0:
271,191,11190,5,10,0:0:0:0:
510,226,11377,1,2,3:2:0:0:
172,366,11940,6,0,L|168:297,1,69.9999978637696,2|0,0:0|0:0,0:0:0:0:
271,191,12127,2,0,L|275:260,1,69.9999978637696,2|0,0:0|0:0,0:0:0:0:
91,384,12315,6,0,L|83:247,2,110.000003356934,6|0|8,3:2|3:0|0:0,0:0:0:0:
162,208,12877,1,2,3:2:0:0:
1,139,13065,2,0,B|58:158|58:158|118:130,1,110.000003356934,2|2,3:2|0:0,0:0:0:0:
210,12,13440,2,0,P|180:60|195:110,1,110.000003356934,10|0,0:0|0:0,0:0:0:0:
264,164,13721,1,2,0:0:0:0:
264,164,13815,6,0,L|330:159,1,55.0000016784668,0|2,3:0|0:0,0:0:0:0:
354,64,14002,2,0,L|288:69,1,55.0000016784668,2|2,3:2|0:0,0:0:0:0:
394,228,14190,1,10,0:0:0:0:
485,91,14377,1,0,3:0:0:0:
485,91,14471,2,0,L|491:210,1,110.000003356934,2|0,0:0|0:0,0:0:0:0:
497,286,14752,2,0,B|413:279|437:364|340:343,1,165.000005035401,2|0,0:0|0:0,0:0:0:0:
351,345,15127,1,2,0:0:0:0:
267,195,15315,6,0,P|288:249|263:312,1,110.000003356934,2|0,3:2|3:0,0:0:0:0:
217,361,15596,2,0,P|163:340|99:365,1,110.000003356934,2|0,0:0|0:0,0:0:0:0:
21,312,15877,2,0,L|26:386,1,55.0000016784668,2|0,3:2|0:0,0:0:0:0:
166,211,16065,5,2,3:2:0:0:
135,238,16158,1,2,0:0:0:0:
95,247,16252,1,2,0:0:0:0:
56,236,16346,1,2,0:0:0:0:
27,207,16440,2,0,L|20:89,1,110.000003356934,10|0,0:0|0:0,0:0:0:0:
61,22,16721,1,0,0:0:0:0:
61,22,16815,6,0,L|135:16,1,55.0000016784668,2|0,3:2|0:0,0:0:0:0:
166,107,17002,2,0,L|92:113,1,55.0000016784668,2|2,3:2|3:2,0:0:0:0:
275,30,17190,1,10,0:0:0:0:
272,71,17283,1,0,0:0:0:0:
270,112,17377,1,2,3:2:0:0:
268,153,17471,1,2,0:0:0:0:
266,194,17565,2,0,L|263:255,1,55.0000016784668,2|0,0:0|0:0,0:0:0:0:
151,325,17752,5,8,0:0:0:0:
196,295,17845,1,10,0:0:0:0:
250,296,17939,1,8,0:0:0:0:
294,328,18033,1,8,0:0:0:0:
339,357,18127,1,8,0:0:0:0:
393,356,18221,1,8,0:0:0:0:
437,324,18315,6,0,L|441:205,1,110.000003356934,6|0,3:2|3:2,0:0:0:0:
454,315,18596,2,0,L|458:196,1,110.000003356934,2|0,0:0|0:0,0:0:0:0:
468,309,18877,2,0,L|470:234,1,55.0000016784668,2|0,3:2|0:0,0:0:0:0:
493,46,19065,6,0,P|440:64|384:39,1,110.000003356934,2|0,3:2|0:0,0:0:0:0:
495,66,19346,2,0,P|442:84|386:59,1,110.000003356934,2|0,0:0|0:0,0:0:0:0:
496,84,19627,2,0,P|465:96|432:94,1,55.0000016784668,2|0,0:0|0:0,0:0:0:0:
232,21,19815,6,0,P|260:61|261:128,1,110.000003356934,2|0,3:2|3:0,0:0:0:0:
216,31,20096,2,0,P|244:71|245:138,1,110.000003356934,2|0,0:0|0:0,0:0:0:0:
207,40,20377,2,0,P|226:64|231:96,1,55.0000016784668,2|2,3:2|0:0,0:0:0:0:
123,142,20565,2,0,P|134:113|159:93,1,55.0000016784668,2|0,0:0|0:0,0:0:0:0:
251,164,20752,2,0,P|220:168|190:156,1,55.0000016784668,2|2,0:0|0:0,0:0:0:0:
64,58,20940,2,0,B|30:59|19:90|19:90|50:136|35:212,1,165.000005035401,10|0,0:0|0:0,0:0:0:0:
12,273,21315,6,0,L|147:263,1,110.000003356934,2|2,3:2|3:2,0:0:0:0:
41,353,21596,1,2,0:0:0:0:
41,353,21690,2,0,L|162:343,1,110.000003356934,10|2,0:0|0:0,0:0:0:0:
250,316,21971,1,2,0:0:0:0:
250,316,22065,2,0,P|308:346|362:328,1,110.000003356934,2|2,3:2|0:0,0:0:0:0:
317,199,22346,1,2,0:0:0:0:
317,199,22440,2,0,L|308:282,1,55.0000016784668,10|0,0:0|0:0,0:0:0:0:
450,333,22627,2,0,L|441:250,1,55.0000016784668,2|0,0:0|0:0,0:0:0:0:
508,73,22815,5,10,0:0:0:0:
465,39,22908,1,8,0:0:0:0:
411,37,23002,1,2,1:2:0:0:
366,67,23096,1,0,1:2:0:0:
323,101,23189,1,10,0:0:0:0:
269,103,23283,1,2,1:2:0:0:
224,73,23377,1,2,3:2:0:0:
207,26,23471,6,0,L|204:142,1,110.000003356934,2|0,0:0|0:0,0:0:0:0:
189,157,23752,6,0,L|190:77,1,69.9999978637696,10|8,0:0|0:0,0:0:0:0:
4,12,23940,5,10,0:0:0:0:
8,81,24033,1,8,0:0:0:0:
12,151,24127,1,10,0:0:0:0:
16,221,24221,1,8,0:0:0:0:
22,292,24315,6,0,B|90:289|90:289|122:320|122:320|202:316,1,179.999994506836,6|0,3:2|0:0,0:0:0:0:
268,281,24690,6,0,P|272:339|311:369,1,104.999996795654,10|0,0:0|0:0,0:0:0:0:
325,217,25065,5,2,0:0:0:0:
325,217,25158,2,0,P|272:191|227:207,1,100,2|0,0:0|0:0,0:0:0:0:
353,296,25440,1,10,0:0:0:0:
353,296,25533,2,0,P|401:263|410:216,1,100,2|0,0:0|0:0,0:0:0:0:
371,122,25815,6,0,P|422:146|475:124,1,110.000003356934,2|0,3:2|3:0,0:0:0:0:
471,19,26096,1,2,3:2:0:0:
471,19,26190,2,0,P|420:-5|367:17,1,110.000003356934,10|0,0:0|3:0,0:0:0:0:
298,81,26471,1,2,0:0:0:0:
298,81,26565,2,0,P|245:106|195:87,1,110.000003356934,2|0,0:0|0:0,0:0:0:0:
119,29,26846,1,2,0:0:0:0:
119,29,26940,5,8,0:0:0:0:
114,83,27033,1,8,0:0:0:0:
110,138,27127,1,8,0:0:0:0:
106,193,27221,1,8,0:0:0:0:
102,248,27315,6,0,P|160:217|221:236,1,119.999996337891,2|0,3:2|3:0,0:0:0:0:
170,374,27596,1,2,3:2:0:0:
170,374,27690,2,0,L|166:285,2,79.9999975585938,10|2|2,0:0|0:0|0:0,0:0:0:0:
272,329,28065,2,0,B|335:323|335:323|367:354|367:354|431:348,1,159.999995117188,2|2,3:2|0:0,0:0:0:0:
508,269,28440,2,0,P|464:224|469:123,1,159.999995117188,10|2,0:0|0:0,0:0:0:0:
358,21,28815,5,2,3:2:0:0:
374,120,28940,1,2,0:0:0:0:
449,54,29065,1,2,0:0:0:0:
345,27,29190,5,10,0:0:0:0:
379,132,29315,1,2,0:0:0:0:
458,43,29440,1,2,0:0:0:0:
253,112,29565,6,0,L|179:117,1,64.9999970245363,10|0,0:0|0:0,0:0:0:0:
271,96,29752,2,0,L|308:94,3,32.4999985122681,10|8|0|0,0:0|0:0|1:0|1:0,0:0:0:0:
45,19,29940,6,0,B|91:-4|129:39|129:39|77:96|117:191,1,225.000008583069,2|0,3:2|0:0,0:0:0:0:
41,300,30315,6,0,P|-4:245|66:248,1,179.999994506836,6|0,3:2|0:0,0:0:0:0:
153,339,30690,6,0,P|159:267|232:237,1,146.666671142578,10|2,0:0|0:0,0:0:0:0:
351,321,31065,2,0,P|285:351|223:303,1,146.666671142578,2|2,3:2|0:0,0:0:0:0:
238,158,31440,2,0,P|297:199|286:277,1,146.666671142578,10|2,0:0|0:0,0:0:0:0:
154,145,31815,2,0,B|117:154|100:191|100:191|82:152|35:147,1,146.666671142578,2|2,3:2|0:0,0:0:0:0:
273,78,32190,5,10,0:0:0:0:
181,228,32315,1,2,0:0:0:0:
90,76,32440,1,2,0:0:0:0:
290,66,32565,2,0,L|205:61,2,73.3333355712891,2|0|2,0:0|0:0|0:0,0:0:0:0:
471,15,32940,5,10,0:0:0:0:
433,54,33033,1,8,0:0:0:0:
417,106,33127,1,8,0:0:0:0:
425,160,33221,1,8,0:0:0:0:
455,205,33315,6,0,L|386:202,2,55.0000016784668,2|2|2,3:2|0:0|3:2,0:0:0:0:
482,285,33596,2,0,L|367:278,1,110.000003356934,2|2,0:0|0:0,0:0:0:0:
286,197,33877,1,2,3:2:0:0:
288,163,33971,1,2,0:0:0:0:
290,130,34065,2,0,L|294:51,2,55.0000016784668,2|2|0,3:2|0:0|0:0,0:0:0:0:
206,23,34346,2,0,L|202:102,1,55.0000016784668,2|10,0:0|0:0,0:0:0:0:
110,117,34533,2,0,L|114:38,2,55.0000016784668,2|2|0,0:0|3:2|0:0,0:0:0:0:
15,215,34815,6,0,P|69:196|124:226,1,110.000003356934,2|2,3:2|3:2,0:0:0:0:
112,369,35096,2,0,P|68:331|67:269,1,110.000003356934,2|2,0:0|0:0,0:0:0:0:
199,294,35377,2,0,L|144:296,1,55.0000016784668,2|2,3:2|0:0,0:0:0:0:
277,225,35565,2,0,L|278:253,3,27.5000008392334,8|8|10|8,0:0|0:0|0:0|0:0,0:0:0:0:
295,202,35752,2,0,L|294:174,3,27.5000008392334,2|0|0|0,1:2|1:0|3:0|3:0,0:0:0:0:
304,335,35940,6,0,B|379:333|379:333|404:361|404:361|494:358,1,179.999994506836,2|0,3:2|0:0,0:0:0:0:
466,150,36315,6,0,B|433:184|433:184|450:282,1,133.333333333333,6|2,3:2|0:0,0:0:0:0:
374,83,36690,5,10,0:0:0:0:
267,132,36815,1,2,0:0:0:0:
361,204,36940,1,2,0:0:0:0:
383,92,37065,5,2,0:0:0:0:
269,119,37190,1,2,0:0:0:0:
346,208,37315,1,2,0:0:0:0:
294,42,37440,2,0,P|261:37|229:47,2,66.6666666666667,10|0|0,0:0|1:0|1:0,0:0:0:0:
19,184,37815,5,2,0:0:0:0:
66,182,37940,1,2,0:0:0:0:
113,180,38065,1,2,0:0:0:0:
102,11,38190,5,10,0:0:0:0:
81,52,38315,1,2,0:0:0:0:
59,94,38440,1,2,0:0:0:0:
220,175,38565,5,2,3:2:0:0:
195,135,38690,1,2,0:0:0:0:
170,95,38815,1,2,0:0:0:0:
0,205,38940,2,0,L|112:204,1,100,10|0,0:0|1:0,0:0:0:0:
138,325,39315,6,0,L|26:326,1,100,0|0,3:0|1:0,0:0:0:0:
177,249,39690,2,0,P|217:283|210:375,1,133.333333333333,10|2,0:0|0:0,0:0:0:0:
309,254,40065,1,2,0:0:0:0:
344,351,40190,2,0,L|310:350,3,33.3333333333333,2|0|2|0,1:2|1:2|1:2|0:0,0:0:0:0:
433,301,40440,2,0,L|517:299,2,66.6666666666667,10|2|2,0:0|0:0|0:0,0:0:0:0:
302,135,40815,6,0,L|311:272,1,119.999996337891,6|0,3:2|0:0,0:0:0:0:
377,100,41096,6,0,L|386:237,1,119.999996337891,4|0,3:2|0:0,0:0:0:0:
455,69,41377,6,0,L|459:138,1,59.9999981689454,4|0,3:2|3:0,0:0:0:0:
272,37,41565,6,0,P|207:15|154:40,1,119.999996337891,6|0,3:2|0:0,0:0:0:0:
156,198,41846,6,0,P|207:152|212:94,1,119.999996337891,4|0,3:2|0:0,0:0:0:0:
6,132,42127,1,4,3:2:0:0:
10,181,42221,1,0,3:0:0:0:
16,228,42315,6,0,L|28:342,1,100,6|2,3:2|0:0,0:0:0:0:
27,222,42596,2,0,L|33:286,1,50,2|10,0:0|0:0,0:0:0:0:
133,336,42783,1,0,0:0:0:0:
175,311,42876,1,2,3:2:0:0:
224,316,42970,1,2,3:2:0:0:
262,348,43065,6,0,L|378:343,1,100,2|2,1:2|1:2,0:0:0:0:
277,259,43346,1,2,0:0:0:0:
277,259,43440,2,0,L|370:253,2,66.6666666666667,10|0|0,0:0|0:0|0:0,0:0:0:0:
206,194,43815,6,0,P|159:173|113:191,1,100,2|2,0:0|3:2,0:0:0:0:
35,146,44096,1,2,0:0:0:0:
35,146,44190,2,0,L|39:95,5,33.3333333333333,10|0|0|2|0|2,1:2|1:0|1:0|1:2|1:0|1:2,0:0:0:0:
0,19,44565,6,0,P|50:6|103:37,1,100,0|0,3:0|0:0,0:0:0:0:
250,90,44940,2,0,P|200:103|147:72,1,100,8|0,0:0|0:0,0:0:0:0:
372,0,45315,6,0,P|332:54|359:133,1,146.666671142578,2|2,3:2|0:0,0:0:0:0:
509,152,45690,2,0,P|474:79|415:69,1,146.666671142578,10|2,0:0|0:0,3:0:0:0:
351,125,46065,1,2,0:0:0:0:
424,213,46190,2,0,L|424:177,3,36.6666677856446,0|2|0|0,1:2|1:2|1:2|0:0,0:0:0:0:
503,352,46440,5,10,0:2:0:0:
467,310,46533,1,0,0:0:0:0:
415,293,46627,1,0,0:0:0:0:
362,305,46721,1,0,0:0:0:0:
323,342,46815,6,0,P|347:283|318:224,1,119.999996337891,6|0,3:2|0:0,0:0:0:0:
171,231,47096,6,0,P|210:281|275:285,1,119.999996337891,6|0,3:2|0:0,0:0:0:0:
305,155,47377,6,0,P|276:166|251:206,1,59.9999981689454,6|2,3:2|3:2,0:0:0:0:
170,356,47565,6,0,B|119:353|119:353|103:365|103:365|46:363,1,119.999996337891,6|0,3:2|0:0,0:0:0:0:
9,241,47846,1,6,3:2:0:0:
9,241,47940,2,0,L|7:315,1,59.9999981689454,2|0,0:0|0:0,0:0:0:0:
171,231,48127,2,0,L|173:157,1,59.9999981689454,4|0,3:2|3:0,0:0:0:0:
1,61,48315,6,0,L|-1:135,1,55.0000016784668,6|0,3:2|0:0,0:0:0:0:
122,0,48502,2,0,B|196:-3|196:-3|235:37|235:37|321:32,1,200,2|0,0:0|0:0,0:0:0:0:
435,2,49065,6,0,P|480:52|470:106,1,110.000003356934,2|2,3:2|0:0,0:0:0:0:
345,152,49346,2,0,P|365:88|417:69,1,110.000003356934,2|2,0:0|0:0,0:0:0:0:
465,184,49627,1,2,0:0:0:0:
465,184,49721,1,2,0:0:0:0:
465,184,49815,6,0,B|499:212|499:212|484:332,1,165.000005035401,2|2,3:2|0:0,0:0:0:0:
403,358,50190,2,0,L|294:355,1,110.000003356934,8|2,0:0|0:0,0:0:0:0:
416,274,50471,2,0,L|307:271,1,110.000003356934,2|2,0:0|0:0,0:0:0:0:
193,350,50752,1,2,0:0:0:0:
146,321,50845,1,2,0:0:0:0:
92,321,50939,1,10,0:0:0:0:
47,351,51033,2,0,L|44:291,1,55.0000016784668,0|2,0:0|0:0,0:0:0:0:
0,166,51221,1,2,0:0:0:0:
0,166,51315,6,0,B|60:164|60:164|84:187|84:187|149:185,1,150,0|0,3:2|0:0,0:0:0:0:
146,67,51690,2,0,L|37:69,1,100,8|0,0:0|0:0,0:0:0:0:
227,155,52065,6,0,P|279:175|333:158,1,110.000003356934,2|2,3:2|0:0,0:0:0:0:
336,13,52346,2,0,P|291:47|280:101,1,110.000003356934,2|2,0:0|0:0,0:0:0:0:
405,139,52627,1,2,0:0:0:0:
405,139,52721,1,2,0:0:0:0:
405,139,52815,6,0,L|413:260,1,110.000003356934,2|2,3:2|0:0,0:0:0:0:
462,351,53096,1,2,0:0:0:0:
462,351,53190,2,0,P|413:325|364:340,1,110.000003356934,10|0,0:0|0:0,0:0:0:0:
286,362,53471,1,2,0:0:0:0:
286,362,53565,2,0,L|282:271,2,73.3333355712891,2|2|2,3:2|0:0|0:0,0:0:0:0:
179,236,53940,2,0,L|182:316,2,73.3333355712891,10|2|2,0:0|0:0|0:0,0:0:0:0:
23,357,54315,5,4,3:2:0:0:
129,170,54502,2,0,P|157:155|193:155,1,59.9999981689454,2|0,0:0|0:0,0:0:0:0:
98,246,54690,2,0,P|71:229|53:198,1,59.9999981689454,10|0,0:0|0:0,0:0:0:0:
179,236,54877,2,0,P|177:267|159:298,1,59.9999981689454,2|0,0:0|0:0,0:0:0:0:
61,112,55065,2,0,P|138:73|229:82,1,179.999994506836,2|0,3:2|0:0,0:0:0:0:
382,128,55440,1,10,0:0:0:0:
400,79,55533,1,2,0:0:0:0:
365,40,55627,1,2,0:0:0:0:
314,53,55721,1,2,0:0:0:0:
303,104,55815,6,0,L|300:180,1,59.9999981689454,2|0,3:2|0:0,0:0:0:0:
324,346,56002,1,2,0:0:0:0:
373,364,56095,1,2,0:0:0:0:
412,329,56189,1,10,0:0:0:0:
399,278,56283,1,2,0:0:0:0:
348,267,56377,6,0,L|271:264,1,59.9999981689454,2|0,0:0|0:0,0:0:0:0:
165,331,56565,1,2,3:2:0:0:
121,362,56658,1,2,0:0:0:0:
66,361,56752,1,2,0:0:0:0:
24,328,56846,1,2,0:0:0:0:
10,275,56940,6,0,P|60:218|46:135,1,139.999995727539,14|0,0:0|0:0,0:0:0:0:
6,31,57315,6,0,P|53:66|121:56,1,119.999996337891,2|10,3:2|0:0,0:0:0:0:
212,11,57596,1,2,3:2:0:0:
212,11,57690,1,2,3:2:0:0:
201,53,57783,1,2,3:2:0:0:
225,89,57877,1,10,0:0:0:0:
268,94,57971,1,2,3:2:0:0:
301,65,58065,6,0,L|298:146,1,59.9999981689454,2|0,3:2|3:0,0:0:0:0:
404,61,58252,2,0,L|400:-19,1,59.9999981689454,10|0,0:0|3:0,0:0:0:0:
495,110,58440,1,2,3:2:0:0:
493,154,58533,1,2,3:2:0:0:
491,199,58627,1,10,0:0:0:0:
489,244,58721,1,2,3:2:0:0:
491,291,58815,5,2,3:2:0:0:
491,291,58908,2,0,L|430:290,1,59.9999981689454,2|8,3:2|0:0,0:0:0:0:
341,186,59096,2,0,L|402:187,1,59.9999981689454,2|0,3:2|3:0,0:0:0:0:
290,323,59283,1,2,3:2:0:0:
247,313,59377,1,10,0:0:0:0:
204,325,59471,1,2,3:2:0:0:
171,355,59565,5,10,0:0:0:0:
206,290,59658,1,10,0:0:0:0:
192,218,59752,1,10,0:0:0:0:
135,171,59846,1,10,0:0:0:0:
62,171,59940,6,0,P|15:240|103:270,1,202.500000772476,6|0,3:2|0:0,0:0:0:0:
121,258,60315,5,6,3:2:0:0:
256,192,60408,12,2,61440,0:0:0:0:
501,12,61815,6,0,B|475:37|475:37|386:34,1,110.000003356934,14|2,0:0|3:2,0:0:0:0:
295,118,62096,1,2,3:2:0:0:
295,118,62190,2,0,B|320:143|320:143|410:140,1,110.000003356934,10|2,0:0|3:2,0:0:0:0:
260,20,62471,1,2,3:2:0:0:
260,20,62565,2,0,L|207:18,2,36.6666677856446,10|8|8,0:0|0:0|0:0,0:0:0:0:
168,163,62752,2,0,L|221:161,2,36.6666677856446,2|0|0,1:2|1:0|1:0,0:0:0:0:
13,11,62940,6,0,P|69:65|56:184,1,194.999991073609,6|0,3:2|0:0,0:0:0:0:
0,279,63315,6,0,P|49:255|118:275,1,119.999996337891,4|0,3:2|3:0,0:0:0:0:
286,357,63690,1,2,0:0:0:0:
168,163,63877,1,10,0:0:0:0:
63,374,64065,1,2,0:0:0:0:
263,244,64252,1,2,0:0:0:0:
61,357,64440,1,10,0:0:0:0:
305,165,64627,6,0,P|350:207|349:270,1,119.999996337891,2|0,0:0|3:0,0:0:0:0:
168,345,65002,2,0,P|181:285|236:254,1,119.999996337891,2|0,3:2|0:0,0:0:0:0:
395,370,65377,2,0,P|336:387|282:355,1,119.999996337891,10|0,0:0|0:0,0:0:0:0:
186,148,65752,1,2,0:0:0:0:
61,357,65940,1,8,0:0:0:0:
0,115,66127,6,0,B|27:145|27:145|109:135,1,119.999996337891,2|0,0:0|3:0,0:0:0:0:
236,19,66502,2,0,P|179:71|284:80,1,239.999992675781,2|8,3:2|0:0,0:0:0:0:
83,9,67065,1,0,0:0:0:0:
186,224,67252,1,0,0:0:0:0:
326,10,67440,1,10,0:0:0:0:
244,284,67627,6,0,P|194:311|131:290,1,119.999996337891,2|4,0:0|3:2,0:0:0:0:
230,127,68002,1,2,3:2:0:0:
325,368,68190,1,2,0:0:0:0:
451,111,68377,1,14,0:0:0:0:
214,249,68565,1,2,0:0:0:0:
498,355,68752,1,2,0:0:0:0:
335,97,68940,1,10,0:0:0:0:
208,368,69127,1,2,3:2:0:0:
495,263,69315,6,0,B|444:232|444:232|452:100,1,179.999994506836,4|0,3:2|0:0,0:0:0:0:
512,30,69690,2,0,P|458:6|391:33,1,119.999996337891,2|8,0:0|0:0,0:0:0:0:
278,204,70065,1,2,0:0:0:0:
402,23,70252,1,2,0:0:0:0:
410,269,70440,1,10,0:0:0:0:
268,29,70627,6,0,P|211:8|156:31,1,119.999996337891,2|0,0:0|3:0,0:0:0:0:
156,222,71002,2,0,P|202:183|210:124,1,119.999996337891,2|0,3:2|0:0,0:0:0:0:
44,33,71377,2,0,P|54:92|101:128,1,119.999996337891,10|0,0:0|0:0,0:0:0:0:
292,191,71752,1,2,0:0:0:0:
167,2,71940,1,10,0:0:0:0:
18,191,72127,6,0,L|25:320,1,119.999996337891,2|0,0:0|3:0,0:0:0:0:
126,373,72502,1,2,3:2:0:0:
26,168,72690,1,2,0:0:0:0:
199,301,72877,2,0,B|287:297|287:297|321:355|321:355|408:350,1,239.999992675781,8|0,0:0|0:0,0:0:0:0:
464,111,73440,2,0,B|422:140|422:140|449:282,1,179.999994506836,10|0,0:0|0:0,0:0:0:0:
478,282,73815,5,2,3:2:0:0:
244,226,74002,1,0,3:0:0:0:
392,29,74190,2,0,P|338:4|282:20,1,119.999996337891,12|0,0:0|0:0,0:0:0:0:
178,320,74565,5,2,3:2:0:0:
331,82,74752,1,0,3:0:0:0:
364,376,74940,1,12,0:0:0:0:
182,138,75127,1,0,3:0:0:0:
182,138,75221,1,0,3:0:0:0:
182,138,75315,6,0,P|120:118|68:144,1,119.999996337891,4|0,3:2|3:0,0:0:0:0:
48,221,75596,1,0,3:0:0:0:
48,221,75690,1,10,0:0:0:0:
177,40,75877,1,2,3:2:0:0:
233,274,76065,1,2,0:0:0:0:
7,97,76252,1,2,3:2:0:0:
264,183,76440,1,10,0:0:0:0:
18,364,76627,1,2,0:0:0:0:
152,170,76815,5,0,3:0:0:0:
301,372,77002,1,2,3:2:0:0:
301,372,77096,1,0,3:0:0:0:
301,372,77190,1,8,0:0:0:0:
479,216,77377,2,0,B|449:185|449:185|360:201,1,119.999996337891,2|0,3:2|0:0,0:0:0:0:
510,80,77752,1,0,3:0:0:0:
419,315,77940,1,10,0:0:0:0:
364,86,78127,6,0,L|487:93,1,119.999996337891,2|0,0:0|3:0,0:0:0:0:
259,6,78502,1,2,3:2:0:0:
259,6,78596,1,0,3:0:0:0:
259,6,78690,2,0,P|287:65|267:119,1,119.999996337891,8|0,0:0|3:0,0:0:0:0:
136,132,79065,2,0,P|107:72|127:19,1,119.999996337891,0|0,0:0|3:0,0:0:0:0:
301,96,79440,1,10,0:0:0:0:
147,251,79627,1,0,0:0:0:0:
0,64,79815,6,0,L|11:183,1,119.999996337891,6|2,3:2|3:2,0:0:0:0:
233,282,80190,1,10,0:0:0:0:
9,376,80377,1,6,3:2:0:0:
175,139,80565,1,2,0:0:0:0:
278,377,80752,1,2,3:2:0:0:
10,279,80940,1,10,0:0:0:0:
267,119,81127,6,0,B|361:114|361:114|403:154|403:154|514:148,1,239.999992675781,6|0,3:2|3:0,0:0:0:0:
512,69,81596,1,0,3:0:0:0:
512,69,81690,1,10,0:0:0:0:
377,265,81877,1,2,3:2:0:0:
360,22,82065,1,2,0:0:0:0:
488,251,82252,1,2,3:2:0:0:
350,8,82440,1,10,0:0:0:0:
261,291,82627,6,0,P|197:316|139:287,1,119.999996337891,2|0,0:0|3:2,0:0:0:0:
81,157,83002,1,2,3:2:0:0:
81,157,83096,1,0,3:0:0:0:
81,157,83190,1,8,0:0:0:0:
17,384,83377,2,0,L|9:245,1,119.999996337891,2|0,3:2|0:0,0:0:0:0:
0,88,83752,2,0,P|53:118|110:106,1,119.999996337891,2|8,3:2|0:0,0:0:0:0:
240,6,84127,1,2,3:2:0:0:
240,6,84221,1,0,3:0:0:0:
240,6,84315,6,0,L|231:82,1,64.9999970245363,6|0,3:2|3:0,0:0:0:0:
339,237,84502,1,2,3:2:0:0:
339,237,84596,1,0,3:0:0:0:
339,237,84690,2,0,L|330:161,1,64.9999970245363,8|0,0:0|3:0,0:0:0:0:
453,22,84877,1,0,3:0:0:0:
453,22,84971,1,0,3:0:0:0:
453,22,85065,5,8,0:0:0:0:
485,65,85158,1,0,3:0:0:0:
487,120,85252,1,0,3:0:0:0:
457,166,85346,1,0,3:0:0:0:
422,209,85440,1,8,0:0:0:0:
421,264,85534,1,0,1:0:0:0:
452,310,85628,5,4,3:2:0:0:
463,299,86002,5,8,0:0:0:0:
338,124,86190,1,10,0:0:0:0:
247,328,86377,1,4,0:0:0:0:
253,340,86752,5,10,0:0:0:0:
488,187,86940,1,10,0:0:0:0:
218,79,87127,6,0,B|113:61|140:167|22:138,1,209.999993591309,6|2,3:2|0:0,0:0:0:0:
202,269,87690,2,0,L|195:165,1,104.999996795654,2|2,0:0|0:0,0:0:0:0:
26,227,88065,2,0,L|34:332,1,104.999996795654,2|2,0:0|0:0,0:0:0:0:
282,219,88440,1,2,3:2:0:0:
279,181,88534,1,0,3:0:0:0:
277,143,88627,5,14,0:0:0:0:
