osu file format v14

[General]
AudioFilename: audio.ogg
AudioLeadIn: 0
PreviewTime: 288671
Countdown: 0
SampleSet: Normal
StackLeniency: 0.7
Mode: 1
LetterboxInBreaks: 0
WidescreenStoryboard: 0

[Editor]
Bookmarks: 44560,66503,110385,132328,154271,165242,176213,244785,266728,288671,299642,310613,331185
DistanceSpacing: 0.9
BeatDivisor: 4
GridSize: 8
TimelineZoom: 2.7

[Metadata]
Title:Thorns of Heed
TitleUnicode:Thorns of Heed
Artist:DivinumX
ArtistUnicode:DivinumX
Creator:vrnl
Version:Inner Oni
Source:
Tags:my little pony pony: friendship is magic mlp fim mlpfim black metal twilight sparkle english
BeatmapID:4163206
BeatmapSetID:2002010

[Difficulty]
HPDrainRate:6
CircleSize:5
OverallDifficulty:6
ApproachRate:5
SliderMultiplier:1.4
SliderTickRate:1

[Events]
//Background and Video events
0,0,"twi.jpg",0,60
//Break Periods
2,44756,48842
2,55728,59471
2,220299,224385
2,225785,229871
2,239499,243585
//Storyboard Layer 0 (Background)
//Storyboard Layer 1 (Fail)
//Storyboard Layer 2 (Pass)
//Storyboard Layer 3 (Foreground)
//Storyboard Layer 4 (Overlay)
//Storyboard Sound Samples

[TimingPoints]
671,342.857142857143,4,1,0,15,1,0
671,-200,4,1,0,15,0,0
11556,-200,4,1,0,25,0,0
17042,-200,4,1,0,35,0,0
43185,-133.333333333333,4,1,0,35,0,0
44471,-133.333333333333,4,1,0,75,0,0
44671,-133.333333333333,4,1,0,10,0,0
49956,-133.333333333333,4,1,0,35,0,0
50128,-133.333333333333,4,1,0,10,0,0
54413,-133.333333333333,4,1,0,35,0,0
55613,-133.333333333333,4,1,0,10,0,0
60585,-133.333333333333,4,1,0,35,0,0
61099,-133.333333333333,4,1,0,10,0,0
64356,-133.333333333333,4,1,0,35,0,0
65213,-133.333333333333,4,1,0,10,0,0
66413,-100,4,1,0,85,0,0
154356,-100,4,1,0,70,0,0
175442,-100,4,1,0,85,0,0
220271,-100,4,1,0,25,0,0
221471,-111.111111111111,4,1,0,25,0,0
222842,-125,4,1,0,25,0,0
224213,-142.857142857143,4,1,0,25,0,0
225413,-142.857142857143,4,1,0,85,0,0
225585,-100,4,1,0,85,0,0
225756,-100,4,1,0,25,0,0
226956,-111.111111111111,4,1,0,25,0,0
228327,-125,4,1,0,25,0,0
229698,-142.857142857143,4,1,0,25,0,0
230899,-142.857142857143,4,1,0,85,0,0
231070,-100,4,1,0,85,0,0
231242,-100,4,1,0,25,0,0
232439,-111.111111111111,4,1,0,25,0,0
232757,-114.288096032011,4,1,0,50,0,0
232928,-115.940803382664,4,1,0,50,0,0
233100,-117.652106753626,4,1,0,50,0,0
233271,-119.404284967776,4,1,0,25,0,0
233443,-121.220159151194,4,1,0,25,0,0
233528,-122.138084632517,4,1,0,25,0,0
233614,-123.081066523027,4,1,0,25,0,0
233785,-125,4,1,0,35,0,0
233985,-125,4,1,0,25,0,0
235184,-142.857142857143,4,1,0,25,0,0
236385,-142.857142857143,4,1,0,85,0,0
236556,-100,4,1,0,85,0,0
236728,-100,4,1,0,25,0,0
237925,-111.111111111111,4,1,0,25,0,0
238429,-115.940803382664,4,1,0,35,0,0
238486,-116.502379333787,4,1,0,35,0,0
238543,-117.069421911024,4,1,0,35,0,0
238600,-117.642011326583,4,1,0,35,0,0
239115,-123.081066523027,4,1,0,35,0,0
239172,-123.714131023281,4,1,0,35,0,0
239229,-124.353741496599,4,1,0,35,0,0
239286,-125,4,1,0,35,0,0
239471,-125,4,1,0,25,0,0
240670,-142.857142857143,4,1,0,25,0,0
242042,-166.666666666667,4,1,0,25,0,0
243413,-200,4,1,0,25,0,0
244699,-80,4,1,0,85,0,0
244785,-80,4,1,0,85,0,1
265439,-81.0156480661352,4,1,0,85,0,1
265524,-82.0451487516819,4,1,0,85,0,1
265610,-83.113736180524,4,1,0,85,0,1
265696,-84.2105263157895,4,1,0,85,0,1
265781,-85.3233830845771,4,1,0,85,0,1
265867,-86.4796722344784,4,1,0,85,0,1
265953,-87.667731629393,4,1,0,85,0,1
266039,-88.8888888888889,4,1,0,85,0,1
266124,-90.1297421579898,4,1,0,85,0,1
266210,-91.4209561885724,4,1,0,85,0,1
266296,-92.7497042420145,4,1,0,85,0,1
266381,-94.1015089163237,4,1,0,85,0,1
266467,-95.5099199443091,4,1,0,85,0,1
266553,-96.9611307420495,4,1,0,85,0,1
266728,-100,4,1,0,85,0,0
310613,342.857142857143,50,1,0,85,1,0
310699,-100,50,1,0,50,0,0
311985,-133.333333333333,7,1,0,50,0,0
313699,-133.333333333333,7,1,0,35,0,0

[HitObjects]
201,160,671,5,0,0:0:0:0:
215,167,1356,1,2,0:0:0:0:
215,167,1699,1,0,0:0:0:0:
210,165,6156,1,0,0:0:0:0:
210,165,6842,1,2,0:0:0:0:
210,165,7185,1,0,0:0:0:0:
207,65,7871,1,0,0:0:0:0:
207,65,8213,1,2,0:0:0:0:
176,132,11642,1,0,0:0:0:0:
176,132,12328,1,2,0:0:0:0:
176,132,12671,1,0,0:0:0:0:
208,190,17128,1,0,0:0:0:0:
208,190,17813,1,2,0:0:0:0:
208,190,18156,1,0,0:0:0:0:
208,190,18842,1,0,0:0:0:0:
208,190,19185,1,2,0:0:0:0:
200,160,22613,1,0,0:0:0:0:
200,160,23299,1,2,0:0:0:0:
200,160,23642,1,0,0:0:0:0:
248,88,28099,1,0,0:0:0:0:
248,88,28785,1,2,0:0:0:0:
248,88,29128,1,0,0:0:0:0:
248,88,29813,1,0,0:0:0:0:
248,88,30156,1,2,0:0:0:0:
248,88,33585,1,0,0:0:0:0:
248,88,34271,1,2,0:0:0:0:
248,88,34613,1,0,0:0:0:0:
248,88,39071,1,0,0:0:0:0:
248,88,39756,1,2,0:0:0:0:
248,88,40099,1,0,0:0:0:0:
248,88,40785,1,0,0:0:0:0:
248,88,41128,1,2,0:0:0:0:
256,192,41813,12,0,44213,0:0:0:0:
202,137,44556,5,4,0:0:0:0:
202,137,50042,5,2,0:0:0:0:
124,102,54499,1,2,0:0:0:0:
216,98,54585,1,2,0:0:0:0:
216,98,54671,1,2,0:0:0:0:
216,98,54756,1,2,0:0:0:0:
147,140,54842,1,2,0:0:0:0:
147,140,55185,1,2,0:0:0:0:
216,98,55271,1,2,0:0:0:0:
216,98,55356,1,2,0:0:0:0:
216,98,55442,1,2,0:0:0:0:
202,137,55528,1,2,0:0:0:0:
147,140,60671,5,0,0:0:0:0:
202,137,61013,1,2,0:0:0:0:
147,140,64442,1,2,0:0:0:0:
147,140,64785,1,2,0:0:0:0:
70,121,65128,1,2,0:0:0:0:
260,173,66499,1,4,0:0:0:0:
260,173,66842,1,0,0:0:0:0:
260,173,67185,1,2,0:0:0:0:
181,69,67356,1,2,0:0:0:0:
260,173,67528,1,2,0:0:0:0:
215,87,67699,1,2,0:0:0:0:
260,173,67871,1,0,0:0:0:0:
260,173,68213,1,0,0:0:0:0:
260,173,68556,1,2,0:0:0:0:
260,173,68728,1,2,0:0:0:0:
260,173,68899,1,2,0:0:0:0:
260,173,69071,1,2,0:0:0:0:
260,173,69242,1,0,0:0:0:0:
260,173,69585,1,0,0:0:0:0:
260,173,69928,1,2,0:0:0:0:
260,173,70099,1,2,0:0:0:0:
260,173,70271,1,2,0:0:0:0:
260,173,70442,1,2,0:0:0:0:
260,173,70613,1,0,0:0:0:0:
260,173,70956,1,0,0:0:0:0:
260,173,71299,1,2,0:0:0:0:
260,173,71471,1,2,0:0:0:0:
260,173,71642,1,2,0:0:0:0:
260,173,71813,1,2,0:0:0:0:
260,173,71985,1,4,0:0:0:0:
260,173,72328,1,0,0:0:0:0:
260,173,72671,1,2,0:0:0:0:
260,173,72842,1,0,0:0:0:0:
260,173,73013,1,2,0:0:0:0:
260,173,73185,1,2,0:0:0:0:
260,173,73356,1,0,0:0:0:0:
260,173,73699,1,0,0:0:0:0:
260,173,74042,1,2,0:0:0:0:
260,173,74213,1,0,0:0:0:0:
260,173,74385,1,2,0:0:0:0:
260,173,74556,1,2,0:0:0:0:
260,173,74728,1,0,0:0:0:0:
260,173,75071,1,0,0:0:0:0:
260,173,75413,1,2,0:0:0:0:
260,173,75585,1,0,0:0:0:0:
260,173,75756,1,2,0:0:0:0:
260,173,75928,1,2,0:0:0:0:
260,173,76099,1,0,0:0:0:0:
260,173,76442,1,0,0:0:0:0:
260,173,76785,1,2,0:0:0:0:
167,133,76828,1,2,0:0:0:0:
260,173,77128,1,2,0:0:0:0:
260,173,77299,1,2,0:0:0:0:
260,173,77471,1,4,0:0:0:0:
260,173,77813,1,0,0:0:0:0:
260,173,78156,1,2,0:0:0:0:
260,173,78328,1,2,0:0:0:0:
260,173,78499,1,0,0:0:0:0:
260,173,78671,1,2,0:0:0:0:
260,173,78842,1,0,0:0:0:0:
260,173,79185,1,0,0:0:0:0:
260,173,79528,1,2,0:0:0:0:
260,173,79699,1,2,0:0:0:0:
260,173,79871,1,0,0:0:0:0:
260,173,80042,1,2,0:0:0:0:
260,173,80213,1,0,0:0:0:0:
260,173,80556,1,0,0:0:0:0:
260,173,80899,1,2,0:0:0:0:
260,173,81071,1,2,0:0:0:0:
260,173,81242,1,0,0:0:0:0:
260,173,81413,1,2,0:0:0:0:
260,173,81585,1,0,0:0:0:0:
260,173,81928,1,0,0:0:0:0:
260,173,82271,1,2,0:0:0:0:
260,173,82442,1,2,0:0:0:0:
260,173,82613,1,0,0:0:0:0:
260,173,82785,1,2,0:0:0:0:
260,173,82956,1,4,0:0:0:0:
260,173,83299,1,0,0:0:0:0:
260,173,83642,1,0,0:0:0:0:
260,173,83813,1,2,0:0:0:0:
260,173,83985,1,0,0:0:0:0:
260,173,84156,1,2,0:0:0:0:
260,173,84328,1,0,0:0:0:0:
260,173,84671,1,0,0:0:0:0:
260,173,85013,1,0,0:0:0:0:
260,173,85185,1,2,0:0:0:0:
260,173,85356,1,0,0:0:0:0:
260,173,85528,1,2,0:0:0:0:
260,173,85699,1,0,0:0:0:0:
260,173,86042,1,0,0:0:0:0:
260,173,86385,1,0,0:0:0:0:
260,173,86556,1,2,0:0:0:0:
260,173,86728,1,0,0:0:0:0:
260,173,86899,1,2,0:0:0:0:
260,173,87071,1,0,0:0:0:0:
260,173,87413,1,0,0:0:0:0:
260,173,87756,1,2,0:0:0:0:
126,141,87842,1,2,0:0:0:0:
126,141,87928,1,0,0:0:0:0:
260,173,88099,1,2,0:0:0:0:
126,141,88271,1,0,0:0:0:0:
260,173,88442,1,4,0:0:0:0:
260,173,88785,1,0,0:0:0:0:
260,173,89128,1,2,0:0:0:0:
181,69,89299,1,2,0:0:0:0:
260,173,89471,1,2,0:0:0:0:
215,87,89642,1,2,0:0:0:0:
260,173,89814,1,0,0:0:0:0:
260,173,90156,1,0,0:0:0:0:
260,173,90499,1,2,0:0:0:0:
260,173,90671,1,2,0:0:0:0:
260,173,90842,1,2,0:0:0:0:
260,173,91014,1,2,0:0:0:0:
260,173,91185,1,0,0:0:0:0:
260,173,91528,1,2,0:0:0:0:
260,173,91871,1,2,0:0:0:0:
260,173,92042,1,0,0:0:0:0:
260,173,92214,1,2,0:0:0:0:
260,173,92385,1,0,0:0:0:0:
260,173,92556,1,2,0:0:0:0:
260,173,92899,1,2,0:0:0:0:
260,173,93242,1,0,0:0:0:0:
260,173,93414,1,2,0:0:0:0:
260,173,93585,1,0,0:0:0:0:
260,173,93756,1,2,0:0:0:0:
260,173,93928,1,4,0:0:0:0:
260,173,94271,1,0,0:0:0:0:
260,173,94614,1,2,0:0:0:0:
260,173,94785,1,0,0:0:0:0:
260,173,94956,1,2,0:0:0:0:
260,173,95128,1,2,0:0:0:0:
260,173,95299,1,0,0:0:0:0:
260,173,95642,1,0,0:0:0:0:
260,173,95985,1,2,0:0:0:0:
260,173,96156,1,0,0:0:0:0:
260,173,96328,1,2,0:0:0:0:
260,173,96499,1,2,0:0:0:0:
260,173,96671,1,0,0:0:0:0:
260,173,97014,1,2,0:0:0:0:
260,173,97356,1,2,0:0:0:0:
260,173,97528,1,0,0:0:0:0:
260,173,97699,1,2,0:0:0:0:
260,173,97871,1,0,0:0:0:0:
260,173,98042,1,2,0:0:0:0:
260,173,98385,1,0,0:0:0:0:
260,173,98728,1,2,0:0:0:0:
167,133,98771,1,2,0:0:0:0:
260,173,99071,1,2,0:0:0:0:
260,173,99242,1,2,0:0:0:0:
260,173,99414,1,4,0:0:0:0:
260,173,99756,1,0,0:0:0:0:
260,173,100099,1,2,0:0:0:0:
260,173,100271,1,2,0:0:0:0:
260,173,100442,1,0,0:0:0:0:
260,173,100614,1,2,0:0:0:0:
260,173,100785,1,0,0:0:0:0:
260,173,101128,1,0,0:0:0:0:
260,173,101471,1,2,0:0:0:0:
260,173,101642,1,2,0:0:0:0:
260,173,101814,1,0,0:0:0:0:
260,173,101985,1,2,0:0:0:0:
260,173,102156,1,0,0:0:0:0:
260,173,102499,1,0,0:0:0:0:
260,173,102842,1,0,0:0:0:0:
260,173,103014,1,2,0:0:0:0:
260,173,103185,1,0,0:0:0:0:
260,173,103356,1,2,0:0:0:0:
260,173,103528,1,2,0:0:0:0:
260,173,103871,1,2,0:0:0:0:
260,173,104214,1,0,0:0:0:0:
260,173,104385,1,2,0:0:0:0:
260,173,104556,1,0,0:0:0:0:
260,173,104728,1,2,0:0:0:0:
260,173,104899,1,4,0:0:0:0:
260,173,105242,1,0,0:0:0:0:
260,173,105585,1,0,0:0:0:0:
260,173,105756,1,2,0:0:0:0:
260,173,105928,1,2,0:0:0:0:
260,173,106099,1,2,0:0:0:0:
260,173,106271,1,2,0:0:0:0:
260,173,106614,1,0,0:0:0:0:
260,173,106956,1,2,0:0:0:0:
260,173,107128,1,2,0:0:0:0:
260,173,107299,1,2,0:0:0:0:
260,173,107471,1,2,0:0:0:0:
260,173,107642,1,2,0:0:0:0:
260,173,107985,1,0,0:0:0:0:
260,173,108328,1,0,0:0:0:0:
260,173,108499,1,2,0:0:0:0:
260,173,108671,1,0,0:0:0:0:
260,173,108842,1,2,0:0:0:0:
260,173,109014,1,0,0:0:0:0:
260,173,109356,1,0,0:0:0:0:
194,83,109528,1,0,0:0:0:0:
194,83,109613,1,0,0:0:0:0:
198,36,109699,1,2,0:0:0:0:
220,52,109785,1,2,0:0:0:0:
217,53,109871,1,2,0:0:0:0:
217,53,109956,1,2,0:0:0:0:
216,52,110042,1,0,0:0:0:0:
216,52,110128,1,0,0:0:0:0:
216,52,110213,1,2,0:0:0:0:
216,57,110299,1,2,0:0:0:0:
76,159,110385,1,0,0:0:0:0:
76,159,110471,1,2,0:0:0:0:
76,159,110556,1,0,0:0:0:0:
76,159,110642,1,2,0:0:0:0:
76,159,110728,1,0,0:0:0:0:
76,159,110813,1,2,0:0:0:0:
65,142,110899,1,0,0:0:0:0:
65,142,110985,1,2,0:0:0:0:
173,99,111071,1,2,0:0:0:0:
173,99,111156,1,2,0:0:0:0:
173,99,111242,1,0,0:0:0:0:
173,99,111328,1,2,0:0:0:0:
175,94,111413,1,0,0:0:0:0:
175,94,111499,1,2,0:0:0:0:
175,94,111585,1,0,0:0:0:0:
175,94,111671,1,2,0:0:0:0:
141,121,111756,1,0,0:0:0:0:
141,121,111842,1,0,0:0:0:0:
141,121,111928,1,2,0:0:0:0:
141,121,112013,1,2,0:0:0:0:
141,121,112099,1,0,0:0:0:0:
141,121,112185,1,2,0:0:0:0:
141,121,112271,1,0,0:0:0:0:
141,121,112356,1,2,0:0:0:0:
141,121,112442,1,2,0:0:0:0:
141,121,112528,1,2,0:0:0:0:
141,121,112613,1,0,0:0:0:0:
141,121,112699,1,2,0:0:0:0:
141,121,112785,1,0,0:0:0:0:
141,121,112871,1,2,0:0:0:0:
141,121,112956,1,0,0:0:0:0:
141,121,113042,1,2,0:0:0:0:
76,159,113128,1,0,0:0:0:0:
76,159,113214,1,2,0:0:0:0:
76,159,113299,1,0,0:0:0:0:
76,159,113385,1,2,0:0:0:0:
76,159,113471,1,0,0:0:0:0:
76,159,113556,1,2,0:0:0:0:
65,142,113642,1,0,0:0:0:0:
65,142,113728,1,2,0:0:0:0:
173,99,113814,1,2,0:0:0:0:
173,99,113899,1,2,0:0:0:0:
173,99,113985,1,0,0:0:0:0:
173,99,114071,1,2,0:0:0:0:
175,94,114156,1,0,0:0:0:0:
175,94,114242,1,2,0:0:0:0:
175,94,114328,1,0,0:0:0:0:
175,94,114414,1,2,0:0:0:0:
141,121,114499,1,0,0:0:0:0:
141,121,114585,1,0,0:0:0:0:
141,121,114671,1,2,0:0:0:0:
141,121,114756,1,2,0:0:0:0:
141,121,114842,1,0,0:0:0:0:
141,121,114928,1,2,0:0:0:0:
141,121,115014,1,0,0:0:0:0:
141,121,115099,1,2,0:0:0:0:
141,121,115185,1,2,0:0:0:0:
141,121,115271,1,2,0:0:0:0:
141,121,115356,1,0,0:0:0:0:
141,121,115442,1,2,0:0:0:0:
141,121,115528,1,0,0:0:0:0:
141,121,115614,1,2,0:0:0:0:
141,121,115699,1,0,0:0:0:0:
141,121,115785,1,2,0:0:0:0:
184,91,115871,1,0,0:0:0:0:
184,91,115956,1,0,0:0:0:0:
184,91,116042,1,2,0:0:0:0:
184,91,116128,1,0,0:0:0:0:
241,153,116213,1,2,0:0:0:0:
241,153,116299,1,2,0:0:0:0:
241,153,116385,1,0,0:0:0:0:
241,153,116471,1,0,0:0:0:0:
241,153,116556,1,2,0:0:0:0:
197,121,116642,1,2,0:0:0:0:
237,144,116728,1,0,0:0:0:0:
237,144,116813,1,0,0:0:0:0:
237,144,116899,1,2,0:0:0:0:
237,144,116985,1,0,0:0:0:0:
237,144,117071,1,0,0:0:0:0:
237,144,117156,1,0,0:0:0:0:
183,108,117242,1,2,0:0:0:0:
183,107,117328,1,2,0:0:0:0:
183,107,117413,1,0,0:0:0:0:
183,107,117499,1,0,0:0:0:0:
183,107,117585,1,2,0:0:0:0:
183,107,117671,1,2,0:0:0:0:
183,108,117756,1,2,0:0:0:0:
183,108,117842,1,2,0:0:0:0:
183,108,117928,1,2,0:0:0:0:
183,108,118013,1,2,0:0:0:0:
183,108,118099,1,0,0:0:0:0:
183,108,118185,1,0,0:0:0:0:
183,108,118271,1,2,0:0:0:0:
183,107,118356,1,0,0:0:0:0:
183,107,118442,1,2,0:0:0:0:
183,107,118528,1,0,0:0:0:0:
215,134,118613,1,2,0:0:0:0:
215,134,118699,1,2,0:0:0:0:
215,134,118785,1,0,0:0:0:0:
215,134,118871,1,0,0:0:0:0:
215,134,118956,1,2,0:0:0:0:
215,134,119042,1,0,0:0:0:0:
215,134,119128,1,0,0:0:0:0:
215,134,119213,1,0,0:0:0:0:
215,134,119299,1,2,0:0:0:0:
215,134,119385,1,2,0:0:0:0:
198,128,119471,1,2,0:0:0:0:
215,134,119556,1,0,0:0:0:0:
198,128,119642,1,2,0:0:0:0:
198,128,119728,1,2,0:0:0:0:
198,128,119813,1,2,0:0:0:0:
198,128,119899,1,2,0:0:0:0:
198,128,119985,1,2,0:0:0:0:
198,128,120071,1,2,0:0:0:0:
185,104,120156,1,2,0:0:0:0:
185,104,120242,1,2,0:0:0:0:
185,104,120328,1,2,0:0:0:0:
185,104,120413,1,2,0:0:0:0:
185,104,120499,1,0,0:0:0:0:
185,104,120585,1,0,0:0:0:0:
356,173,120671,1,2,0:0:0:0:
356,173,120756,1,0,0:0:0:0:
356,173,120842,1,0,0:0:0:0:
295,165,120928,1,2,0:0:0:0:
291,154,121013,1,2,0:0:0:0:
291,154,121099,1,2,0:0:0:0:
291,154,121185,1,0,0:0:0:0:
143,97,121356,1,0,0:0:0:0:
43,188,121442,1,2,0:0:0:0:
43,188,121528,1,0,0:0:0:0:
43,188,121613,1,2,0:0:0:0:
43,188,121699,1,0,0:0:0:0:
43,188,121785,1,2,0:0:0:0:
43,188,121871,1,0,0:0:0:0:
43,188,121956,1,2,0:0:0:0:
43,188,122042,1,2,0:0:0:0:
43,188,122128,1,2,0:0:0:0:
116,122,122213,1,0,0:0:0:0:
116,122,122299,1,2,0:0:0:0:
116,122,122385,1,0,0:0:0:0:
116,122,122471,1,2,0:0:0:0:
116,122,122556,1,0,0:0:0:0:
116,122,122642,1,2,0:0:0:0:
116,122,122728,1,0,0:0:0:0:
116,122,122813,1,0,0:0:0:0:
116,122,122899,1,2,0:0:0:0:
116,122,122985,1,2,0:0:0:0:
116,122,123071,1,0,0:0:0:0:
116,122,123156,1,2,0:0:0:0:
116,122,123242,1,0,0:0:0:0:
116,122,123328,1,2,0:0:0:0:
168,155,123413,1,2,0:0:0:0:
168,155,123499,1,2,0:0:0:0:
168,155,123585,1,0,0:0:0:0:
168,155,123671,1,2,0:0:0:0:
168,155,123756,1,0,0:0:0:0:
168,155,123842,1,2,0:0:0:0:
168,155,123928,1,0,0:0:0:0:
168,155,124013,1,2,0:0:0:0:
168,155,124099,1,0,0:0:0:0:
182,98,124185,1,0,0:0:0:0:
110,109,124271,1,0,0:0:0:0:
182,98,124356,1,0,0:0:0:0:
199,175,124442,1,2,0:0:0:0:
199,175,124528,1,0,0:0:0:0:
199,175,124613,1,0,0:0:0:0:
199,175,124699,1,0,0:0:0:0:
199,175,124785,1,2,0:0:0:0:
199,175,124871,1,2,0:0:0:0:
199,175,124956,1,0,0:0:0:0:
199,175,125042,1,0,0:0:0:0:
193,173,125128,1,2,0:0:0:0:
193,173,125213,1,0,0:0:0:0:
193,173,125299,1,0,0:0:0:0:
193,173,125385,1,0,0:0:0:0:
193,173,125471,1,2,0:0:0:0:
193,173,125556,1,2,0:0:0:0:
166,156,125642,1,2,0:0:0:0:
166,156,125728,1,2,0:0:0:0:
166,156,125813,1,2,0:0:0:0:
166,156,125899,1,2,0:0:0:0:
166,156,125985,1,2,0:0:0:0:
171,152,126071,1,2,0:0:0:0:
171,152,126156,1,0,0:0:0:0:
148,136,126242,1,2,0:0:0:0:
148,136,126328,1,2,0:0:0:0:
148,136,126413,1,2,0:0:0:0:
146,142,126499,1,0,0:0:0:0:
146,147,126585,1,2,0:0:0:0:
146,147,126671,1,2,0:0:0:0:
146,147,126756,1,2,0:0:0:0:
146,147,126842,1,0,0:0:0:0:
132,127,126928,1,0,0:0:0:0:
130,127,127013,1,0,0:0:0:0:
130,127,127099,1,0,0:0:0:0:
206,228,127185,1,2,0:0:0:0:
206,228,127271,1,2,0:0:0:0:
206,228,127356,1,2,0:0:0:0:
206,228,127442,1,0,0:0:0:0:
201,233,127528,1,2,0:0:0:0:
177,201,127613,1,2,0:0:0:0:
177,201,127699,1,0,0:0:0:0:
177,201,127785,1,0,0:0:0:0:
177,201,127871,1,2,0:0:0:0:
177,201,127956,1,0,0:0:0:0:
177,201,128042,1,0,0:0:0:0:
177,201,128128,1,0,0:0:0:0:
171,167,128213,1,2,0:0:0:0:
175,172,128299,1,2,0:0:0:0:
175,172,128385,1,2,0:0:0:0:
175,172,128471,1,0,0:0:0:0:
175,172,128556,1,2,0:0:0:0:
175,172,128642,1,2,0:0:0:0:
179,173,128728,1,2,0:0:0:0:
175,172,128813,1,2,0:0:0:0:
179,173,128899,1,2,0:0:0:0:
179,174,128985,1,2,0:0:0:0:
179,174,129071,1,2,0:0:0:0:
179,178,129156,1,2,0:0:0:0:
180,179,129242,1,2,0:0:0:0:
163,168,129328,1,2,0:0:0:0:
163,168,129413,1,2,0:0:0:0:
163,168,129499,1,2,0:0:0:0:
174,153,129585,1,0,0:0:0:0:
174,153,129671,1,2,0:0:0:0:
174,153,129756,1,2,0:0:0:0:
174,153,129842,1,2,0:0:0:0:
174,153,129928,1,0,0:0:0:0:
174,153,130013,1,2,0:0:0:0:
176,152,130099,1,2,0:0:0:0:
174,153,130185,1,2,0:0:0:0:
176,152,130271,1,0,0:0:0:0:
176,152,130356,1,0,0:0:0:0:
176,152,130442,1,2,0:0:0:0:
176,152,130528,1,2,0:0:0:0:
173,165,130613,1,0,0:0:0:0:
173,165,130699,1,0,0:0:0:0:
173,165,130785,1,2,0:0:0:0:
173,165,130871,1,0,0:0:0:0:
145,148,130956,1,2,0:0:0:0:
145,148,131042,1,0,0:0:0:0:
145,148,131128,1,0,0:0:0:0:
145,148,131213,1,2,0:0:0:0:
145,148,131299,1,2,0:0:0:0:
145,148,131385,1,2,0:0:0:0:
145,148,131471,1,0,0:0:0:0:
144,98,131556,1,2,0:0:0:0:
156,90,131642,1,0,0:0:0:0:
156,90,131728,1,0,0:0:0:0:
156,90,131813,1,2,0:0:0:0:
156,90,131899,1,2,0:0:0:0:
156,90,131985,1,0,0:0:0:0:
156,90,132071,1,2,0:0:0:0:
156,90,132156,1,0,0:0:0:0:
157,108,132328,1,0,0:0:0:0:
157,108,132413,1,0,0:0:0:0:
157,108,132499,1,0,0:0:0:0:
157,108,132585,1,0,0:0:0:0:
157,108,132671,1,2,0:0:0:0:
157,108,132756,1,0,0:0:0:0:
157,108,132842,1,0,0:0:0:0:
157,108,132928,1,0,0:0:0:0:
157,108,133013,1,2,0:0:0:0:
157,108,133098,1,2,0:0:0:0:
157,108,133184,1,0,0:0:0:0:
157,108,133270,1,0,0:0:0:0:
91,118,133356,1,2,0:0:0:0:
91,118,133442,1,0,0:0:0:0:
91,118,133528,1,0,0:0:0:0:
91,118,133613,1,0,0:0:0:0:
157,108,133699,1,2,0:0:0:0:
157,108,133784,1,0,0:0:0:0:
157,108,133870,1,0,0:0:0:0:
157,108,133956,1,0,0:0:0:0:
157,108,134042,1,2,0:0:0:0:
157,108,134127,1,2,0:0:0:0:
157,108,134213,1,0,0:0:0:0:
157,108,134299,1,0,0:0:0:0:
157,108,134384,1,2,0:0:0:0:
157,108,134471,1,0,0:0:0:0:
157,108,134556,1,2,0:0:0:0:
157,108,134641,1,0,0:0:0:0:
91,118,134727,1,2,0:0:0:0:
91,118,134813,1,0,0:0:0:0:
91,118,134899,1,0,0:0:0:0:
91,118,134985,1,0,0:0:0:0:
157,108,135071,1,2,0:0:0:0:
157,108,135156,1,0,0:0:0:0:
157,108,135242,1,0,0:0:0:0:
157,108,135328,1,0,0:0:0:0:
157,108,135414,1,2,0:0:0:0:
157,108,135499,1,0,0:0:0:0:
157,108,135585,1,0,0:0:0:0:
157,108,135671,1,0,0:0:0:0:
157,108,135756,1,2,0:0:0:0:
157,108,135841,1,2,0:0:0:0:
157,108,135927,1,0,0:0:0:0:
157,108,136013,1,0,0:0:0:0:
91,118,136099,1,2,0:0:0:0:
91,118,136185,1,2,0:0:0:0:
91,118,136271,1,0,0:0:0:0:
91,118,136356,1,0,0:0:0:0:
157,108,136442,1,2,0:0:0:0:
157,108,136527,1,0,0:0:0:0:
157,108,136613,1,0,0:0:0:0:
157,108,136699,1,0,0:0:0:0:
157,108,136785,1,2,0:0:0:0:
157,108,136870,1,2,0:0:0:0:
157,108,136956,1,0,0:0:0:0:
157,108,137042,1,0,0:0:0:0:
157,108,137127,1,2,0:0:0:0:
157,108,137212,1,2,0:0:0:0:
157,108,137298,1,2,0:0:0:0:
157,108,137384,1,0,0:0:0:0:
91,118,137470,1,2,0:0:0:0:
91,118,137556,1,2,0:0:0:0:
91,118,137642,1,0,0:0:0:0:
91,118,137728,1,0,0:0:0:0:
157,108,137813,1,0,0:0:0:0:
157,108,137898,1,0,0:0:0:0:
157,108,137984,1,0,0:0:0:0:
157,108,138070,1,0,0:0:0:0:
157,108,138156,1,2,0:0:0:0:
157,108,138241,1,0,0:0:0:0:
157,108,138327,1,0,0:0:0:0:
157,108,138413,1,0,0:0:0:0:
157,108,138498,1,2,0:0:0:0:
157,108,138585,1,2,0:0:0:0:
157,108,138671,1,0,0:0:0:0:
157,108,138755,1,0,0:0:0:0:
91,118,138841,1,2,0:0:0:0:
91,118,138927,1,0,0:0:0:0:
91,118,139013,1,0,0:0:0:0:
91,118,139098,1,0,0:0:0:0:
157,108,139185,1,2,0:0:0:0:
157,108,139270,1,0,0:0:0:0:
157,108,139356,1,0,0:0:0:0:
157,108,139442,1,0,0:0:0:0:
157,108,139528,1,2,0:0:0:0:
157,108,139613,1,2,0:0:0:0:
157,108,139699,1,0,0:0:0:0:
157,108,139785,1,0,0:0:0:0:
157,108,139870,1,2,0:0:0:0:
157,108,139955,1,0,0:0:0:0:
157,108,140041,1,2,0:0:0:0:
157,108,140127,1,0,0:0:0:0:
91,118,140213,1,2,0:0:0:0:
91,118,140299,1,0,0:0:0:0:
91,118,140385,1,0,0:0:0:0:
91,118,140470,1,0,0:0:0:0:
157,108,140556,1,2,0:0:0:0:
157,108,140641,1,0,0:0:0:0:
157,108,140727,1,0,0:0:0:0:
157,108,140813,1,0,0:0:0:0:
157,108,140899,1,2,0:0:0:0:
157,108,140984,1,0,0:0:0:0:
157,108,141070,1,0,0:0:0:0:
157,108,141156,1,0,0:0:0:0:
157,108,141241,1,2,0:0:0:0:
157,108,141328,1,2,0:0:0:0:
157,108,141412,1,0,0:0:0:0:
157,108,141498,1,0,0:0:0:0:
91,118,141584,1,2,0:0:0:0:
91,118,141670,1,2,0:0:0:0:
91,118,141756,1,0,0:0:0:0:
91,118,141841,1,0,0:0:0:0:
157,108,141928,1,2,0:0:0:0:
157,108,142013,1,0,0:0:0:0:
157,108,142099,1,0,0:0:0:0:
157,108,142185,1,0,0:0:0:0:
157,108,142271,1,2,0:0:0:0:
157,108,142356,1,0,0:0:0:0:
157,108,142442,1,0,0:0:0:0:
157,108,142528,1,0,0:0:0:0:
157,108,142613,1,2,0:0:0:0:
157,108,142699,1,0,0:0:0:0:
157,108,142785,1,2,0:0:0:0:
157,108,142870,1,0,0:0:0:0:
91,118,142956,1,2,0:0:0:0:
91,118,143042,1,0,0:0:0:0:
91,118,143128,1,2,0:0:0:0:
91,118,143213,1,2,0:0:0:0:
157,108,143299,1,2,0:0:0:0:
157,108,143384,1,0,0:0:0:0:
157,108,143470,1,0,0:0:0:0:
157,108,143556,1,0,0:0:0:0:
157,108,143642,1,2,0:0:0:0:
157,108,143727,1,0,0:0:0:0:
157,108,143813,1,0,0:0:0:0:
157,108,143899,1,0,0:0:0:0:
157,108,143984,1,2,0:0:0:0:
157,108,144071,1,2,0:0:0:0:
157,108,144155,1,0,0:0:0:0:
157,108,144241,1,0,0:0:0:0:
91,118,144327,1,2,0:0:0:0:
91,118,144413,1,0,0:0:0:0:
91,118,144499,1,0,0:0:0:0:
91,118,144584,1,0,0:0:0:0:
157,108,144670,1,2,0:0:0:0:
157,108,144755,1,0,0:0:0:0:
157,108,144841,1,0,0:0:0:0:
157,108,144927,1,0,0:0:0:0:
157,108,145013,1,2,0:0:0:0:
157,108,145098,1,2,0:0:0:0:
157,108,145184,1,0,0:0:0:0:
157,108,145270,1,0,0:0:0:0:
157,108,145355,1,2,0:0:0:0:
157,108,145442,1,0,0:0:0:0:
157,108,145527,1,2,0:0:0:0:
157,108,145612,1,0,0:0:0:0:
91,118,145698,1,2,0:0:0:0:
91,118,145784,1,0,0:0:0:0:
91,118,145870,1,0,0:0:0:0:
91,118,145956,1,0,0:0:0:0:
157,108,146042,1,2,0:0:0:0:
157,108,146127,1,0,0:0:0:0:
157,108,146213,1,0,0:0:0:0:
157,108,146299,1,0,0:0:0:0:
157,108,146385,1,2,0:0:0:0:
157,108,146470,1,0,0:0:0:0:
157,108,146556,1,0,0:0:0:0:
157,108,146642,1,0,0:0:0:0:
157,108,146727,1,2,0:0:0:0:
157,108,146812,1,2,0:0:0:0:
157,108,146898,1,0,0:0:0:0:
157,108,146984,1,0,0:0:0:0:
91,118,147070,1,2,0:0:0:0:
91,118,147156,1,2,0:0:0:0:
91,118,147242,1,0,0:0:0:0:
91,118,147327,1,0,0:0:0:0:
157,108,147413,1,2,0:0:0:0:
157,108,147498,1,0,0:0:0:0:
157,108,147584,1,0,0:0:0:0:
157,108,147670,1,0,0:0:0:0:
157,108,147756,1,2,0:0:0:0:
157,108,147841,1,2,0:0:0:0:
157,108,147927,1,0,0:0:0:0:
157,108,148013,1,0,0:0:0:0:
157,108,148098,1,2,0:0:0:0:
157,108,148185,1,2,0:0:0:0:
157,108,148271,1,2,0:0:0:0:
157,108,148355,1,0,0:0:0:0:
91,118,148441,1,2,0:0:0:0:
91,118,148527,1,2,0:0:0:0:
91,118,148613,1,0,0:0:0:0:
91,118,148698,1,0,0:0:0:0:
157,108,148784,1,0,0:0:0:0:
157,108,148871,1,0,0:0:0:0:
157,108,148955,1,0,0:0:0:0:
157,108,149041,1,0,0:0:0:0:
157,108,149127,1,2,0:0:0:0:
157,108,149212,1,0,0:0:0:0:
157,108,149298,1,0,0:0:0:0:
157,108,149384,1,0,0:0:0:0:
157,108,149471,1,2,0:0:0:0:
157,108,149556,1,2,0:0:0:0:
157,108,149642,1,0,0:0:0:0:
157,108,149728,1,0,0:0:0:0:
91,118,149812,1,2,0:0:0:0:
91,118,149898,1,0,0:0:0:0:
91,118,149984,1,0,0:0:0:0:
91,118,150071,1,0,0:0:0:0:
157,108,150156,1,2,0:0:0:0:
157,108,150241,1,0,0:0:0:0:
157,108,150327,1,0,0:0:0:0:
157,108,150413,1,0,0:0:0:0:
157,108,150499,1,2,0:0:0:0:
157,108,150584,1,2,0:0:0:0:
157,108,150670,1,0,0:0:0:0:
157,108,150756,1,0,0:0:0:0:
157,108,150841,1,2,0:0:0:0:
157,108,150928,1,0,0:0:0:0:
157,108,151012,1,2,0:0:0:0:
157,108,151098,1,0,0:0:0:0:
91,118,151184,1,2,0:0:0:0:
91,118,151270,1,0,0:0:0:0:
91,118,151356,1,0,0:0:0:0:
91,118,151441,1,0,0:0:0:0:
157,108,151527,1,2,0:0:0:0:
157,108,151612,1,0,0:0:0:0:
157,108,151698,1,0,0:0:0:0:
157,108,151784,1,0,0:0:0:0:
157,108,151870,1,2,0:0:0:0:
157,108,151955,1,0,0:0:0:0:
157,108,152041,1,0,0:0:0:0:
157,108,152127,1,0,0:0:0:0:
157,108,152212,1,2,0:0:0:0:
157,108,152299,1,2,0:0:0:0:
157,108,152385,1,0,0:0:0:0:
157,108,152471,1,0,0:0:0:0:
91,118,152555,1,2,0:0:0:0:
91,118,152641,1,2,0:0:0:0:
91,118,152727,1,0,0:0:0:0:
91,118,152812,1,0,0:0:0:0:
157,108,152899,1,2,0:0:0:0:
157,108,152984,1,0,0:0:0:0:
157,108,153070,1,0,0:0:0:0:
157,108,153156,1,0,0:0:0:0:
157,108,153242,1,2,0:0:0:0:
157,108,153327,1,0,0:0:0:0:
157,108,153413,1,0,0:0:0:0:
157,108,153499,1,0,0:0:0:0:
78,155,153585,1,2,0:0:0:0:
78,155,153756,1,0,0:0:0:0:
78,155,153842,1,2,0:0:0:0:
78,155,153928,1,0,0:0:0:0:
78,155,154099,1,0,0:0:0:0:
181,118,154271,1,4,0:0:0:0:
217,135,154613,1,2,0:0:0:0:
217,135,154956,1,2,0:0:0:0:
217,135,155299,1,0,0:0:0:0:
217,135,155642,1,2,0:0:0:0:
217,135,155985,1,2,0:0:0:0:
217,135,156328,1,2,0:0:0:0:
166,93,156499,1,0,0:0:0:0:
166,93,156671,1,0,0:0:0:0:
166,93,156842,1,0,0:0:0:0:
217,135,157013,1,0,0:0:0:0:
217,135,157356,1,2,0:0:0:0:
217,135,157699,1,2,0:0:0:0:
217,135,158042,1,2,0:0:0:0:
217,135,158385,1,0,0:0:0:0:
217,135,158728,1,0,0:0:0:0:
93,106,158899,1,0,0:0:0:0:
93,106,158985,1,0,0:0:0:0:
217,135,159071,1,2,0:0:0:0:
217,135,159413,1,0,0:0:0:0:
217,135,159756,1,0,0:0:0:0:
217,135,160099,1,0,0:0:0:0:
217,135,160442,1,2,0:0:0:0:
217,135,160785,1,2,0:0:0:0:
146,109,160956,1,0,0:0:0:0:
217,135,161128,1,2,0:0:0:0:
217,135,161471,1,2,0:0:0:0:
217,135,161813,1,2,0:0:0:0:
151,95,161928,1,0,0:0:0:0:
126,86,162042,1,0,0:0:0:0:
217,135,162156,1,0,0:0:0:0:
126,86,162271,1,0,0:0:0:0:
126,86,162385,1,0,0:0:0:0:
217,135,162499,1,0,0:0:0:0:
217,135,162842,1,0,0:0:0:0:
217,135,163185,1,0,0:0:0:0:
217,135,163528,1,2,0:0:0:0:
217,135,163871,1,2,0:0:0:0:
217,135,164213,1,0,0:0:0:0:
217,135,164556,1,2,0:0:0:0:
87,147,164642,1,2,0:0:0:0:
87,147,164728,1,2,0:0:0:0:
141,93,164899,1,0,0:0:0:0:
141,93,165071,1,0,0:0:0:0:
181,118,165242,1,4,0:0:0:0:
217,135,165584,1,0,0:0:0:0:
217,135,165927,1,2,0:0:0:0:
217,135,166271,1,2,0:0:0:0:
217,135,166613,1,0,0:0:0:0:
217,135,166956,1,2,0:0:0:0:
217,135,167299,1,2,0:0:0:0:
166,93,167470,1,0,0:0:0:0:
166,93,167642,1,2,0:0:0:0:
166,93,167813,1,0,0:0:0:0:
217,135,167985,1,2,0:0:0:0:
217,135,168328,1,0,0:0:0:0:
217,135,168670,1,2,0:0:0:0:
217,135,169013,1,2,0:0:0:0:
217,135,169356,1,0,0:0:0:0:
217,135,169699,1,0,0:0:0:0:
93,106,169870,1,0,0:0:0:0:
93,106,169956,1,0,0:0:0:0:
217,135,170042,1,2,0:0:0:0:
217,135,170384,1,0,0:0:0:0:
217,135,170727,1,0,0:0:0:0:
217,135,171070,1,0,0:0:0:0:
217,135,171413,1,2,0:0:0:0:
217,135,171756,1,2,0:0:0:0:
217,135,172099,1,2,0:0:0:0:
217,135,172442,1,2,0:0:0:0:
217,135,172784,1,2,0:0:0:0:
151,95,172899,1,0,0:0:0:0:
126,86,173013,1,0,0:0:0:0:
217,135,173127,1,0,0:0:0:0:
126,86,173242,1,0,0:0:0:0:
126,86,173356,1,0,0:0:0:0:
217,135,173470,1,0,0:0:0:0:
217,135,173813,1,2,0:0:0:0:
217,135,174156,1,0,0:0:0:0:
217,135,174499,1,2,0:0:0:0:
217,135,174842,1,0,0:0:0:0:
217,135,175184,1,0,0:0:0:0:
217,135,175528,1,6,0:0:0:0:
260,173,176213,1,4,0:0:0:0:
260,173,176556,1,0,0:0:0:0:
260,173,176899,1,2,0:0:0:0:
181,69,177070,1,2,0:0:0:0:
260,173,177242,1,2,0:0:0:0:
215,87,177413,1,2,0:0:0:0:
260,173,177585,1,0,0:0:0:0:
260,173,177927,1,0,0:0:0:0:
260,173,178270,1,2,0:0:0:0:
260,173,178442,1,2,0:0:0:0:
260,173,178613,1,2,0:0:0:0:
260,173,178785,1,2,0:0:0:0:
260,173,178956,1,0,0:0:0:0:
260,173,179299,1,2,0:0:0:0:
260,173,179642,1,0,0:0:0:0:
260,173,179813,1,0,0:0:0:0:
260,173,179985,1,2,0:0:0:0:
260,173,180156,1,0,0:0:0:0:
260,173,180327,1,2,0:0:0:0:
260,173,180670,1,2,0:0:0:0:
260,173,181013,1,0,0:0:0:0:
260,173,181185,1,2,0:0:0:0:
260,173,181356,1,0,0:0:0:0:
260,173,181527,1,2,0:0:0:0:
260,173,181699,1,4,0:0:0:0:
260,173,182042,1,0,0:0:0:0:
260,173,182385,1,2,0:0:0:0:
260,173,182556,1,0,0:0:0:0:
260,173,182727,1,2,0:0:0:0:
260,173,182899,1,2,0:0:0:0:
260,173,183070,1,0,0:0:0:0:
260,173,183413,1,0,0:0:0:0:
260,173,183756,1,2,0:0:0:0:
260,173,183927,1,0,0:0:0:0:
260,173,184099,1,2,0:0:0:0:
260,173,184270,1,2,0:0:0:0:
260,173,184442,1,0,0:0:0:0:
260,173,184785,1,2,0:0:0:0:
260,173,185127,1,2,0:0:0:0:
260,173,185299,1,0,0:0:0:0:
260,173,185470,1,2,0:0:0:0:
260,173,185642,1,0,0:0:0:0:
260,173,185813,1,2,0:0:0:0:
260,173,186156,1,0,0:0:0:0:
260,173,186499,1,2,0:0:0:0:
167,133,186542,1,2,0:0:0:0:
260,173,186842,1,2,0:0:0:0:
260,173,187013,1,2,0:0:0:0:
260,173,187185,1,4,0:0:0:0:
260,173,187527,1,0,0:0:0:0:
260,173,187870,1,2,0:0:0:0:
260,173,188042,1,2,0:0:0:0:
260,173,188213,1,0,0:0:0:0:
260,173,188385,1,2,0:0:0:0:
260,173,188556,1,0,0:0:0:0:
260,173,188899,1,0,0:0:0:0:
260,173,189242,1,2,0:0:0:0:
260,173,189413,1,2,0:0:0:0:
260,173,189585,1,0,0:0:0:0:
260,173,189756,1,2,0:0:0:0:
260,173,189927,1,0,0:0:0:0:
260,173,190271,1,2,0:0:0:0:
260,173,190613,1,2,0:0:0:0:
260,173,190785,1,0,0:0:0:0:
260,173,190956,1,2,0:0:0:0:
260,173,191127,1,2,0:0:0:0:
260,173,191299,1,0,0:0:0:0:
260,173,191642,1,0,0:0:0:0:
260,173,191985,1,0,0:0:0:0:
260,173,192156,1,2,0:0:0:0:
260,173,192327,1,0,0:0:0:0:
260,173,192499,1,2,0:0:0:0:
260,173,192670,1,4,0:0:0:0:
260,173,193013,1,0,0:0:0:0:
260,173,193356,1,0,0:0:0:0:
260,173,193527,1,2,0:0:0:0:
260,173,193699,1,0,0:0:0:0:
260,173,193870,1,2,0:0:0:0:
260,173,194042,1,2,0:0:0:0:
260,173,194385,1,0,0:0:0:0:
260,173,194728,1,0,0:0:0:0:
260,173,194899,1,2,0:0:0:0:
260,173,195070,1,0,0:0:0:0:
260,173,195242,1,2,0:0:0:0:
260,173,195413,1,2,0:0:0:0:
260,173,195756,1,2,0:0:0:0:
260,173,196099,1,0,0:0:0:0:
260,173,196270,1,2,0:0:0:0:
260,173,196442,1,0,0:0:0:0:
260,173,196613,1,2,0:0:0:0:
260,173,196785,1,2,0:0:0:0:
122,153,197128,1,0,0:0:0:0:
122,153,197471,1,2,0:0:0:0:
122,153,197642,1,0,0:0:0:0:
122,153,197813,1,2,0:0:0:0:
122,153,197985,1,0,0:0:0:0:
260,173,198156,1,4,0:0:0:0:
260,173,198499,1,0,0:0:0:0:
260,173,198842,1,2,0:0:0:0:
181,69,199013,1,2,0:0:0:0:
260,173,199185,1,2,0:0:0:0:
215,87,199356,1,2,0:0:0:0:
260,173,199528,1,0,0:0:0:0:
260,173,199870,1,0,0:0:0:0:
260,173,200213,1,2,0:0:0:0:
260,173,200385,1,2,0:0:0:0:
260,173,200556,1,2,0:0:0:0:
260,173,200728,1,2,0:0:0:0:
260,173,200899,1,0,0:0:0:0:
260,173,201242,1,2,0:0:0:0:
260,173,201585,1,2,0:0:0:0:
260,173,201756,1,0,0:0:0:0:
260,173,201928,1,2,0:0:0:0:
260,173,202099,1,0,0:0:0:0:
260,173,202270,1,2,0:0:0:0:
260,173,202613,1,2,0:0:0:0:
260,173,202956,1,2,0:0:0:0:
260,173,203128,1,2,0:0:0:0:
260,173,203299,1,0,0:0:0:0:
260,173,203470,1,2,0:0:0:0:
260,173,203642,1,4,0:0:0:0:
260,173,203985,1,0,0:0:0:0:
260,173,204328,1,2,0:0:0:0:
260,173,204499,1,0,0:0:0:0:
260,173,204670,1,2,0:0:0:0:
260,173,204842,1,2,0:0:0:0:
260,173,205013,1,0,0:0:0:0:
260,173,205356,1,2,0:0:0:0:
260,173,205699,1,2,0:0:0:0:
260,173,205870,1,0,0:0:0:0:
260,173,206042,1,2,0:0:0:0:
260,173,206213,1,2,0:0:0:0:
260,173,206385,1,2,0:0:0:0:
260,173,206728,1,2,0:0:0:0:
260,173,207070,1,2,0:0:0:0:
260,173,207242,1,0,0:0:0:0:
260,173,207413,1,2,0:0:0:0:
260,173,207585,1,2,0:0:0:0:
260,173,207756,1,0,0:0:0:0:
260,173,208099,5,0,0:0:0:0:
260,173,208442,1,2,0:0:0:0:
167,133,208485,1,2,0:0:0:0:
260,173,208785,1,2,0:0:0:0:
260,173,208956,1,2,0:0:0:0:
260,173,209128,1,4,0:0:0:0:
260,173,209470,1,0,0:0:0:0:
260,173,209813,1,2,0:0:0:0:
260,173,209985,1,2,0:0:0:0:
260,173,210156,1,2,0:0:0:0:
260,173,210328,1,2,0:0:0:0:
260,173,210499,1,0,0:0:0:0:
260,173,210842,1,0,0:0:0:0:
260,173,211185,1,2,0:0:0:0:
260,173,211356,1,2,0:0:0:0:
260,173,211528,1,2,0:0:0:0:
260,173,211699,1,2,0:0:0:0:
260,173,211870,1,0,0:0:0:0:
260,173,212213,1,0,0:0:0:0:
260,173,212556,1,2,0:0:0:0:
260,173,212728,1,2,0:0:0:0:
260,173,212899,1,2,0:0:0:0:
260,173,213070,1,2,0:0:0:0:
260,173,213242,1,0,0:0:0:0:
260,173,213585,1,0,0:0:0:0:
260,173,213928,1,2,0:0:0:0:
260,173,214099,1,2,0:0:0:0:
260,173,214270,1,0,0:0:0:0:
260,173,214442,1,2,0:0:0:0:
260,173,214613,1,4,0:0:0:0:
260,173,214956,1,0,0:0:0:0:
260,173,215299,1,0,0:0:0:0:
260,173,215470,1,2,0:0:0:0:
260,173,215642,1,0,0:0:0:0:
260,173,215813,1,2,0:0:0:0:
260,173,215985,1,0,0:0:0:0:
260,173,216328,1,0,0:0:0:0:
260,173,216671,1,0,0:0:0:0:
260,173,216842,1,2,0:0:0:0:
260,173,217013,1,0,0:0:0:0:
260,173,217185,1,2,0:0:0:0:
260,173,217356,1,2,0:0:0:0:
260,173,217699,1,2,0:0:0:0:
260,173,218042,1,0,0:0:0:0:
260,173,218213,1,2,0:0:0:0:
260,173,218385,1,0,0:0:0:0:
260,173,218556,1,2,0:0:0:0:
260,173,218728,1,0,0:0:0:0:
122,153,219071,1,0,0:0:0:0:
122,153,219414,1,2,0:0:0:0:
122,153,219585,1,0,0:0:0:0:
122,153,219756,1,2,0:0:0:0:
122,153,219928,1,2,0:0:0:0:
122,153,220099,1,4,0:0:0:0:
173,157,225585,5,4,0:0:0:0:
271,166,231071,5,4,0:0:0:0:
147,137,232785,1,2,0:0:0:0:
147,137,232956,1,2,0:0:0:0:
147,137,233128,1,2,0:0:0:0:
147,137,233299,1,2,0:0:0:0:
293,207,233471,1,2,0:0:0:0:
293,207,233556,1,2,0:0:0:0:
293,207,233642,1,2,0:0:0:0:
156,138,233813,1,2,0:0:0:0:
156,146,236556,1,4,0:0:0:0:
266,144,238442,1,2,0:0:0:0:
266,144,238499,1,2,0:0:0:0:
266,144,238556,1,2,0:0:0:0:
266,144,238613,1,2,0:0:0:0:
256,132,239128,1,2,0:0:0:0:
256,132,239185,1,2,0:0:0:0:
256,132,239242,1,2,0:0:0:0:
256,132,239299,1,2,0:0:0:0:
251,151,244785,5,0,0:0:0:0:
251,151,244871,1,0,0:0:0:0:
251,151,244956,1,0,0:0:0:0:
251,151,245042,1,0,0:0:0:0:
216,82,245128,1,2,0:0:0:0:
216,82,245213,1,2,0:0:0:0:
216,82,245299,1,0,0:0:0:0:
216,82,245385,1,0,0:0:0:0:
216,82,245471,1,2,0:0:0:0:
216,82,245556,1,2,0:0:0:0:
216,82,245642,1,2,0:0:0:0:
216,82,245728,1,2,0:0:0:0:
220,78,245813,1,0,0:0:0:0:
216,82,245899,1,0,0:0:0:0:
216,82,245985,1,0,0:0:0:0:
216,82,246071,1,0,0:0:0:0:
226,94,246156,1,2,0:0:0:0:
226,94,246242,1,2,0:0:0:0:
225,94,246328,1,0,0:0:0:0:
225,94,246413,1,0,0:0:0:0:
225,94,246499,1,2,0:0:0:0:
225,94,246585,1,2,0:0:0:0:
225,94,246671,1,2,0:0:0:0:
225,93,246756,1,0,0:0:0:0:
225,93,246842,1,2,0:0:0:0:
225,93,246928,1,2,0:0:0:0:
225,93,247013,1,2,0:0:0:0:
225,93,247099,1,2,0:0:0:0:
226,94,247185,1,0,0:0:0:0:
226,94,247271,1,0,0:0:0:0:
225,94,247356,1,2,0:0:0:0:
187,81,247442,1,2,0:0:0:0:
187,81,247528,1,0,0:0:0:0:
187,81,247613,1,0,0:0:0:0:
187,81,247699,1,0,0:0:0:0:
187,81,247785,1,0,0:0:0:0:
193,87,247871,1,2,0:0:0:0:
195,87,247956,1,0,0:0:0:0:
193,87,248042,1,0,0:0:0:0:
195,87,248128,1,0,0:0:0:0:
196,85,248213,1,2,0:0:0:0:
196,85,248299,1,2,0:0:0:0:
200,79,248385,1,0,0:0:0:0:
200,79,248471,1,0,0:0:0:0:
173,54,248556,1,2,0:0:0:0:
173,54,248642,1,2,0:0:0:0:
173,54,248728,1,2,0:0:0:0:
173,54,248813,1,2,0:0:0:0:
165,59,248899,1,0,0:0:0:0:
165,59,248985,1,2,0:0:0:0:
165,59,249071,1,0,0:0:0:0:
165,59,249156,1,2,0:0:0:0:
165,59,249242,1,0,0:0:0:0:
165,59,249328,1,2,0:0:0:0:
165,59,249413,1,0,0:0:0:0:
165,59,249499,1,0,0:0:0:0:
176,86,249585,1,2,0:0:0:0:
176,86,249671,1,0,0:0:0:0:
176,86,249756,1,2,0:0:0:0:
176,86,249842,1,0,0:0:0:0:
176,86,249928,1,2,0:0:0:0:
176,86,250013,1,0,0:0:0:0:
176,86,250099,1,2,0:0:0:0:
176,86,250185,1,2,0:0:0:0:
176,86,250271,1,0,0:0:0:0:
167,79,250356,1,0,0:0:0:0:
167,79,250442,1,0,0:0:0:0:
167,79,250528,1,0,0:0:0:0:
166,77,250613,1,2,0:0:0:0:
166,77,250699,1,2,0:0:0:0:
166,77,250785,1,0,0:0:0:0:
166,77,250871,1,0,0:0:0:0:
166,77,250956,1,2,0:0:0:0:
166,77,251042,1,2,0:0:0:0:
166,77,251128,1,2,0:0:0:0:
166,77,251213,1,2,0:0:0:0:
166,77,251299,1,0,0:0:0:0:
167,79,251385,1,0,0:0:0:0:
167,79,251471,1,0,0:0:0:0:
167,79,251556,1,0,0:0:0:0:
202,116,251642,1,2,0:0:0:0:
202,116,251728,1,2,0:0:0:0:
202,116,251813,1,0,0:0:0:0:
199,109,251899,1,0,0:0:0:0:
198,109,251985,1,2,0:0:0:0:
198,109,252071,1,0,0:0:0:0:
198,109,252156,1,0,0:0:0:0:
198,109,252242,1,0,0:0:0:0:
173,101,252328,1,2,0:0:0:0:
173,101,252413,1,0,0:0:0:0:
173,101,252499,1,2,0:0:0:0:
173,101,252585,1,0,0:0:0:0:
173,101,252671,1,2,0:0:0:0:
176,95,252756,1,0,0:0:0:0:
176,95,252842,1,0,0:0:0:0:
176,95,252928,1,0,0:0:0:0:
203,140,253013,1,2,0:0:0:0:
203,140,253099,1,0,0:0:0:0:
203,140,253185,1,0,0:0:0:0:
203,140,253271,1,0,0:0:0:0:
203,140,253356,1,2,0:0:0:0:
203,140,253442,1,2,0:0:0:0:
203,140,253528,1,0,0:0:0:0:
203,140,253613,1,0,0:0:0:0:
215,165,253699,1,2,0:0:0:0:
215,165,253785,1,0,0:0:0:0:
215,165,253871,1,0,0:0:0:0:
215,165,253956,1,0,0:0:0:0:
215,165,254042,1,2,0:0:0:0:
215,165,254128,1,0,0:0:0:0:
215,165,254213,1,2,0:0:0:0:
156,127,254299,1,2,0:0:0:0:
167,135,254385,1,0,0:0:0:0:
167,135,254471,1,0,0:0:0:0:
167,135,254556,1,0,0:0:0:0:
167,135,254642,1,0,0:0:0:0:
167,135,254728,1,0,0:0:0:0:
167,135,254813,1,0,0:0:0:0:
167,135,254899,1,0,0:0:0:0:
167,135,254985,1,0,0:0:0:0:
159,125,255071,1,2,0:0:0:0:
159,125,255156,1,2,0:0:0:0:
159,125,255242,1,0,0:0:0:0:
159,125,255328,1,0,0:0:0:0:
159,125,255413,1,0,0:0:0:0:
159,125,255499,1,0,0:0:0:0:
159,125,255585,1,2,0:0:0:0:
159,125,255671,1,2,0:0:0:0:
251,151,255756,1,0,0:0:0:0:
251,151,255842,1,0,0:0:0:0:
251,151,255927,1,0,0:0:0:0:
251,151,256013,1,0,0:0:0:0:
216,82,256099,1,2,0:0:0:0:
216,82,256184,1,2,0:0:0:0:
216,82,256270,1,0,0:0:0:0:
216,82,256356,1,0,0:0:0:0:
216,82,256442,1,2,0:0:0:0:
216,82,256527,1,2,0:0:0:0:
216,82,256613,1,2,0:0:0:0:
216,82,256699,1,2,0:0:0:0:
220,78,256784,1,0,0:0:0:0:
216,82,256870,1,0,0:0:0:0:
216,82,256956,1,0,0:0:0:0:
216,82,257042,1,0,0:0:0:0:
226,94,257127,1,2,0:0:0:0:
226,94,257213,1,2,0:0:0:0:
225,94,257299,1,0,0:0:0:0:
225,94,257384,1,0,0:0:0:0:
225,94,257470,1,2,0:0:0:0:
225,94,257556,1,2,0:0:0:0:
225,94,257642,1,2,0:0:0:0:
225,93,257727,1,0,0:0:0:0:
225,93,257813,1,2,0:0:0:0:
225,93,257899,1,2,0:0:0:0:
225,93,257984,1,2,0:0:0:0:
225,93,258070,1,2,0:0:0:0:
226,94,258156,1,0,0:0:0:0:
226,94,258242,1,0,0:0:0:0:
225,94,258327,1,2,0:0:0:0:
187,81,258413,1,2,0:0:0:0:
187,81,258499,1,0,0:0:0:0:
187,81,258584,1,0,0:0:0:0:
187,81,258670,1,0,0:0:0:0:
187,81,258756,1,0,0:0:0:0:
193,87,258842,1,2,0:0:0:0:
195,87,258927,1,0,0:0:0:0:
193,87,259013,1,0,0:0:0:0:
195,87,259099,1,0,0:0:0:0:
196,85,259184,1,2,0:0:0:0:
196,85,259270,1,2,0:0:0:0:
200,79,259356,1,0,0:0:0:0:
200,79,259442,1,0,0:0:0:0:
173,54,259527,1,2,0:0:0:0:
173,54,259613,1,2,0:0:0:0:
173,54,259699,1,2,0:0:0:0:
173,54,259784,1,2,0:0:0:0:
165,59,259870,1,0,0:0:0:0:
165,59,259956,1,2,0:0:0:0:
165,59,260042,1,0,0:0:0:0:
165,59,260127,1,2,0:0:0:0:
165,59,260213,1,0,0:0:0:0:
165,59,260299,1,2,0:0:0:0:
165,59,260384,1,0,0:0:0:0:
165,59,260470,1,0,0:0:0:0:
176,86,260556,1,2,0:0:0:0:
176,86,260642,1,0,0:0:0:0:
176,86,260727,1,2,0:0:0:0:
176,86,260813,1,0,0:0:0:0:
176,86,260899,1,2,0:0:0:0:
176,86,260984,1,0,0:0:0:0:
176,86,261070,1,2,0:0:0:0:
176,86,261156,1,2,0:0:0:0:
176,86,261242,1,0,0:0:0:0:
167,79,261327,1,0,0:0:0:0:
167,79,261413,1,0,0:0:0:0:
167,79,261499,1,0,0:0:0:0:
166,77,261584,1,2,0:0:0:0:
166,77,261670,1,2,0:0:0:0:
166,77,261756,1,0,0:0:0:0:
166,77,261842,1,0,0:0:0:0:
166,77,261927,1,2,0:0:0:0:
166,77,262013,1,2,0:0:0:0:
166,77,262099,1,2,0:0:0:0:
166,77,262184,1,2,0:0:0:0:
166,77,262270,1,0,0:0:0:0:
167,79,262356,1,0,0:0:0:0:
167,79,262442,1,0,0:0:0:0:
167,79,262527,1,0,0:0:0:0:
202,116,262613,1,2,0:0:0:0:
202,116,262699,1,2,0:0:0:0:
202,116,262784,1,0,0:0:0:0:
199,109,262870,1,0,0:0:0:0:
198,109,262956,1,2,0:0:0:0:
198,109,263042,1,0,0:0:0:0:
198,109,263127,1,0,0:0:0:0:
198,109,263213,1,0,0:0:0:0:
173,101,263299,1,2,0:0:0:0:
173,101,263384,1,0,0:0:0:0:
173,101,263470,1,2,0:0:0:0:
173,101,263556,1,0,0:0:0:0:
173,101,263642,1,2,0:0:0:0:
176,95,263727,1,0,0:0:0:0:
176,95,263813,1,0,0:0:0:0:
176,95,263899,1,0,0:0:0:0:
203,140,263984,1,2,0:0:0:0:
203,140,264070,1,0,0:0:0:0:
203,140,264156,1,0,0:0:0:0:
203,140,264242,1,0,0:0:0:0:
203,140,264327,1,2,0:0:0:0:
203,140,264413,1,2,0:0:0:0:
203,140,264499,1,0,0:0:0:0:
203,140,264584,1,0,0:0:0:0:
215,165,264670,1,2,0:0:0:0:
215,165,264756,1,0,0:0:0:0:
215,165,264842,1,0,0:0:0:0:
215,165,264927,1,0,0:0:0:0:
215,165,265013,1,2,0:0:0:0:
215,165,265099,1,0,0:0:0:0:
215,165,265184,1,2,0:0:0:0:
192,110,265271,1,2,0:0:0:0:
167,135,265356,1,0,0:0:0:0:
167,135,265442,1,0,0:0:0:0:
167,135,265527,1,0,0:0:0:0:
167,135,265613,1,0,0:0:0:0:
167,135,265699,1,2,0:0:0:0:
167,135,265784,1,2,0:0:0:0:
167,135,265870,1,0,0:0:0:0:
167,135,265956,1,0,0:0:0:0:
159,125,266042,1,0,0:0:0:0:
159,125,266127,1,0,0:0:0:0:
159,125,266213,1,2,0:0:0:0:
159,125,266299,1,2,0:0:0:0:
159,125,266384,1,0,0:0:0:0:
159,125,266470,1,2,0:0:0:0:
159,125,266556,1,0,0:0:0:0:
179,209,266728,1,0,0:0:0:0:
179,209,266813,1,2,0:0:0:0:
179,209,266899,1,0,0:0:0:0:
179,209,266985,1,2,0:0:0:0:
179,209,267071,1,0,0:0:0:0:
179,209,267156,1,2,0:0:0:0:
179,209,267242,1,0,0:0:0:0:
179,209,267328,1,2,0:0:0:0:
179,209,267413,1,2,0:0:0:0:
179,209,267499,1,2,0:0:0:0:
168,206,267585,1,0,0:0:0:0:
167,209,267671,1,2,0:0:0:0:
168,206,267756,1,0,0:0:0:0:
168,206,267842,1,2,0:0:0:0:
168,206,267928,1,0,0:0:0:0:
168,206,268013,1,2,0:0:0:0:
168,206,268099,1,0,0:0:0:0:
168,206,268185,1,0,0:0:0:0:
168,206,268271,1,2,0:0:0:0:
168,206,268356,1,2,0:0:0:0:
168,206,268442,1,0,0:0:0:0:
168,206,268528,1,2,0:0:0:0:
168,206,268613,1,0,0:0:0:0:
167,209,268699,1,2,0:0:0:0:
164,198,268785,1,2,0:0:0:0:
164,198,268871,1,2,0:0:0:0:
168,206,268956,1,0,0:0:0:0:
161,198,269042,1,2,0:0:0:0:
161,198,269128,1,0,0:0:0:0:
162,198,269213,1,2,0:0:0:0:
162,198,269299,1,0,0:0:0:0:
162,198,269385,1,2,0:0:0:0:
192,200,269471,1,0,0:0:0:0:
192,200,269556,1,0,0:0:0:0:
192,200,269642,1,2,0:0:0:0:
192,200,269728,1,0,0:0:0:0:
127,113,269813,1,2,0:0:0:0:
127,113,269899,1,2,0:0:0:0:
203,154,269985,1,0,0:0:0:0:
203,154,270071,1,0,0:0:0:0:
203,154,270156,1,2,0:0:0:0:
203,154,270242,1,0,0:0:0:0:
203,154,270328,1,0,0:0:0:0:
203,154,270413,1,0,0:0:0:0:
203,154,270499,1,2,0:0:0:0:
203,154,270585,1,2,0:0:0:0:
203,154,270671,1,0,0:0:0:0:
203,154,270756,1,0,0:0:0:0:
157,113,270842,1,2,0:0:0:0:
157,113,270928,1,2,0:0:0:0:
157,113,271013,1,2,0:0:0:0:
157,113,271099,1,0,0:0:0:0:
157,113,271185,1,2,0:0:0:0:
157,113,271271,1,2,0:0:0:0:
157,113,271356,1,0,0:0:0:0:
157,113,271442,1,0,0:0:0:0:
146,108,271528,1,2,0:0:0:0:
146,108,271613,1,2,0:0:0:0:
141,108,271699,1,0,0:0:0:0:
141,108,271785,1,0,0:0:0:0:
141,108,271871,1,2,0:0:0:0:
141,108,271956,1,2,0:0:0:0:
141,108,272042,1,0,0:0:0:0:
141,108,272128,1,0,0:0:0:0:
163,116,272213,1,2,0:0:0:0:
163,116,272299,1,2,0:0:0:0:
163,116,272385,1,2,0:0:0:0:
163,116,272471,1,2,0:0:0:0:
163,116,272556,1,0,0:0:0:0:
163,116,272642,1,2,0:0:0:0:
172,113,272728,1,0,0:0:0:0:
172,113,272813,1,2,0:0:0:0:
172,113,272899,1,2,0:0:0:0:
176,111,272985,1,2,0:0:0:0:
176,111,273071,1,0,0:0:0:0:
176,111,273156,1,2,0:0:0:0:
176,111,273242,1,0,0:0:0:0:
176,111,273328,1,2,0:0:0:0:
176,111,273413,1,0,0:0:0:0:
176,111,273499,1,2,0:0:0:0:
176,111,273585,1,0,0:0:0:0:
176,111,273671,1,0,0:0:0:0:
64,125,273756,1,2,0:0:0:0:
64,125,273842,1,2,0:0:0:0:
64,125,273928,1,0,0:0:0:0:
64,125,274013,1,2,0:0:0:0:
64,125,274099,1,0,0:0:0:0:
64,125,274185,1,2,0:0:0:0:
64,125,274271,1,2,0:0:0:0:
64,125,274356,1,2,0:0:0:0:
64,125,274442,1,0,0:0:0:0:
64,125,274528,1,2,0:0:0:0:
64,125,274613,1,0,0:0:0:0:
66,129,274699,1,2,0:0:0:0:
66,129,274785,1,0,0:0:0:0:
66,129,274871,1,2,0:0:0:0:
218,122,274956,1,0,0:0:0:0:
218,122,275042,1,0,0:0:0:0:
206,93,275128,1,0,0:0:0:0:
206,93,275213,1,0,0:0:0:0:
209,113,275299,1,2,0:0:0:0:
209,113,275385,1,2,0:0:0:0:
209,113,275471,1,0,0:0:0:0:
209,113,275556,1,0,0:0:0:0:
209,113,275642,1,2,0:0:0:0:
123,175,275728,1,2,0:0:0:0:
209,113,275813,1,0,0:0:0:0:
210,114,275899,1,0,0:0:0:0:
210,114,275985,1,2,0:0:0:0:
124,172,276071,1,2,0:0:0:0:
124,172,276156,1,2,0:0:0:0:
124,172,276242,1,0,0:0:0:0:
131,120,276328,1,2,0:0:0:0:
122,120,276413,1,2,0:0:0:0:
123,120,276499,1,0,0:0:0:0:
123,120,276585,1,0,0:0:0:0:
123,120,276671,1,2,0:0:0:0:
123,120,276756,1,0,0:0:0:0:
123,120,276842,1,0,0:0:0:0:
165,108,276928,1,2,0:0:0:0:
165,108,277013,1,2,0:0:0:0:
165,108,277099,1,2,0:0:0:0:
165,108,277185,1,0,0:0:0:0:
165,108,277271,1,0,0:0:0:0:
165,108,277356,1,2,0:0:0:0:
165,108,277442,1,2,0:0:0:0:
165,108,277528,1,0,0:0:0:0:
223,113,277699,1,0,0:0:0:0:
223,113,277785,1,2,0:0:0:0:
223,113,277871,1,0,0:0:0:0:
223,113,277956,1,2,0:0:0:0:
223,113,278042,1,0,0:0:0:0:
223,113,278128,1,2,0:0:0:0:
223,113,278213,1,0,0:0:0:0:
223,113,278299,1,2,0:0:0:0:
223,113,278385,1,2,0:0:0:0:
223,113,278471,1,2,0:0:0:0:
237,108,278556,1,0,0:0:0:0:
240,110,278642,1,2,0:0:0:0:
240,110,278728,1,0,0:0:0:0:
240,110,278813,1,2,0:0:0:0:
240,110,278899,1,0,0:0:0:0:
240,110,278985,1,2,0:0:0:0:
240,110,279071,1,0,0:0:0:0:
240,110,279156,1,0,0:0:0:0:
237,104,279242,1,2,0:0:0:0:
237,104,279328,1,2,0:0:0:0:
237,104,279413,1,0,0:0:0:0:
237,104,279499,1,2,0:0:0:0:
237,108,279585,1,0,0:0:0:0:
237,104,279671,1,2,0:0:0:0:
237,104,279756,1,2,0:0:0:0:
237,104,279842,1,2,0:0:0:0:
240,110,279928,1,0,0:0:0:0:
240,110,280013,1,2,0:0:0:0:
240,110,280099,1,0,0:0:0:0:
240,110,280185,1,2,0:0:0:0:
229,99,280271,1,0,0:0:0:0:
229,99,280356,1,2,0:0:0:0:
229,99,280442,1,0,0:0:0:0:
229,99,280528,1,0,0:0:0:0:
226,94,280613,1,0,0:0:0:0:
231,98,280699,1,0,0:0:0:0:
226,94,280785,1,2,0:0:0:0:
226,94,280871,1,0,0:0:0:0:
226,94,280956,1,0,0:0:0:0:
226,94,281042,1,0,0:0:0:0:
226,94,281128,1,2,0:0:0:0:
226,94,281213,1,0,0:0:0:0:
226,94,281299,1,0,0:0:0:0:
226,94,281385,1,0,0:0:0:0:
226,94,281471,1,2,0:0:0:0:
229,81,281556,1,0,0:0:0:0:
229,81,281642,1,0,0:0:0:0:
229,81,281728,1,0,0:0:0:0:
229,81,281813,1,2,0:0:0:0:
229,81,281899,1,2,0:0:0:0:
229,81,281985,1,2,0:0:0:0:
229,81,282071,1,0,0:0:0:0:
229,81,282156,1,2,0:0:0:0:
212,63,282242,1,2,0:0:0:0:
229,81,282328,1,0,0:0:0:0:
229,81,282413,1,0,0:0:0:0:
220,81,282499,1,2,0:0:0:0:
212,63,282585,1,0,0:0:0:0:
212,63,282671,1,0,0:0:0:0:
212,63,282756,1,0,0:0:0:0:
212,63,282842,1,2,0:0:0:0:
212,63,282928,1,2,0:0:0:0:
212,63,283013,1,0,0:0:0:0:
212,63,283099,1,0,0:0:0:0:
209,90,283185,1,2,0:0:0:0:
209,90,283271,1,2,0:0:0:0:
209,90,283356,1,2,0:0:0:0:
209,90,283442,1,2,0:0:0:0:
212,85,283528,1,0,0:0:0:0:
213,80,283613,1,0,0:0:0:0:
203,77,283699,1,0,0:0:0:0:
203,77,283785,1,0,0:0:0:0:
203,77,283871,1,2,0:0:0:0:
203,77,283956,1,0,0:0:0:0:
203,77,284042,1,0,0:0:0:0:
203,77,284128,1,0,0:0:0:0:
203,77,284213,1,2,0:0:0:0:
204,77,284299,1,2,0:0:0:0:
204,77,284385,1,0,0:0:0:0:
204,77,284471,1,0,0:0:0:0:
204,77,284556,1,2,0:0:0:0:
65,142,284642,1,2,0:0:0:0:
65,142,284728,1,2,0:0:0:0:
70,138,284813,1,0,0:0:0:0:
70,138,284899,1,2,0:0:0:0:
72,138,284985,1,2,0:0:0:0:
73,138,285071,1,0,0:0:0:0:
73,138,285156,1,0,0:0:0:0:
176,133,285242,1,2,0:0:0:0:
176,133,285328,1,2,0:0:0:0:
176,133,285413,1,2,0:0:0:0:
176,133,285499,1,2,0:0:0:0:
176,133,285585,1,2,0:0:0:0:
176,133,285671,1,2,0:0:0:0:
176,133,285756,1,2,0:0:0:0:
176,133,285842,1,2,0:0:0:0:
205,148,285928,1,0,0:0:0:0:
221,140,286013,1,0,0:0:0:0:
213,133,286099,1,2,0:0:0:0:
213,133,286185,1,2,0:0:0:0:
206,141,286271,1,0,0:0:0:0:
206,141,286356,1,2,0:0:0:0:
206,141,286442,1,0,0:0:0:0:
206,141,286528,1,2,0:0:0:0:
208,143,286613,1,2,0:0:0:0:
208,143,286699,1,2,0:0:0:0:
208,143,286785,1,0,0:0:0:0:
208,143,286871,1,2,0:0:0:0:
208,143,286956,1,0,0:0:0:0:
208,143,287042,1,2,0:0:0:0:
192,130,287128,1,0,0:0:0:0:
193,131,287213,1,0,0:0:0:0:
210,144,287299,1,2,0:0:0:0:
210,144,287385,1,2,0:0:0:0:
206,141,287471,1,0,0:0:0:0:
206,141,287556,1,0,0:0:0:0:
208,143,287642,1,2,0:0:0:0:
208,143,287728,1,0,0:0:0:0:
208,143,287813,1,2,0:0:0:0:
208,143,287899,1,0,0:0:0:0:
208,143,287985,1,2,0:0:0:0:
208,143,288071,1,2,0:0:0:0:
205,140,288156,1,0,0:0:0:0:
205,140,288242,1,0,0:0:0:0:
204,136,288328,1,2,0:0:0:0:
204,136,288413,1,2,0:0:0:0:
206,141,288499,1,0,0:0:0:0:
157,108,288671,1,0,0:0:0:0:
157,108,288756,1,0,0:0:0:0:
157,108,288842,1,0,0:0:0:0:
157,108,288928,1,0,0:0:0:0:
157,108,289014,1,2,0:0:0:0:
157,108,289099,1,0,0:0:0:0:
157,108,289185,1,0,0:0:0:0:
157,108,289271,1,0,0:0:0:0:
157,108,289356,1,2,0:0:0:0:
157,108,289441,1,2,0:0:0:0:
157,108,289527,1,0,0:0:0:0:
157,108,289613,1,0,0:0:0:0:
91,118,289699,1,2,0:0:0:0:
91,118,289785,1,0,0:0:0:0:
91,118,289871,1,0,0:0:0:0:
91,118,289956,1,0,0:0:0:0:
157,108,290042,1,2,0:0:0:0:
157,108,290127,1,0,0:0:0:0:
157,108,290213,1,0,0:0:0:0:
157,108,290299,1,0,0:0:0:0:
157,108,290385,1,2,0:0:0:0:
157,108,290470,1,2,0:0:0:0:
157,108,290556,1,0,0:0:0:0:
157,108,290642,1,0,0:0:0:0:
157,108,290727,1,2,0:0:0:0:
157,108,290814,1,0,0:0:0:0:
157,108,290899,1,2,0:0:0:0:
157,108,290984,1,0,0:0:0:0:
91,118,291070,1,2,0:0:0:0:
91,118,291156,1,0,0:0:0:0:
91,118,291242,1,0,0:0:0:0:
91,118,291328,1,0,0:0:0:0:
157,108,291414,1,2,0:0:0:0:
157,108,291499,1,0,0:0:0:0:
157,108,291585,1,0,0:0:0:0:
157,108,291671,1,0,0:0:0:0:
157,108,291757,1,2,0:0:0:0:
157,108,291842,1,0,0:0:0:0:
157,108,291928,1,0,0:0:0:0:
157,108,292014,1,0,0:0:0:0:
157,108,292099,1,2,0:0:0:0:
157,108,292184,1,2,0:0:0:0:
157,108,292270,1,0,0:0:0:0:
157,108,292356,1,0,0:0:0:0:
91,118,292442,1,2,0:0:0:0:
91,118,292528,1,2,0:0:0:0:
91,118,292614,1,0,0:0:0:0:
91,118,292699,1,0,0:0:0:0:
157,108,292785,1,2,0:0:0:0:
157,108,292870,1,0,0:0:0:0:
157,108,292956,1,0,0:0:0:0:
157,108,293042,1,0,0:0:0:0:
157,108,293128,1,2,0:0:0:0:
157,108,293213,1,2,0:0:0:0:
157,108,293299,1,0,0:0:0:0:
157,108,293385,1,0,0:0:0:0:
157,108,293470,1,2,0:0:0:0:
157,108,293555,1,2,0:0:0:0:
157,108,293641,1,2,0:0:0:0:
157,108,293727,1,0,0:0:0:0:
91,118,293813,1,2,0:0:0:0:
91,118,293899,1,2,0:0:0:0:
91,118,293985,1,0,0:0:0:0:
91,118,294070,1,0,0:0:0:0:
157,108,294156,1,0,0:0:0:0:
157,108,294241,1,0,0:0:0:0:
157,108,294327,1,0,0:0:0:0:
157,108,294413,1,0,0:0:0:0:
157,108,294499,1,2,0:0:0:0:
157,108,294584,1,2,0:0:0:0:
157,108,294670,1,0,0:0:0:0:
157,108,294756,1,0,0:0:0:0:
157,108,294841,1,2,0:0:0:0:
157,108,294928,1,2,0:0:0:0:
157,108,295012,1,0,0:0:0:0:
157,108,295098,1,0,0:0:0:0:
91,118,295184,1,2,0:0:0:0:
91,118,295270,1,2,0:0:0:0:
91,118,295356,1,0,0:0:0:0:
91,118,295441,1,0,0:0:0:0:
157,108,295528,1,2,0:0:0:0:
157,108,295613,1,2,0:0:0:0:
157,108,295699,1,2,0:0:0:0:
157,108,295785,1,2,0:0:0:0:
157,108,295871,1,2,0:0:0:0:
157,108,295956,1,2,0:0:0:0:
157,108,296042,1,2,0:0:0:0:
157,108,296128,1,2,0:0:0:0:
157,108,296213,1,2,0:0:0:0:
157,108,296298,1,2,0:0:0:0:
157,108,296384,1,2,0:0:0:0:
157,108,296470,1,2,0:0:0:0:
91,118,296556,1,2,0:0:0:0:
91,118,296642,1,2,0:0:0:0:
91,118,296728,1,2,0:0:0:0:
91,118,296813,1,2,0:0:0:0:
157,108,296899,1,2,0:0:0:0:
157,108,296984,1,2,0:0:0:0:
157,108,297070,1,2,0:0:0:0:
157,108,297156,1,2,0:0:0:0:
157,108,297242,1,2,0:0:0:0:
157,108,297327,1,2,0:0:0:0:
157,108,297413,1,2,0:0:0:0:
157,108,297499,1,2,0:0:0:0:
157,108,297584,1,2,0:0:0:0:
157,108,297671,1,2,0:0:0:0:
157,108,297755,1,2,0:0:0:0:
157,108,297841,1,2,0:0:0:0:
91,118,297927,1,2,0:0:0:0:
91,118,298013,1,2,0:0:0:0:
91,118,298099,1,0,0:0:0:0:
91,118,298184,1,0,0:0:0:0:
157,108,298271,1,2,0:0:0:0:
157,108,298356,1,2,0:0:0:0:
157,108,298442,1,0,0:0:0:0:
157,108,298528,1,0,0:0:0:0:
157,108,298614,1,2,0:0:0:0:
157,108,298699,1,0,0:0:0:0:
157,108,298785,1,0,0:0:0:0:
192,122,298871,1,2,0:0:0:0:
196,142,298956,1,0,0:0:0:0:
197,136,299042,1,2,0:0:0:0:
197,136,299128,1,2,0:0:0:0:
197,136,299213,1,2,0:0:0:0:
196,129,299299,1,0,0:0:0:0:
196,128,299385,1,2,0:0:0:0:
196,129,299471,1,0,0:0:0:0:
196,129,299556,1,2,0:0:0:0:
196,129,299642,1,0,0:0:0:0:
276,142,299813,1,0,0:0:0:0:
266,164,299985,1,0,0:0:0:0:
252,163,300156,1,0,0:0:0:0:
254,171,300328,1,6,0:0:0:0:
254,180,300499,1,0,0:0:0:0:
256,187,300671,1,2,0:0:0:0:
256,192,300842,1,0,0:0:0:0:
265,203,301013,1,6,0:0:0:0:
268,207,301185,1,0,0:0:0:0:
272,211,301357,1,0,0:0:0:0:
278,215,301528,1,0,0:0:0:0:
280,214,301699,1,6,0:0:0:0:
283,215,301871,1,0,0:0:0:0:
286,215,302042,1,0,0:0:0:0:
292,219,302213,1,0,0:0:0:0:
278,215,302385,1,6,0:0:0:0:
280,214,302556,1,0,0:0:0:0:
283,215,302728,1,0,0:0:0:0:
283,226,302899,1,0,0:0:0:0:
286,234,303071,1,6,0:0:0:0:
289,239,303242,1,0,0:0:0:0:
289,239,303413,1,2,0:0:0:0:
291,241,303585,1,0,0:0:0:0:
292,243,303756,1,6,0:0:0:0:
293,246,303928,1,0,0:0:0:0:
295,248,304099,1,0,0:0:0:0:
296,250,304271,1,0,0:0:0:0:
295,254,304442,1,6,0:0:0:0:
294,260,304613,1,0,0:0:0:0:
293,263,304785,1,0,0:0:0:0:
294,267,304956,1,0,0:0:0:0:
296,275,305128,1,4,0:0:0:0:
298,277,305299,1,0,0:0:0:0:
299,281,305471,1,0,0:0:0:0:
303,283,305642,1,0,0:0:0:0:
304,288,305813,1,6,0:0:0:0:
303,285,305985,1,0,0:0:0:0:
304,285,306156,1,2,0:0:0:0:
308,288,306328,1,0,0:0:0:0:
311,293,306499,1,6,0:0:0:0:
313,295,306671,1,0,0:0:0:0:
319,304,306842,1,2,0:0:0:0:
321,307,307013,1,0,0:0:0:0:
325,307,307185,1,6,0:0:0:0:
327,308,307356,1,0,0:0:0:0:
333,311,307528,1,0,0:0:0:0:
340,308,307699,1,0,0:0:0:0:
286,75,307871,1,0,0:0:0:0:
286,75,307985,1,0,0:0:0:0:
286,75,308099,1,2,0:0:0:0:
286,75,308213,1,0,0:0:0:0:
221,95,308328,1,0,0:0:0:0:
221,95,308442,1,0,0:0:0:0:
221,95,308556,1,2,0:0:0:0:
221,95,308671,1,2,0:0:0:0:
272,74,308785,1,0,0:0:0:0:
116,124,308899,1,2,0:0:0:0:
116,124,309013,1,2,0:0:0:0:
116,124,309128,1,0,0:0:0:0:
239,92,309242,1,0,0:0:0:0:
239,92,309328,1,0,0:0:0:0:
239,92,309413,1,0,0:0:0:0:
239,92,309499,1,0,0:0:0:0:
242,93,309585,1,2,0:0:0:0:
242,93,309671,1,2,0:0:0:0:
239,92,309756,1,0,0:0:0:0:
239,92,309842,1,2,0:0:0:0:
132,108,309928,1,0,0:0:0:0:
132,108,310042,1,0,0:0:0:0:
173,74,310156,1,2,0:0:0:0:
173,74,310271,1,0,0:0:0:0:
173,74,310385,1,0,0:0:0:0:
173,74,310499,1,2,0:0:0:0:
173,74,310613,1,4,0:0:0:0:
191,126,313356,1,2,0:0:0:0:
140,117,315413,1,0,0:0:0:0:
140,117,316613,1,2,0:0:0:0:
