osu file format v14

[General]
AudioFilename: audio.mp3
AudioLeadIn: 0
PreviewTime: 158560
Countdown: 0
SampleSet: Drum
StackLeniency: 0.7
Mode: 0
LetterboxInBreaks: 0
WidescreenStoryboard: 1

[Editor]
DistanceSpacing: 1
BeatDivisor: 4
GridSize: 16
TimelineZoom: 1

[Metadata]
Title:Harmony of One's Heart
TitleUnicode:Harmony of One's Heart
Artist:Diva (VO: Yagi Kairi)
ArtistUnicode:ディーヴァ (VO: 八木海莉)
Creator:Konge
Version:Normal
Source:Vivy -Fluorite Eye's Song-
Tags:ヴィヴィ -フローライトアイズソング- MONACA 神前暁 23konG DayDreamkwy Yurino Ayumi Japanese pop jpop j-pop anime ones
BeatmapID:3041762
BeatmapSetID:1477434

[Difficulty]
HPDrainRate:4
CircleSize:3
OverallDifficulty:4
ApproachRate:5
SliderMultiplier:1.6
SliderTickRate:2

[Events]
//Background and Video events
0,0,"BG.jpg",0,0
//Break Periods
2,175639,176639
//Storyboard Layer 0 (Background)
//Storyboard Layer 1 (Fail)
//Storyboard Layer 2 (Pass)
//Storyboard Layer 3 (Foreground)
//Storyboard Layer 4 (Overlay)
//Storyboard Sound Samples

[TimingPoints]
239,600,4,3,0,40,1,0
239,-100,4,3,0,40,0,0
9239,-100,4,3,0,35,0,0
9389,-100,4,3,0,45,0,0
9539,-100,4,3,0,55,0,0
9689,-100,4,3,0,65,0,0
9839,-83.3333333333333,4,2,2,55,0,0
19289,-83.3333333333333,4,2,98,75,0,0
19589,-83.3333333333333,4,2,2,55,0,0
21164,-83.3333333333333,4,3,3,55,0,0
21314,-83.3333333333333,4,2,2,55,0,0
23564,-83.3333333333333,4,3,3,55,0,0
23714,-83.3333333333333,4,2,2,55,0,0
25964,-83.3333333333333,4,3,3,55,0,0
26114,-83.3333333333333,4,2,2,55,0,0
28364,-83.3333333333333,4,3,3,55,0,0
28514,-83.3333333333333,4,2,2,55,0,0
30764,-83.3333333333333,4,3,3,55,0,0
30914,-83.3333333333333,4,2,2,55,0,0
33164,-83.3333333333333,4,3,3,55,0,0
33314,-83.3333333333333,4,2,2,55,0,0
35564,-83.3333333333333,4,3,3,55,0,0
35714,-83.3333333333333,4,2,2,55,0,0
37964,-83.3333333333333,4,3,3,55,0,0
38114,-83.3333333333333,4,2,2,55,0,0
38639,-90.9090909090909,4,2,2,45,0,0
48089,-83.3333333333333,4,2,2,55,0,0
48389,-83.3333333333333,4,3,3,55,0,0
53039,-83.3333333333333,4,3,3,40,0,0
53639,-83.3333333333333,4,3,3,50,0,0
54239,-83.3333333333333,4,3,3,60,0,0
54839,-83.3333333333333,4,3,3,70,0,0
55439,-83.3333333333333,4,3,0,75,0,0
56639,-83.3333333333333,4,3,0,45,0,0
56939,-125,4,3,0,50,0,0
57839,-76.9230769230769,4,2,0,75,0,1
57914,-76.9230769230769,4,2,3,75,0,1
66539,-76.9230769230769,4,2,3,55,0,1
67439,-76.9230769230769,4,1,0,75,0,1
67514,-76.9230769230769,4,2,3,75,0,1
74639,-76.9230769230769,4,3,0,75,0,1
75839,-76.9230769230769,4,3,3,55,0,1
77039,-83.3333333333333,4,2,3,65,0,0
77489,-83.3333333333333,4,2,3,45,0,0
77639,-83.3333333333333,4,2,3,65,0,0
78164,-83.3333333333333,4,2,2,65,0,0
78314,-83.3333333333333,4,2,3,65,0,0
80564,-83.3333333333333,4,2,2,65,0,0
80714,-83.3333333333333,4,2,3,65,0,0
82964,-83.3333333333333,4,2,2,65,0,0
83114,-83.3333333333333,4,2,3,65,0,0
85364,-83.3333333333333,4,2,2,65,0,0
85514,-83.3333333333333,4,2,3,65,0,0
87764,-83.3333333333333,4,2,2,65,0,0
87914,-83.3333333333333,4,2,3,65,0,0
90164,-83.3333333333333,4,2,2,65,0,0
90314,-83.3333333333333,4,2,3,65,0,0
92564,-83.3333333333333,4,2,2,65,0,0
92714,-83.3333333333333,4,2,3,65,0,0
94889,-83.3333333333333,4,2,3,65,0,0
95189,-83.3333333333333,4,2,3,65,0,0
95339,-83.3333333333333,4,2,2,65,0,0
95489,-83.3333333333333,4,2,3,65,0,0
96239,-83.3333333333333,4,2,99,100,0,0
99239,-66.6666666666667,4,3,0,45,0,0
100139,-66.6666666666667,4,3,0,5,0,0
100439,-66.6666666666667,4,3,0,55,0,0
101039,-83.3333333333333,4,2,2,55,0,0
120239,-83.3333333333333,4,1,3,65,0,0
121439,-83.3333333333333,4,1,3,60,0,0
129839,-83.3333333333333,4,3,0,65,0,0
129914,-83.3333333333333,4,3,3,65,0,0
134639,-83.3333333333333,4,3,3,60,0,0
135239,-83.3333333333333,4,3,3,62,0,0
135839,-83.3333333333333,4,3,3,65,0,0
136439,-83.3333333333333,4,3,3,68,0,0
137039,-83.3333333333333,4,3,0,80,0,0
138239,-83.3333333333333,4,3,3,55,0,0
139439,-83.3333333333333,4,2,0,75,0,1
139514,-83.3333333333333,4,2,3,75,0,1
149039,-83.3333333333333,4,2,0,75,0,1
149114,-83.3333333333333,4,2,3,75,0,1
157214,-83.3333333333333,4,2,0,75,0,1
157964,-83.3333333333333,4,2,3,75,0,1
158489,-83.3333333333333,4,2,3,70,0,1
158639,-83.3333333333333,4,1,0,70,0,1
158714,-83.3333333333333,4,2,3,70,0,1
160439,-83.3333333333333,4,2,1,70,0,1
160739,-83.3333333333333,4,2,3,70,0,1
162839,-83.3333333333333,4,2,1,70,0,1
163139,-83.3333333333333,4,2,3,70,0,1
165239,-83.3333333333333,4,2,1,70,0,1
165539,-83.3333333333333,4,2,3,70,0,1
167564,-83.3333333333333,4,3,0,70,0,1
167714,-83.3333333333333,4,2,3,70,0,1
167864,-83.3333333333333,4,3,0,70,0,1
168239,-83.3333333333333,4,1,0,80,0,1
168539,-83.3333333333333,4,2,3,70,0,1
170039,-83.3333333333333,4,2,1,70,0,1
170339,-83.3333333333333,4,2,3,70,0,1
172439,-83.3333333333333,4,2,1,70,0,1
172514,-83.3333333333333,4,2,3,70,0,1
174764,-83.3333333333333,4,2,1,70,0,1
174914,-83.3333333333333,4,2,3,70,0,1
175439,-83.3333333333333,4,2,3,30,0,0
177839,-83.3333333333333,4,2,0,70,0,1
177989,-83.3333333333333,4,2,3,70,0,0
189839,-83.3333333333333,4,2,3,80,0,0
191939,-83.3333333333333,4,2,3,70,0,0
192239,-83.3333333333333,4,2,3,60,0,0
193289,-83.3333333333333,4,2,2,55,0,0
194639,-83.3333333333333,4,2,2,50,0,0
197039,-83.3333333333333,4,2,2,65,0,0
199439,-83.3333333333333,4,2,2,75,0,0
201839,-83.3333333333333,4,2,2,65,0,0
204239,-83.3333333333333,4,2,3,60,0,0
204839,-83.3333333333333,4,2,2,55,0,0
205439,-83.3333333333333,4,2,2,50,0,0
206039,-83.3333333333333,4,2,2,45,0,0
206639,-83.3333333333333,4,2,2,40,0,0
207239,-83.3333333333333,4,2,2,35,0,0
207839,-83.3333333333333,4,2,2,30,0,0
208439,-83.3333333333333,4,2,2,25,0,0
209039,-83.3333333333333,4,2,98,20,0,0

[Colours]
Combo1 : 236,192,19
Combo2 : 53,149,149
Combo3 : 53,86,219
Combo4 : 247,102,123

[HitObjects]
402,372,8939,6,0,P|432:337|473:306,2,80,0|12|4,0:0|0:0|0:0,0:0:0:0:
352,289,9839,6,0,B|329:202|329:202|379:139,1,143.999995605469,6|4,0:0|0:0,0:0:0:0:
391,120,10439,2,0,L|262:99,1,95.9999970703126,10|0,0:0|0:0,0:0:0:0:
273,61,10889,2,0,L|169:92,1,95.9999970703126,2|0,0:0|0:0,0:0:0:0:
158,130,11339,1,6,0:0:0:0:
100,52,11639,2,0,P|56:70|69:132,1,95.9999970703126,8|0,0:0|0:0,0:0:0:0:
70,207,12239,6,0,P|145:249|142:304,1,143.999995605469,4|4,0:0|0:0,0:0:0:0:
178,332,12839,2,0,L|285:300,1,95.9999970703126,8|0,0:0|0:0,0:0:0:0:
286,259,13289,2,0,P|334:269|391:299,1,95.9999970703126,2|0,0:0|0:0,0:0:0:0:
406,325,13739,1,6,0:0:0:0:
439,234,14039,2,0,P|488:193|534:230,1,95.9999970703126,8|0,0:0|0:0,0:0:0:0:
481,88,14639,6,0,P|412:79|315:65,1,143.999995605469,4|10,0:0|0:1,0:0:0:0:
293,50,15239,2,0,L|270:160,1,95.9999970703126,8|0,0:0|0:0,0:0:0:0:
228,163,15689,2,0,P|254:218|273:276,1,95.9999970703126,10|0,0:1|0:0,0:0:0:0:
243,293,16139,1,6,0:0:0:0:
172,358,16439,2,0,L|51:325,1,95.9999970703126,8|0,0:0|0:0,0:0:0:0:
17,259,17039,6,0,L|55:79,1,143.999995605469,4|4,0:0|0:0,0:0:0:0:
62,72,17639,2,0,L|178:148,1,95.9999970703126,8|2,0:0|0:0,0:0:0:0:
184,100,18089,2,0,B|231:87|231:87|272:109,1,95.9999970703126,8|0,0:1|0:0,0:0:0:0:
301,147,18539,1,6,0:0:0:0:
380,92,18839,6,0,L|428:-22,1,95.9999970703126,8|10,0:0|0:1,0:0:0:0:
494,60,19439,1,4,0:0:0:0:
447,143,19739,1,0,0:0:0:0:
426,186,19889,2,0,P|455:277|457:314,1,95.9999970703126,2|0,0:0|0:0,0:0:0:0:
384,342,20489,2,0,B|322:298|322:298|334:216,1,143.999995605469,10|2,0:1|0:0,0:0:0:0:
268,158,21239,2,0,P|213:137|170:114,1,95.9999970703126,14|2,0:0|0:0,0:0:0:0:
98,171,21839,6,0,L|-35:210,1,95.9999970703126,6|0,0:0|0:0,0:0:0:0:
16,244,22289,2,0,B|27:316|27:316|83:338,1,95.9999970703126,6|0,0:0|0:0,0:0:0:0:
90,347,22739,1,2,0:0:0:0:
161,283,23039,1,0,0:0:0:0:
207,270,23189,2,0,B|258:289|258:289|292:352,1,95.9999970703126,2|0,0:0|0:0,0:0:0:0:
324,334,23639,2,0,L|389:322,2,47.9999985351563,14|2|8,0:0|0:0|0:1,0:0:0:0:
329,237,24239,6,0,B|318:185|318:185|352:129,1,95.9999970703126,6|2,0:0|0:0,0:0:0:0:
370,110,24689,2,0,P|440:146|495:129,1,95.9999970703126,6|0,0:0|0:0,0:0:0:0:
489,178,25139,2,0,L|461:310,1,95.9999970703126,2|0,0:0|0:0,0:0:0:0:
420,274,25589,2,0,B|375:316|375:316|318:313,1,95.9999970703126,2|0,0:0|0:0,0:0:0:0:
302,284,26039,2,0,P|256:280|219:334,1,95.9999970703126,14|2,0:0|0:0,2:0:0:0:
127,297,26639,6,0,P|97:248|134:195,1,95.9999970703126,4|0,0:0|0:0,0:0:0:0:
144,182,27089,2,0,L|238:165,1,95.9999970703126,6|0,0:0|0:0,0:0:0:0:
266,126,27539,1,2,0:0:0:0:
247,31,27839,1,0,0:0:0:0:
201,14,27989,2,0,P|151:22|81:32,1,95.9999970703126,0|8,0:0|0:1,0:0:0:0:
65,53,28439,2,0,B|23:95|23:95|27:158,1,95.9999970703126,14|2,0:0|0:0,3:0:0:0:
3,225,29039,6,0,B|14:274|14:274|76:299,1,95.9999970703126,6|0,0:0|0:0,0:0:0:0:
79,333,29489,2,0,B|102:348|124:329|124:329|145:313|193:335,1,95.9999970703126,2|0,0:0|0:0,0:0:0:0:
245,267,30089,2,0,B|330:255|330:255|399:299,1,143.999995605469,2|0,0:0|0:0,0:0:0:0:
433,207,30839,2,0,P|492:180|504:145,1,95.9999970703126,14|0,0:0|0:0,0:0:0:0:
438,82,31439,6,0,B|453:17|453:17|409:-19,1,95.9999970703126,4|0,0:0|0:0,0:0:0:0:
395,32,31889,2,0,P|346:38|296:-12,1,95.9999970703126,6|0,0:0|0:0,0:0:0:0:
271,44,32339,1,2,0:0:0:0:
179,74,32639,1,0,0:0:0:0:
133,59,32789,2,0,B|97:94|97:94|30:105,1,95.9999970703126,2|8,0:0|0:1,0:0:0:0:
15,132,33239,2,0,B|-11:61,2,47.9999985351563,14|0|2,0:0|0:0|0:0,0:0:0:0:
68,212,33839,6,0,P|134:200|152:167,1,95.9999970703126
157,226,34289,2,0,B|203:282|203:282|257:304,1,95.9999970703126,6|0,0:0|0:0,0:0:0:0:
252,330,34739,1,2,0:0:0:0:
316,258,35039,2,0,L|304:187,2,47.9999985351563,0|2|4,0:0|0:0|0:0,0:0:0:0:
393,314,35639,2,0,P|405:263|444:208,1,95.9999970703126,14|2,0:0|0:0,0:0:0:0:
502,165,36239,6,0,B|467:129|467:129|384:136,1,95.9999970703126,4|0,0:0|0:0,0:0:0:0:
377,153,36689,2,0,B|334:173|334:173|273:152,1,95.9999970703126,6|0,0:0|0:0,0:0:0:0:
243,139,37139,1,2,0:0:0:0:
225,44,37439,1,0,3:0:0:0:
186,72,37589,2,0,P|144:93|66:83,1,95.9999970703126,2|0,0:0|0:0,0:0:0:0:
54,69,38039,1,14,0:3:0:0:
12,155,38339,1,0,3:0:0:0:
68,222,38639,6,0,B|36:275|36:275|-18:307,1,88.000002685547,10|0,0:1|0:0,0:0:0:0:
7,339,39089,1,10,0:2:0:0:
133,384,39539,1,10,0:2:0:0:
179,311,39839,2,0,B|233:289|233:289|266:234,1,88.000002685547,10|8,0:1|0:0,0:0:0:0:
257,220,40289,1,0,0:0:0:0:
351,312,40739,2,0,L|425:326,1,44.0000013427735,2|0,0:0|0:0,0:0:0:0:
434,301,41039,6,0,P|462:226|499:166,2,132.00000402832,10|2|10,0:1|0:1|0:1,0:0:0:0:
328,190,42389,2,0,P|272:198|229:131,1,132.00000402832,10|10,0:1|0:0,0:0:0:0:
174,74,43139,1,8,0:1:0:0:
93,108,43439,6,0,B|50:171|105:200|105:200|93:223,1,132.00000402832,10|10,0:1|0:0,0:0:0:0:
77,351,44339,1,10,0:1:0:0:
190,284,44789,2,0,B|227:279|227:279|262:301|262:301|346:293,1,132.00000402832,0|10,0:0|0:0,0:0:0:0:
403,289,45539,1,0,0:0:0:0:
355,214,45839,6,0,P|299:127|280:78,2,132.00000402832,10|10|10,0:1|0:0|0:1,0:0:0:0:
469,148,47189,2,0,B|487:94|487:94|476:73|476:73|500:2,1,132.00000402832,10|6,0:1|0:0,0:0:0:0:
406,5,47939,1,4,0:0:0:0:
348,81,48239,6,0,B|299:91|283:69|283:69|265:35|229:45,1,95.9999970703126,12|0,0:2|0:0,0:0:0:0:
220,65,48689,1,8,0:0:0:0:
89,3,49139,1,8,0:0:0:0:
29,77,49439,2,0,B|70:120|70:120|78:189,1,95.9999970703126,10|0,0:0|0:0,0:0:0:0:
47,196,49889,1,8,0:0:0:0:
16,336,50339,2,0,L|77:298,1,47.9999985351563,10|0,0:0|0:0,0:0:0:0:
111,325,50639,6,0,B|125:316|133:300|133:300|167:325|216:305,1,95.9999970703126,10|0,0:0|0:0,0:0:0:0:
212,264,51089,2,0,P|251:328|350:348,1,143.999995605469,10|2,0:0|0:0,0:0:0:0:
395,301,51839,1,10,0:0:0:0:
473,245,52139,2,0,L|457:133,1,95.9999970703126,10|14,0:0|0:0,0:0:0:0:
383,91,52739,1,2,0:0:0:0:
256,192,53039,12,14,54839,0:0:0:0:
124,68,55439,5,12,0:0:0:0:
27,102,55739,6,0,B|10:29,4,47.9999985351563,4|8|4|8|4,0:0|0:0|0:0|0:0|0:0,0:0:0:0:
101,162,56639,1,4,0:0:0:0:
193,218,56939,6,0,B|237:255|237:255|313:228,1,128,2|2,0:2|0:2,0:0:0:0:
363,146,57839,6,0,P|348:111|312:79,2,51.999997619629,4|0|0,0:0|0:0|0:2,0:0:0:0:
465,166,58439,2,0,P|479:133|482:98,2,51.999997619629,10|0|0,0:1|0:0|0:0,0:0:0:0:
482,268,59039,2,0,P|490:292|525:336,2,51.999997619629,8|2|0,0:1|0:1|0:0,0:0:0:0:
382,296,59639,2,0,P|355:328|318:391,1,103.999995239258,10|0,0:1|0:0,0:0:0:0:
236,322,60239,6,0,B|214:285|214:285|112:275|112:275|52:346,1,207.999990478516,10|10,0:1|0:1,0:0:0:0:
7,240,61139,1,0,0:0:0:0:
88,174,61439,2,0,P|107:122|121:65,1,103.999995239258,10|2,0:1|0:1,0:0:0:0:
222,81,62039,2,0,P|204:127|188:190,1,103.999995239258,10|2,0:1|0:1,0:0:0:0:
232,274,62639,6,0,P|333:339|346:339,1,103.999995239258,10|0,0:1|0:0,0:0:0:0:
346,296,63089,1,0,0:0:0:0:
394,314,63239,2,0,P|493:273|520:273,1,103.999995239258,10|0,0:1|0:0,0:0:0:0:
481,172,63839,2,0,P|407:132|364:93,1,103.999995239258,10|0,0:1|0:0,0:0:0:0:
347,92,64289,1,0,0:0:0:0:
298,105,64439,2,0,P|261:140|206:175,1,103.999995239258,10|0,0:1|0:0,0:0:0:0:
163,259,65039,6,0,P|109:192|52:176,1,103.999995239258,10|0,0:1|0:0,0:0:0:0:
46,203,65489,1,0,0:0:0:0:
1,176,65639,2,0,P|20:112|27:54,1,103.999995239258,10|0,0:1|0:0,0:0:0:0:
114,21,66239,2,0,B|171:31|171:31|216:-12,1,103.999995239258,8|2,0:1|0:1,0:0:0:0:
305,23,66839,2,0,L|409:43,1,103.999995239258,10|2,0:1|0:0,0:0:0:0:
478,118,67439,6,0,P|503:93|520:67,2,51.999997619629,4|0|0,0:0|0:0|0:0,0:0:0:0:
378,147,68039,2,0,P|348:142|311:113,2,51.999997619629,10|0|0,0:1|0:0|0:0,0:0:0:0:
452,219,68639,2,0,P|483:229|529:215,2,51.999997619629,8|2|0,0:1|0:1|0:0,0:0:0:0:
353,250,69239,2,0,P|310:261|257:299,1,103.999995239258,10|0,0:1|0:0,0:0:0:0:
162,326,69839,6,0,B|112:277|112:277|149:184|149:184|207:179,1,207.999990478516,10|10,0:1|0:1,0:0:0:0:
240,91,70739,1,0,0:0:0:0:
148,41,71039,2,0,P|106:90|81:132,1,103.999995239258,10|0,0:1|0:0,0:0:0:0:
173,178,71639,2,0,P|212:240|269:264,1,103.999995239258,10|0,0:1|0:0,0:0:0:0:
313,184,72239,6,0,P|388:180|449:159,1,103.999995239258,10|0,0:1|0:0,0:0:0:0:
447,214,72689,1,0,0:0:0:0:
498,224,72839,2,0,P|472:275|452:322,1,103.999995239258,10|0,0:1|0:0,0:0:0:0:
370,384,73439,2,0,P|348:329|327:258,1,103.999995239258,10|0,0:1|0:0,0:0:0:0:
286,267,73889,1,0,0:0:0:0:
251,306,74039,2,0,P|194:320|118:334,1,103.999995239258,10|0,0:1|0:0,0:0:0:0:
61,272,74639,6,0,P|49:220|35:132,1,103.999995239258,8|8,0:0|0:0,0:0:0:0:
109,88,75239,1,4,0:0:0:0:
160,97,75389,2,0,P|171:151|182:224,1,103.999995239258,8|0,0:0|0:0,0:0:0:0:
174,251,75839,2,0,P|155:274|134:314,2,51.999997619629,8|8|8,0:0|0:0|0:0,0:0:0:0:
247,324,76439,2,0,L|342:330,2,51.999997619629,10|8|8,0:0|0:0|0:0,0:0:0:0:
171,382,77039,5,14,0:1:0:0:
76,363,77339,2,0,L|56:279,1,47.9999985351563,0|8,0:2|0:1,0:0:0:0:
67,268,77639,2,0,P|108:222|139:169,1,95.9999970703126,8|0,0:1|0:0,0:0:0:0:
147,99,78239,1,10,0:0:0:0:
238,127,78539,2,0,L|308:112,1,47.9999985351563,0|8,0:0|0:1,0:0:0:0:
312,77,78839,2,0,P|352:97|422:103,1,95.9999970703126,8|0,0:1|0:0,0:0:0:0:
462,180,79439,5,10,0:1:0:0:
429,270,79739,2,0,L|375:291,1,47.9999985351563,0|8,0:0|0:1,0:0:0:0:
343,313,80039,2,0,P|258:285|212:286,1,95.9999970703126,8|0,0:1|0:0,0:0:0:0:
178,345,80639,1,10,0:0:0:0:
95,296,80939,2,0,L|76:217,1,47.9999985351563,0|8,0:0|0:1,0:0:0:0:
109,208,81239,2,0,P|132:159|142:102,1,95.9999970703126,10|0,0:1|0:0,0:0:0:0:
163,24,81839,5,12,0:1:0:0:
222,98,82139,2,0,P|236:119|248:155,1,47.9999985351563,0|8,0:0|0:1,0:0:0:0:
242,188,82439,2,0,P|301:239|337:261,1,95.9999970703126,10|0,0:1|0:0,0:0:0:0:
410,230,83039,1,10,0:0:0:0:
373,318,83339,2,0,L|339:362,1,47.9999985351563,0|8,0:0|0:1,0:0:0:0:
296,348,83639,2,0,P|228:326|187:324,1,95.9999970703126,10|0,0:1|0:0,0:0:0:0:
108,333,84239,5,10,0:1:0:0:
43,261,84539,2,0,L|104:219,1,47.9999985351563,0|8,0:0|0:1,0:0:0:0:
130,221,84839,2,0,P|193:194|205:166,1,95.9999970703126,10|0,0:1|0:0,0:0:0:0:
262,96,85439,1,10,0:0:0:0:
345,143,85739,2,0,P|393:202|413:247,2,95.9999970703126,0|10|10,0:0|0:1|0:1,0:0:0:0:
272,79,86639,5,14,0:1:0:0:
354,30,86939,2,0,L|422:14,1,47.9999985351563,0|8,0:0|0:1,0:0:0:0:
447,30,87239,2,0,P|476:79|521:138,1,95.9999970703126,10|0,0:1|0:0,0:0:0:0:
496,206,87839,1,10,0:0:0:0:
443,286,88139,2,0,L|389:272,1,47.9999985351563,0|8,0:0|0:1,0:0:0:0:
354,296,88439,2,0,P|329:258|289:219,1,95.9999970703126,10|0,0:1|0:0,0:0:0:0:
198,236,89039,5,10,0:1:0:0:
103,251,89339,2,0,L|73:294,1,47.9999985351563,0|8,0:0|0:1,0:0:0:0:
55,334,89639,2,0,P|13:278|-24:240,1,95.9999970703126,10|0,0:1|0:0,0:0:0:0:
37,172,90239,1,10,0:0:0:0:
84,88,90539,2,0,L|143:65,1,47.9999985351563,0|8,0:0|0:1,0:0:0:0:
167,35,90839,2,0,P|205:68|286:92,1,95.9999970703126,10|0,0:1|0:0,0:0:0:0:
338,58,91439,5,14,0:1:0:0:
429,27,91739,2,0,L|469:82,1,47.9999985351563,0|8,0:0|0:1,0:0:0:0:
437,110,92039,2,0,P|406:150|391:211,1,95.9999970703126,10|0,0:1|0:0,0:0:0:0:
364,284,92639,1,10,0:0:0:0:
275,321,92939,2,0,L|200:290,1,47.9999985351563,0|8,0:0|0:1,0:0:0:0:
182,300,93239,2,0,P|157:235|153:200,1,95.9999970703126,10|0,0:1|0:0,0:0:0:0:
87,139,93839,5,2,1:2:0:0:
15,203,94139,2,0,L|86:255,1,47.9999985351563,0|8,0:0|0:3,0:0:0:0:
42,277,94439,2,0,P|61:323|71:382,1,95.9999970703126,10|0,0:1|0:0,0:0:0:0:
152,318,95039,1,2,0:1:0:0:
233,266,95339,2,0,P|291:259|347:250,2,95.9999970703126,10|8|8,0:0|0:3|0:3,0:0:0:0:
199,175,96239,5,4,0:0:0:0:
256,192,96539,12,0,100439,3:0:0:0:
139,359,101039,5,6,0:0:0:0:
47,324,101339,2,0,P|87:267|157:258,1,143.999995605469
223,189,102089,2,0,B|270:238|270:238|371:226,1,143.999995605469,2|6,0:1|0:0,0:0:0:0:
441,217,102839,2,0,L|470:118,1,95.9999970703126,8|0,0:0|0:0,0:0:0:0:
407,50,103439,6,0,B|369:79|369:79|314:57,1,95.9999970703126,6|0,0:0|0:0,0:0:0:0:
277,48,103889,2,0,B|234:31|234:31|187:78,1,95.9999970703126,6|0,0:0|0:0,0:0:0:0:
162,98,104339,1,10,0:1:0:0:
66,88,104639,2,0,L|78:208,1,95.9999970703126,0|4,0:0|0:0,0:0:0:0:
50,276,105239,2,0,B|84:288|84:288|126:361,1,95.9999970703126,10|8,0:0|0:1,0:0:0:0:
206,367,105839,6,0,P|290:301|319:292,1,95.9999970703126,6|0,0:0|0:0,0:0:0:0:
283,258,106289,2,0,P|347:267|394:292,1,95.9999970703126,6|0,0:0|0:0,0:0:0:0:
399,238,106739,2,0,B|439:279|439:279|504:289,2,95.9999970703126,10|0|6,0:1|0:0|0:0,0:0:0:0:
328,173,107639,2,0,B|339:106|339:106|373:65,1,95.9999970703126,10|10,0:0|0:1,0:0:0:0:
426,150,108239,6,0,P|486:159|512:91,2,143.999995605469,6|6|10,0:0|0:0|0:1,0:0:0:0:
374,231,109439,1,0,0:0:0:0:
291,181,109739,2,0,L|275:82,2,95.9999970703126,6|8|0,0:0|0:0|0:0,0:0:0:0:
315,273,110639,5,6,0:0:0:0:
247,341,110939,1,10,0:1:0:0:
206,366,111089,2,0,P|157:352|100:345,1,95.9999970703126,6|0,0:0|0:0,0:0:0:0:
64,262,111689,2,0,P|2:233|31:149,1,143.999995605469,10|6,0:1|0:0,0:0:0:0:
86,111,112439,2,0,B|130:132|130:132|190:92,1,95.9999970703126,8|10,0:0|0:1,0:0:0:0:
253,54,113039,6,0,P|336:74|338:84,1,95.9999970703126,6|10,0:0|0:1,0:0:0:0:
378,50,113489,2,0,P|395:120|370:142,1,95.9999970703126,6|0,0:0|0:0,0:0:0:0:
343,157,113939,1,10,0:1:0:0:
419,214,114239,2,0,L|407:335,1,95.9999970703126,0|6,0:0|0:0,0:0:0:0:
331,364,114839,2,0,L|260:373,2,47.9999985351563,10|0|8,0:0|0:0|0:1,0:0:0:0:
288,277,115439,6,0,B|181:287|181:287|119:337,1,143.999995605469,6|6,0:0|0:0,0:0:0:0:
56,316,116189,1,0,0:0:0:0:
47,268,116339,2,0,B|41:215|41:215|-6:187,2,95.9999970703126,10|0|6,0:1|0:0|0:0,0:0:0:0:
133,225,117239,2,0,B|131:188|131:188|166:117,1,95.9999970703126,8|0,0:0|0:0,0:0:0:0:
113,49,117839,6,0,P|65:29|18:123,2,143.999995605469,6|6|6,0:0|0:0|0:0,0:0:0:0:
203,16,119039,2,0,B|262:15|262:15|281:34|281:34|380:35,1,143.999995605469
361,77,119639,2,0,P|405:33|475:14,1,95.9999970703126,10|10,0:0|0:1,0:0:0:0:
497,92,120239,5,12,0:1:0:0:
424,154,120539,1,0,0:0:0:0:
407,199,120689,2,0,B|388:245|388:245|447:276|428:355,1,143.999995605469,0|10,0:2|0:1,0:0:0:0:
358,382,121439,1,10,0:1:0:0:
279,326,121739,2,0,L|296:243,2,47.9999985351563,0|2|14,0:0|0:0|0:3,0:0:0:0:
181,321,122339,2,0,L|167:249,1,47.9999985351563,8|0,0:1|0:0,0:0:0:0:
131,247,122639,6,0,P|65:257|46:312,1,95.9999970703126,8|8,0:1|0:1,0:0:0:0:
24,236,123089,2,0,L|-2:115,1,95.9999970703126,10|0,0:0|0:0,0:0:0:0:
41,111,123539,2,0,B|104:71|104:71|114:18,1,95.9999970703126,8|0,0:1|0:0,0:0:0:0:
180,116,124139,1,10,0:1:0:0:
230,34,124439,2,0,P|298:54|337:60,1,95.9999970703126,14|8,0:3|0:1,0:0:0:0:
407,13,125039,6,0,P|438:87|495:160,1,143.999995605469,14|2,0:0|0:0,0:0:0:0:
481,242,125789,1,0,0:0:0:0:
400,294,126089,2,0,B|356:290|356:290|327:321|327:321|256:314,1,143.999995605469,2|10,0:0|0:1,0:0:0:0:
185,361,126839,2,0,B|174:300|113:291,1,95.9999970703126,14|8,0:3|0:1,0:0:0:0:
34,324,127439,6,0,P|52:211|53:194,1,95.9999970703126,10|8,0:0|0:0,0:0:0:0:
40,182,127889,2,0,P|110:192|153:191,1,95.9999970703126,2|2,0:0|0:0,0:0:0:0:
131,144,128339,2,0,P|177:184|271:224,2,143.999995605469,8|2|14,0:0|0:0|0:3,0:0:0:0:
116,48,129539,1,10,0:0:0:0:
202,22,129839,6,0,P|279:48|370:120,1,191.999994140625,4|8,2:1|1:3,0:0:0:0:
322,200,130739,1,10,0:0:0:0:
403,251,131039,1,0,0:0:0:0:
440,221,131189,6,0,B|437:275|437:275|457:308|457:308|456:360,1,143.999995605469,10|14,1:3|0:0,0:0:0:0:
360,368,131939,2,0,L|307:327,1,47.9999985351563,8|10,0:0|1:0,0:0:0:0:
275,349,132239,6,0,P|213:296|171:311,1,95.9999970703126,10|8,0:1|0:0,0:0:0:0:
158,304,132689,2,0,P|90:292|95:236,1,95.9999970703126,2|0,1:3|0:0,0:0:0:0:
45,246,133139,1,10,0:0:0:0:
64,152,133439,1,8,0:0:0:0:
158,135,133739,2,0,B|162:90|204:80|204:80|216:53,2,95.9999970703126,8|14|8,0:0|0:0|0:0,0:0:0:0:
256,192,134639,12,10,136439,0:0:0:0:
397,288,137039,5,12,0:0:0:0:
318,233,137339,2,0,P|267:241|194:248,1,95.9999970703126,4|4,0:0|0:0,0:0:0:0:
202,289,137789,1,4,0:0:0:0:
172,327,137939,2,0,P|127:342|65:373,2,95.9999970703126,4|8|8,0:0|0:0|0:0,0:0:0:0:
250,382,138839,1,0,0:0:0:0:
345,373,139139,1,0,0:0:0:0:
396,291,139439,6,0,B|454:262|454:262|495:166,1,143.999995605469,4|0,1:1|1:0,3:0:0:0:
511,148,140039,1,8,0:2:0:0:
422,110,140339,1,8,0:1:0:0:
376,125,140489,2,0,B|343:87|343:87|341:16,2,95.9999970703126,10|0|0,1:1|0:0|0:0,0:0:0:0:
347,164,141239,6,0,P|273:191|188:190,1,143.999995605469,8|2,0:0|0:1,0:0:0:0:
160,197,141839,2,0,B|151:147|151:147|186:86,1,95.9999970703126,8|2,1:1|0:1,0:0:0:0:
128,90,142289,1,8,1:1:0:0:
81,76,142439,2,0,B|67:132|67:132|25:171,1,95.9999970703126,8|8,0:0|1:0,0:0:0:0:
57,252,143039,2,0,B|61:306|61:306|31:362,1,95.9999970703126,10|10,1:1|0:1,0:0:0:0:
135,363,143639,2,0,B|169:312|169:312|236:311,1,95.9999970703126,8|10,0:0|1:1,0:0:0:0:
265,240,144239,6,0,P|355:288|437:305,1,143.999995605469,10|10,1:1|0:1,3:0:0:0:
443,298,144839,1,8,0:0:0:0:
507,227,145139,1,10,1:1:0:0:
459,142,145439,2,0,P|381:111|310:102,1,143.999995605469,10|10,1:1|0:1,0:0:0:0:
273,107,146039,1,8,0:0:0:0:
195,163,146339,1,10,0:1:0:0:
144,244,146639,6,0,B|120:299|120:299|62:319,1,95.9999970703126,10|10,1:1|0:1,0:0:0:0:
52,275,147089,2,0,B|29:216|29:216|-29:191,1,95.9999970703126,8|0,1:1|0:0,0:0:0:0:
17,158,147539,2,0,P|106:133|140:114,1,95.9999970703126,10|0,0:1|0:0,0:0:0:0:
174,61,148139,1,10,1:1:0:0:
261,20,148439,2,0,B|306:32|306:32|340:105,1,95.9999970703126,8|10,0:0|0:1,0:0:0:0:
344,171,149039,6,0,P|264:236|216:299,1,143.999995605469,4|10,1:1|1:1,0:0:0:0:
220,312,149639,1,8,0:0:0:0:
127,336,149939,1,10,0:1:0:0:
92,306,150089,2,0,P|32:292|-7:292,2,95.9999970703126,10|8|0,1:1|0:1|0:0,0:0:0:0:
89,257,150839,6,0,P|91:173|145:139,1,143.999995605469,8|2,0:0|0:1,0:0:0:0:
182,133,151439,2,0,B|190:197|190:197|226:236,1,95.9999970703126,10|8,1:1|0:1,0:0:0:0:
256,236,151889,1,2,1:1:0:0:
303,245,152039,2,0,B|336:229|336:229|374:157,1,95.9999970703126,8|10,0:0|1:1,0:0:0:0:
365,80,152639,2,0,B|291:75|291:75|250:50,1,95.9999970703126,10|10,0:1|1:1,0:0:0:0:
188,17,153239,2,0,B|128:24|128:24|86:72,1,95.9999970703126,8|10,0:0|1:0,0:0:0:0:
27,109,153839,6,0,B|30:156|66:181|66:181|93:204|113:272,1,143.999995605469,10|10,1:0|1:0,0:0:0:0:
99,278,154439,1,8,0:0:0:0:
175,331,154739,1,10,1:1:0:0:
217,244,155039,2,0,B|277:198|277:198|386:211,1,143.999995605469,10|8,1:0|0:1,0:0:0:0:
388,225,155639,1,8,0:0:0:0:
455,293,155939,1,10,0:1:0:0:
487,202,156239,6,0,L|515:137,2,47.9999985351563,10|10|8,1:1|0:0|0:1,0:0:0:0:
421,132,156839,2,0,B|376:117|376:117|355:66,1,95.9999970703126,10|0,0:0|0:0,0:0:0:0:
340,26,157289,2,0,L|209:37,1,95.9999970703126,8|4,0:3|0:3,0:0:0:0:
149,46,157889,1,4,0:3:0:0:
124,87,158039,2,0,P|143:136|216:146,1,95.9999970703126,10|2,0:0|1:1,0:0:0:0:
261,205,158639,6,0,B|230:247|230:247|171:260,1,95.9999970703126,4|0,1:0|0:0,0:0:0:0:
142,238,159089,2,0,B|83:250|83:250|55:294,1,95.9999970703126,10|2,0:1|1:1,0:0:0:0:
75,375,159689,2,0,B|148:351|148:351|165:305,1,95.9999970703126,10|10,0:1|0:1,0:0:0:0:
196,355,160139,1,8,0:1:0:0:
289,331,160439,2,0,B|336:270|336:270|331:224,1,95.9999970703126,6|10,0:0|0:1,0:0:0:0:
265,182,161039,6,0,B|252:114|252:114|274:62,1,95.9999970703126,14|0,0:3|0:0,0:0:0:0:
292,52,161489,2,0,B|332:102|413:88,1,95.9999970703126,10|0,0:1|1:0,0:0:0:0:
458,140,162089,2,0,B|430:180|443:202|443:202|472:236|457:265,1,95.9999970703126,10|10,0:1|0:1,0:0:0:0:
450,273,162539,1,10,0:1:0:0:
382,342,162839,2,0,P|331:313|276:353,1,95.9999970703126,6|10,0:0|0:1,0:0:0:0:
207,353,163439,5,14,0:3:0:0:
128,297,163739,2,0,B|96:241|96:241|122:178,1,95.9999970703126,2|0,0:1|0:0,0:0:0:0:
142,178,164189,1,2,1:0:0:0:
152,82,164489,2,0,P|102:48|44:58,1,95.9999970703126,10|2,0:1|0:1,0:0:0:0:
25,69,164939,1,10,0:1:0:0:
19,165,165239,2,0,B|1:229|1:229|10:268,1,95.9999970703126,6|10,0:0|0:1,0:0:0:0:
76,325,165839,6,0,B|98:304|132:321|132:321|210:318|216:198,1,191.999994140625,14|10,0:3|0:1,0:0:0:0:
299,298,166739,1,0,0:0:0:0:
389,265,167039,2,0,P|415:181|436:62,1,191.999994140625,10|4,0:1|2:3,0:0:0:0:
342,51,167939,1,4,2:3:0:0:
281,125,168239,5,4,0:1:0:0:
185,121,168539,1,0,0:0:0:0:
143,145,168689,2,0,P|98:128|32:97,1,95.9999970703126,10|0,0:1|1:0,0:0:0:0:
34,201,169289,2,0,B|36:252|-6:292,1,95.9999970703126,10|2,0:1|0:1,3:0:0:0:
14,333,169739,1,10,0:1:0:0:
102,371,170039,2,0,P|152:348|212:328,1,95.9999970703126,6|10,0:0|0:1,0:0:0:0:
254,262,170639,5,14,0:3:0:0:
328,323,170939,1,0,0:0:0:0:
367,350,171089,2,0,B|405:313|483:311,1,95.9999970703126,10|0,0:1|1:0,0:0:0:0:
408,228,171689,2,0,P|472:202|494:165,1,95.9999970703126,10|2,0:1|0:1,0:0:0:0:
501,138,172139,1,10,0:1:0:0:
403,132,172439,2,0,P|344:105|341:34,1,95.9999970703126,4|10,0:0|0:1,0:0:0:0:
255,23,173039,5,14,0:3:0:0:
187,91,173339,1,0,0:0:0:0:
164,133,173489,2,0,B|119:162|43:141,1,95.9999970703126,10|2,0:1|1:1,0:0:0:0:
25,232,174089,2,0,B|24:268|46:294|46:294|77:331|63:390,1,143.999995605469,10|10,0:1|1:1,0:0:0:0:
147,313,174839,2,0,P|199:320|232:355,1,95.9999970703126,4|10,0:0|1:1,0:0:0:0:
305,290,175439,5,10,0:0:0:0:
101,101,177839,5,4,1:2:0:0:
3,208,178289,1,2,0:0:0:0:
22,258,178439,2,0,B|56:286|56:286|135:292,1,95.9999970703126,8|0,0:0|1:0,0:0:0:0:
180,353,179039,2,0,B|219:323|219:323|283:319,1,95.9999970703126,10|0,0:1|0:0,0:0:0:0:
300,230,179639,2,0,B|359:247|359:247|399:298,1,95.9999970703126,10|2,0:0|0:1,0:0:0:0:
445,345,180239,6,0,P|473:285|495:174,1,143.999995605469,10|10,0:1|0:1,0:0:0:0:
487,161,180839,1,8,0:0:0:0:
401,116,181139,2,0,L|321:136,2,47.9999985351563,2|8|8,0:1|0:1|0:1,0:0:0:0:
339,42,181739,1,0,0:0:0:0:
248,62,182039,6,0,B|203:63|172:107|172:107|139:151|54:163,2,191.999994140625,10|10|8,0:0|0:1|0:0,0:0:0:0:
314,130,183539,1,2,0:1:0:0:
254,204,183839,2,0,P|244:253|235:308,1,95.9999970703126,10|2,0:1|0:1,0:0:0:0:
147,334,184439,2,0,B|119:311|119:311|38:300,1,95.9999970703126,8|10,0:0|0:1,0:0:0:0:
0,227,185039,5,10,0:1:0:0:
14,132,185339,1,0,0:0:0:0:
89,73,185639,2,0,B|115:96|115:96|194:104,1,95.9999970703126,10|0,0:0|0:1,0:0:0:0:
210,67,186089,2,0,B|242:35|242:35|312:33,1,95.9999970703126,10|10,0:1|0:0,0:0:0:0:
369,91,186689,2,0,L|440:80,1,47.9999985351563,10|10,0:1|0:0,0:0:0:0:
490,148,187139,6,0,B|487:170|487:170|450:190,1,47.9999985351563,10|0,0:1|0:0,0:0:0:0:
418,197,187439,2,0,P|434:275|448:362,1,143.999995605469,10|10,0:1|0:1,0:0:0:0:
407,368,188039,1,8,0:0:0:0:
337,302,188339,1,10,0:1:0:0:
271,231,188639,2,0,B|231:228|214:261|214:261|197:298|120:307,1,143.999995605469,10|8,0:1|0:1,0:0:0:0:
107,315,189239,1,10,0:0:0:0:
16,282,189539,1,10,0:1:0:0:
89,219,189839,6,0,B|89:163|123:148|123:148|159:116|145:67,1,143.999995605469,10|8,0:1|0:1,0:0:0:0:
137,48,190439,2,0,P|203:82|287:102,1,143.999995605469,10|10,0:0|0:1,0:0:0:0:
315,83,191039,2,0,B|377:60|377:60|486:146,1,191.999994140625,8|10,0:1|0:0,0:0:0:0:
434,224,191939,1,10,0:1:0:0:
391,246,192089,1,0,0:0:0:0:
349,269,192239,6,0,P|294:323|209:290,1,143.999995605469,10|8,0:1|0:1,0:0:0:0:
200,278,192839,1,10,0:0:0:0:
106,301,193139,1,10,0:1:0:0:
23,252,193439,1,0,0:0:0:0:
6,157,193739,1,4,0:3:0:0:
69,85,194039,6,0,B|79:146|126:150|126:150|198:88|233:102,1,191.999994140625,10|6,1:0|0:0,0:0:0:0:
256,192,194789,12,10,196439,0:0:0:0:
256,192,197039,12,10,198839,0:0:0:0:
256,192,199439,12,10,201239,0:0:0:0:
256,192,201839,12,8,203639,0:0:0:0:
256,192,204239,12,4,209039,0:0:0:0:
