osu file format v14

[General]
AudioFilename: audio.mp3
AudioLeadIn: 0
PreviewTime: 158560
Countdown: 0
SampleSet: Drum
StackLeniency: 0.7
Mode: 0
LetterboxInBreaks: 0
WidescreenStoryboard: 1

[Editor]
Bookmarks: 9839,19439,38639,47039,48089,55439,57839,62939,77039,79139,86639,96239,101039,120239,128639,129539,129839,137039,149639,158639
DistanceSpacing: 1.8
BeatDivisor: 4
GridSize: 32
TimelineZoom: 1.8

[Metadata]
Title:Harmony of One's Heart
TitleUnicode:Harmony of One's Heart
Artist:Diva (VO: Yagi Kairi)
ArtistUnicode:ディーヴァ (VO: 八木海莉)
Creator:Konge
Version:Ayumi's Insane
Source:Vivy -Fluorite Eye's Song-
Tags:ヴィヴィ -フローライトアイズソング- MONACA 神前暁 23konG DayDreamkwy Yurino Ayumi Japanese pop jpop j-pop anime ones
BeatmapID:3553230
BeatmapSetID:1477434

[Difficulty]
HPDrainRate:5.2
CircleSize:4
OverallDifficulty:7.5
ApproachRate:8.5
SliderMultiplier:1.6
SliderTickRate:1

[Events]
//Background and Video events
0,0,"BG.jpg",0,0
//Break Periods
//Storyboard Layer 0 (Background)
//Storyboard Layer 1 (Fail)
//Storyboard Layer 2 (Pass)
//Storyboard Layer 3 (Foreground)
//Storyboard Layer 4 (Overlay)
//Storyboard Sound Samples

[TimingPoints]
239,600,4,3,0,40,1,0
239,-100,4,3,0,40,0,0
689,-200,4,3,0,40,0,0
2639,-100,4,3,0,40,0,0
3089,-200,4,3,0,40,0,0
5039,-100,4,3,0,40,0,0
5489,-200,4,3,0,40,0,0
7439,-100,4,3,0,40,0,0
7889,-200,4,3,0,40,0,0
9239,-100,4,3,0,35,0,0
9389,-100,4,3,0,45,0,0
9539,-100,4,3,0,55,0,0
9689,-100,4,3,0,65,0,0
9839,-66.6666666666667,4,2,2,55,0,0
19439,-66.6666666666667,4,2,98,75,0,0
19589,-66.6666666666667,4,2,2,55,0,0
21164,-66.6666666666667,4,3,3,55,0,0
21314,-66.6666666666667,4,2,2,55,0,0
23564,-66.6666666666667,4,3,3,55,0,0
23714,-66.6666666666667,4,2,2,55,0,0
25964,-66.6666666666667,4,3,3,55,0,0
26114,-66.6666666666667,4,2,2,55,0,0
28364,-66.6666666666667,4,3,3,55,0,0
28439,-83.3333333333333,4,3,3,55,0,0
28514,-83.3333333333333,4,2,2,55,0,0
29039,-66.6666666666667,4,2,2,55,0,0
30764,-66.6666666666667,4,3,3,55,0,0
30914,-66.6666666666667,4,2,2,55,0,0
33164,-66.6666666666667,4,3,3,55,0,0
33314,-66.6666666666667,4,2,2,55,0,0
35564,-66.6666666666667,4,3,3,55,0,0
35714,-66.6666666666667,4,2,2,55,0,0
37964,-66.6666666666667,4,3,3,55,0,0
38114,-66.6666666666667,4,2,2,55,0,0
38639,-66.6666666666667,4,2,2,45,0,0
39839,-62.5,4,2,2,45,0,0
41039,-58.8235294117647,4,2,2,45,0,0
43889,-83.3333333333333,4,2,2,45,0,0
46739,-58.8235294117647,4,2,2,45,0,0
48239,-66.6666666666667,4,2,2,55,0,0
48389,-66.6666666666667,4,3,3,55,0,0
49139,-62.5,4,3,3,55,0,0
50639,-58.8235294117647,4,3,3,55,0,0
52139,-55.5555555555556,4,3,3,55,0,0
52439,-58.8235294117647,4,3,3,55,0,0
52739,-62.5,4,3,3,55,0,0
53039,-62.5,4,3,3,40,0,0
53639,-62.5,4,3,3,50,0,0
54239,-62.5,4,3,3,60,0,0
54839,-62.5,4,3,3,70,0,0
55439,-62.5,4,3,0,75,0,0
56639,-62.5,4,3,0,45,0,0
56939,-166.666666666667,4,3,0,50,0,0
57839,-55.5555555555555,4,2,0,75,0,1
57914,-55.5555555555555,4,2,3,75,0,1
61439,-50,4,2,3,75,0,1
62039,-58.8235294117647,4,2,3,75,0,1
62639,-55.5555555555556,4,2,3,75,0,1
66239,-50,4,2,3,75,0,1
66539,-55.5555555555556,4,2,3,55,0,1
66839,-62.5,4,2,3,55,0,1
67139,-71.4285714285714,4,2,3,55,0,1
67439,-55.5555555555556,4,1,0,75,0,1
67514,-55.5555555555556,4,2,3,75,0,1
71039,-50,4,2,3,75,0,1
71639,-58.8235294117647,4,2,3,75,0,1
72239,-55.5555555555556,4,2,3,75,0,1
74639,-55.5555555555556,4,3,0,75,0,1
75839,-55.5555555555556,4,3,3,55,0,0
76439,-55.5555555555556,4,3,3,55,0,0
76589,-55.5555555555556,4,3,3,55,0,0
77039,-55.5555555555556,4,2,3,65,0,1
77489,-55.5555555555556,4,2,3,45,0,1
77639,-55.5555555555556,4,2,3,65,0,1
78164,-55.5555555555556,4,2,2,65,0,1
78314,-55.5555555555556,4,2,3,65,0,1
80564,-55.5555555555556,4,2,2,65,0,1
80714,-55.5555555555556,4,2,3,65,0,1
81239,-50,4,2,3,65,0,1
81839,-55.5555555555556,4,2,3,65,0,1
82964,-55.5555555555556,4,2,2,65,0,1
83114,-55.5555555555556,4,2,3,65,0,1
85364,-55.5555555555556,4,2,2,65,0,1
85514,-55.5555555555556,4,2,3,65,0,1
85739,-50,4,2,3,65,0,1
86639,-55.5555555555556,4,2,3,65,0,1
87764,-55.5555555555556,4,2,2,65,0,1
87914,-55.5555555555556,4,2,3,65,0,1
90164,-55.5555555555556,4,2,2,65,0,1
90314,-55.5555555555556,4,2,3,65,0,1
90839,-50,4,2,3,65,0,1
91439,-55.5555555555556,4,2,3,65,0,1
92564,-55.5555555555556,4,2,2,65,0,1
92714,-55.5555555555556,4,2,3,65,0,1
94439,-50,4,2,3,65,0,1
95339,-50,4,2,2,65,0,1
95489,-50,4,2,3,65,0,1
96239,-138.888888888889,4,2,99,100,0,0
99239,-138.888888888889,4,3,0,45,0,0
100139,-138.888888888889,4,3,0,5,0,0
100439,-142.857142857143,4,3,0,55,0,0
101039,-66.6666666666667,4,2,2,55,0,0
110039,-62.5,4,2,2,55,0,0
110639,-66.6666666666667,4,2,2,55,0,0
120239,-66.6666666666667,4,1,3,65,0,0
121439,-66.6666666666667,4,1,3,60,0,0
127889,-76.9230769230769,4,1,3,60,0,0
128339,-100,4,1,3,60,0,0
128789,-133.333333333333,4,1,3,60,0,0
129839,-62.5,4,3,0,65,0,0
129914,-62.5,4,3,3,65,0,0
131039,-58.8235294117647,4,3,3,65,0,0
132239,-55.5555555555556,4,3,3,65,0,0
133739,-58.8235294117647,4,3,3,65,0,0
134039,-55.5555555555556,4,3,3,65,0,0
134339,-58.8235294117647,4,3,3,65,0,0
134639,-55.5555555555556,4,3,3,60,0,0
135239,-55.5555555555556,4,3,3,62,0,0
135839,-55.5555555555556,4,3,3,65,0,0
136439,-55.5555555555556,4,3,3,68,0,0
137039,-55.5555555555556,4,3,0,80,0,0
138239,-55.5555555555556,4,3,3,55,0,0
138539,-166.666666666667,4,3,3,55,0,0
139439,-55.5555555555556,4,2,0,75,0,1
139514,-55.5555555555556,4,2,3,75,0,1
144239,-55.5555555555556,4,2,3,75,0,1
149039,-55.5555555555556,4,2,0,75,0,1
149114,-55.5555555555556,4,2,3,75,0,1
156389,-50,4,2,3,75,0,1
157214,-50,4,2,0,75,0,1
157964,-50,4,2,3,75,0,1
158039,-50,4,2,3,75,0,0
158489,-50,4,2,3,70,0,0
158639,-43.4782608695652,4,1,0,70,0,1
158714,-43.4782608695652,4,2,3,70,0,1
159089,-50,4,2,3,70,0,1
160439,-50,4,2,1,70,0,1
160739,-50,4,2,3,70,0,1
161039,-47.6190476190476,4,2,3,70,0,1
162839,-47.6190476190476,4,2,1,70,0,1
163139,-47.6190476190476,4,2,3,70,0,1
165239,-47.6190476190476,4,2,1,70,0,1
165539,-47.6190476190476,4,2,3,70,0,1
166739,-43.4782608695652,4,2,3,70,0,1
167039,-45.4545454545455,4,2,3,70,0,1
167564,-45.4545454545455,4,3,0,70,0,1
167639,-50,4,3,0,70,0,1
167714,-50,4,2,3,70,0,1
167864,-50,4,3,0,70,0,1
167939,-66.6666666666667,4,3,0,70,0,1
168239,-43.4782608695652,4,1,0,80,0,1
168539,-50,4,2,3,70,0,1
170039,-50,4,2,1,70,0,1
170339,-50,4,2,3,70,0,1
172439,-50,4,2,1,70,0,1
172514,-50,4,2,3,70,0,1
174764,-50,4,2,1,70,0,1
174914,-50,4,2,3,70,0,1
175439,-50,4,2,3,30,0,0
176639,-50,4,2,3,40,0,0
176939,-50,4,3,0,80,0,0
177839,-47.6190476190476,4,2,0,70,0,0
177989,-47.6190476190476,4,2,3,70,0,0
182039,-43.4782608695652,4,2,3,70,0,0
189839,-47.6190476190476,4,2,3,80,0,0
191939,-47.6190476190476,4,2,3,70,0,0
192239,-47.6190476190476,4,2,3,60,0,0
193289,-47.6190476190476,4,2,2,55,0,0
194639,-133.333333333333,4,2,2,50,0,0
197039,-125,4,2,2,65,0,0
199439,-117.647058823529,4,2,2,75,0,0
201839,-100,4,2,2,65,0,0
202964,-66.3115185634923,4,2,2,65,0,0
204239,-106.382978723404,4,2,3,60,0,0
204839,-106.382978723404,4,2,2,55,0,0
205439,-106.382978723404,4,2,2,50,0,0
206039,-106.382978723404,4,2,2,45,0,0
206639,-106.382978723404,4,2,2,40,0,0
207239,-106.382978723404,4,2,2,35,0,0
207839,-106.382978723404,4,2,2,30,0,0
208439,-106.382978723404,4,2,2,25,0,0
209039,-106.382978723404,4,2,98,20,0,0

[Colours]
Combo1 : 236,192,19
Combo2 : 53,149,149
Combo3 : 53,86,219
Combo4 : 247,102,123

[HitObjects]
69,144,239,6,0,L|159:121,1,80
235,84,689,2,0,L|253:183,1,100
167,209,1739,1,0,0:0:0:0:
167,209,2039,1,0,0:0:0:0:
348,309,2639,6,0,P|303:323|274:354,1,80
231,280,3089,2,0,P|202:314|196:373,1,100
127,286,4139,1,0,0:0:0:0:
108,365,4439,1,0,0:0:0:0:
307,232,5039,6,0,L|291:142,1,80
231,280,5489,2,0,L|213:177,1,100
229,94,6539,1,0,0:0:0:0:
229,94,6839,1,0,0:0:0:0:
510,155,7439,6,0,P|520:192|489:230,1,80
417,219,7889,2,0,P|388:181|414:142,1,100
468,80,8939,1,0,0:0:0:0:
429,9,9239,2,0,L|376:17,1,40,12|4,0:0|0:0,0:0:0:0:
310,26,9539,2,0,L|257:34,1,40,4|4,0:0|0:0,0:0:0:0:
133,79,9839,6,0,B|114:120|114:120|146:264,1,180.000006866455,6|4,0:0|0:0,0:0:0:0:
259,279,10439,2,0,P|208:303|184:368,1,120.000004577637,10|0,0:0|0:0,0:0:0:0:
269,363,10889,1,2,0:0:0:0:
269,363,11039,2,0,L|328:358,1,60.0000022888184
485,316,11339,2,0,L|425:311,1,60.0000022888184,6|0,0:0|0:0,0:0:0:0:
332,151,11639,2,0,P|349:225|340:282,1,120.000004577637,8|0,0:0|0:0,0:0:0:0:
258,192,12089,1,2,0:0:0:0:
440,69,12239,6,0,L|259:59,1,180.000006866455,4|4,0:0|0:0,0:0:0:0:
152,4,12839,2,0,P|132:51|141:123,1,120.000004577637,8|0,0:0|0:0,0:0:0:0:
218,123,13289,1,2,0:0:0:0:
150,194,13439,1,0,0:0:0:0:
150,205,13739,1,6,0:0:0:0:
150,216,14039,6,0,P|75:232|37:150,1,180.000006866455,8|2,0:0|0:0,0:0:0:0:
58,241,14639,6,0,P|96:323|178:287,1,180.000006866455,4|10,0:0|0:1,0:0:0:0:
261,228,15239,2,0,B|291:281|291:281|268:356,1,120.000004577637,8|0,0:0|0:0,0:0:0:0:
396,323,15689,1,10,0:1:0:0:
396,323,15839,2,0,L|373:394,1,60.0000022888184
466,253,16139,2,0,L|484:310,1,60.0000022888184,6|0,0:0|0:0,0:0:0:0:
418,163,16439,2,0,P|376:169|379:239,1,120.000004577637,8|0,0:0|0:0,0:0:0:0:
504,177,16889,1,2,0:0:0:0:
507,51,17039,6,0,B|469:85|469:85|331:53,1,180.000006866455,4|4,0:0|0:0,0:0:0:0:
223,48,17639,2,0,B|266:91|266:91|248:148,1,120.000004577637,8|2,0:0|0:0,0:0:0:0:
143,28,18089,1,8,0:1:0:0:
173,116,18239,1,0,0:0:0:0:
162,120,18539,1,6,0:0:0:0:
150,124,18839,2,0,B|89:131|97:187|97:187|155:263,1,180.000006866455,8|10,0:0|0:0,0:0:0:0:
200,325,19439,5,4,0:0:0:0:
333,272,19739,1,0,0:0:0:0:
333,272,19889,2,0,P|276:267|257:270,1,60.0000022888184,2|0,0:0|0:0,0:0:0:0:
293,363,20189,2,0,P|350:368|369:365,1,60.0000022888184
463,360,20489,2,0,L|442:235,1,120.000004577637,10|0,0:1|0:0,0:0:0:0:
402,144,20939,2,0,P|371:181|365:214,1,60.0000022888184,2|8,0:0|0:1,0:0:0:0:
512,184,21239,2,0,P|499:157|477:136,1,60.0000022888184,14|0,0:0|0:0,0:0:0:0:
361,76,21539,2,0,L|440:61,1,60.0000022888184,2|8,0:0|0:1,0:0:0:0:
306,127,21839,6,0,L|247:115,1,60.0000022888184,6|0,0:0|0:0,0:0:0:0:
167,49,22139,1,0,0:0:0:0:
172,264,22289,2,0,L|149:145,1,120.000004577637,6|0,0:0|0:0,0:0:0:0:
66,109,22739,1,2,0:0:0:0:
56,118,23039,6,0,L|68:182,1,60.0000022888184,0|2,0:0|0:0,0:0:0:0:
81,253,23339,2,0,L|93:317,1,60.0000022888184,6|0,0:0|0:0,0:0:0:0:
139,381,23639,1,14,0:0:0:0:
213,341,23789,1,2,0:0:0:0:
283,374,23939,2,0,L|348:364,1,60.0000022888184,8|0,0:1|0:0,0:0:0:0:
444,370,24239,6,0,P|470:314|449:250,1,120.000004577637,6|2,0:0|0:0,0:0:0:0:
366,158,24689,2,0,P|340:214|361:278,1,120.000004577637,6|0,0:0|0:0,0:0:0:0:
466,160,25139,2,0,L|475:94,2,60.0000022888184,2|0|0,0:0|0:0|0:0,0:0:0:0:
432,24,25589,1,2,0:0:0:0:
349,66,25739,1,4,0:0:0:0:
349,66,26039,2,0,L|203:81,1,120.000004577637,14|2,0:0|0:0,2:0:0:0:
137,115,26639,6,0,L|181:154,1,60.0000022888184,4|0,0:0|0:0,0:0:0:0:
97,28,26939,1,0,0:0:0:0:
97,28,27089,2,0,B|34:83|34:83|60:180,1,180.000006866455,6|2,0:0|0:0,0:0:0:0:
134,220,27839,1,0,0:0:0:0:
134,220,28139,2,0,P|113:250|69:257,1,60.0000022888184,6|8,0:0|0:1,0:0:0:0:
31,349,28439,2,0,L|186:334,1,143.999995605469,14|8,0:0|3:1,3:0:0:0:
235,250,29039,5,6,0:0:0:0:
281,343,29339,1,0,0:0:0:0:
281,343,29489,2,0,L|351:336,1,60.0000022888184,2|0,0:0|0:0,0:0:0:0:
343,245,29789,2,0,L|413:238,1,60.0000022888184,0|2,0:0|0:0,0:0:0:0:
499,305,30089,2,0,L|488:178,1,120.000004577637,2|2,0:0|0:0,0:0:0:0:
374,122,30539,2,0,P|409:106|444:102,1,60.0000022888184,0|8,0:0|0:1,0:0:0:0:
495,33,30839,2,0,P|460:17|425:13,1,60.0000022888184,14|0,0:0|0:0,0:0:0:0:
333,30,31139,2,0,P|310:49|293:74,1,60.0000022888184,0|2,0:0|0:0,0:0:0:0:
249,232,31439,6,0,L|241:158,1,60.0000022888184,4|0,0:0|0:0,0:0:0:0:
87,98,31739,1,0,0:0:0:0:
87,98,31889,2,0,B|133:91|133:91|160:101|160:101|210:94,1,120.000004577637,6|0,0:0|0:0,0:0:0:0:
79,194,32339,2,0,L|153:183,1,60.0000022888184,2|0,0:0|0:0,0:0:0:0:
13,253,32639,5,0,0:0:0:0:
4,266,32939,2,0,L|23:328,1,60.0000022888184,4|8,0:0|0:1,0:0:0:0:
159,337,33239,1,14,0:0:0:0:
85,363,33389,1,0,0:0:0:0:
99,286,33539,2,0,P|122:268|174:265,1,60.0000022888184,2|0,0:0|0:0,0:0:0:0:
341,323,33839,6,0,B|323:348|323:348|216:363,1,120.000004577637,4|0,0:0|0:0,0:0:0:0:
249,232,34289,2,0,B|267:207|267:207|374:192,1,120.000004577637,6|0,0:0|0:0,0:0:0:0:
473,321,34739,2,0,B|485:296|485:296|471:266,2,60.0000022888184,2|0|0,0:0|0:0|0:0,0:0:0:0:
392,261,35189,1,2,0:0:0:0:
443,182,35339,1,4,0:0:0:0:
443,182,35639,2,0,L|420:46,1,120.000004577637,14|2,0:0|0:0,0:0:0:0:
269,35,36239,6,0,P|302:36|355:49,1,60.0000022888184,4|0,0:0|0:0,0:0:0:0:
230,124,36539,1,0,0:0:0:0:
230,124,36689,2,0,B|134:110|153:193|41:180|-3:124|40:71|72:60|106:64,1,300.000011444092,6|0,0:0|3:0,0:0:0:0:
131,169,37739,1,4,0:0:0:0:
93,260,38039,2,0,L|84:288,6,30.0000011444092,14|0|0|0|0|0|2,0:3|0:0|0:0|0:0|3:0|0:0|0:0,0:0:0:0:
109,285,38639,6,0,L|178:276,1,60.0000022888184,10|0,0:1|0:0,0:0:0:0:
246,268,38939,1,0,0:0:0:0:
174,358,39089,2,0,B|222:351|222:351|249:361|249:361|295:355,1,120.000004577637,10|0,0:2|0:0,0:0:0:0:
363,260,39539,2,0,P|375:302|359:329,1,60.0000022888184,10|0,0:2|0:0,0:0:0:0:
432,178,39839,6,0,P|463:208|463:241,1,64,10|0,0:1|0:0,0:0:0:0:
341,173,40139,1,8,0:0:0:0:
341,173,40289,2,8,P|356:113|431:88,1,128,0|0,0:0|0:0,0:0:0:0:
490,118,40739,1,2,0:0:0:0:
490,118,40889,1,0,0:0:0:0:
490,118,41039,6,0,L|482:32,1,68.0000012969971,10|0,0:1|0:0,0:0:0:0:
345,44,41339,1,0,0:0:0:0:
345,44,41489,2,0,L|259:52,2,68.0000012969971,2|0|8,0:1|0:0|0:0,0:0:0:0:
321,129,41939,2,0,L|185:142,1,136.000002593994,10|0,0:1|0:0,0:0:0:0:
173,51,42389,2,0,P|118:77|94:150,1,136.000002593994,10|8,0:1|0:1,0:0:0:0:
147,211,42839,5,10,0:0:0:0:
147,211,43139,2,0,L|153:286,1,68.0000012969971,8|0,0:1|0:0,0:0:0:0:
241,290,43439,2,0,P|196:301|124:366,1,136.000002593994,10|8,0:1|0:1,0:0:0:0:
325,290,43889,2,0,P|304:243|257:204,2,95.9999970703126,10|0|10,0:0|0:0|0:0,0:0:0:0:
282,361,44639,5,0,0:0:0:0:
282,361,44939,2,0,L|337:365,1,47.9999985351563,10|2,0:1|0:0,0:0:0:0:
397,318,45239,2,0,L|452:322,1,47.9999985351563,10|0,0:0|0:0,0:0:0:0:
493,255,45539,2,0,L|497:200,1,47.9999985351563,0|2,0:0|0:0,0:0:0:0:
415,139,45839,6,0,L|406:255,1,95.9999970703126,10|8,0:1|0:1,0:0:0:0:
334,72,46289,2,0,L|325:188,1,95.9999970703126,10|8,0:0|0:0,0:0:0:0:
241,15,46739,2,0,L|229:162,1,136.000002593994,10|0,0:1|0:0,0:0:0:0:
267,236,47189,1,10,0:1:0:0:
267,236,47489,1,10,0:1:0:0:
267,236,47639,2,0,P|179:234|99:227,2,136.000002593994,6|4|12,0:0|0:0|0:2,0:0:0:0:
199,278,48539,5,0,0:0:0:0:
199,278,48689,2,0,P|188:326|187:350,1,60.0000022888184,8|10,0:0|0:0,0:0:0:0:
65,293,49139,1,8,0:0:0:0:
65,293,49439,6,0,P|61:263|50:225,1,64,10|8,0:0|0:0,0:0:0:0:
10,164,49739,1,0,0:0:0:0:
10,164,49889,2,0,B|39:141|39:141|141:136,1,128,8|0,0:0|0:0,0:0:0:0:
181,202,50339,1,10,0:0:0:0:
181,202,50489,1,0,0:0:0:0:
181,202,50639,6,0,L|255:196,1,68.0000012969971,10|8,0:0|0:0,0:0:0:0:
209,117,50939,1,0,0:0:0:0:
209,117,51089,2,0,P|264:112|332:176,1,136.000002593994,10|0,0:0|0:0,0:0:0:0:
344,301,51539,2,0,P|318:269|316:227,1,68.0000012969971,2|8,0:0|0:0,0:0:0:0:
390,214,51839,5,10,0:0:0:0:
390,214,51989,1,0,0:0:0:0:
390,214,52139,2,0,L|457:170,1,71.9999978027344,10|0,0:0|0:0,0:0:0:0:
412,100,52439,2,0,L|408:23,1,68.0000012969971,14|0,0:0|0:0,0:0:0:0:
326,41,52739,2,0,L|258:7,1,64,2|0,0:0|0:0,0:0:0:0:
80,76,53039,6,0,L|207:67,1,128,10|8,0:0|0:0,0:0:0:0:
263,131,53489,2,0,P|227:180|222:203,1,64,10|8,0:0|0:0,0:0:0:0:
270,267,53789,1,8,0:0:0:0:
270,267,53939,2,0,P|306:218|311:195,1,64,10|8,0:0|0:0,0:0:0:0:
176,258,54239,6,0,L|105:240,1,64,10|8,0:0|0:0,0:0:0:0:
0,337,54539,2,0,L|62:321,1,64,8|8,0:0|0:0,0:0:0:0:
243,339,54839,2,0,P|194:372|130:343,1,128,14|8,0:0|0:0,0:0:0:0:
176,258,55289,1,8,0:0:0:0:
337,355,55439,6,0,L|408:347,1,64,12|0,0:0|0:0,0:0:0:0:
442,254,55739,1,4,0:0:0:0:
504,369,55889,1,8,0:0:0:0:
507,199,56039,5,4,0:0:0:0:
347,272,56189,1,8,0:0:0:0:
423,109,56339,2,0,L|409:188,1,64,4|4,0:0|0:0,0:0:0:0:
301,38,56639,5,4,0:0:0:0:
504,120,56789,1,4,0:0:0:0:
319,179,56939,2,0,L|329:127,2,47.9999985351563,2|0|2,0:2|0:0|0:2,0:0:0:0:
319,179,57839,5,4,0:0:0:0:
248,165,57989,1,0,0:0:0:0:
203,221,58139,2,0,B|187:253|187:253|201:299,1,71.9999978027344,0|0,0:2|0:1,0:0:0:0:
211,102,58439,5,10,0:1:0:0:
131,97,58589,1,0,0:0:0:0:
91,165,58739,2,0,B|75:197|75:197|89:243,1,71.9999978027344,0|2,0:0|0:1,0:0:0:0:
259,29,59039,5,8,0:1:0:0:
298,105,59189,1,2,0:1:0:0:
383,96,59339,2,0,L|463:83,1,71.9999978027344,0|2,0:0|0:1,0:0:0:0:
248,165,59639,5,10,0:1:0:0:
292,247,59789,1,0,0:0:0:0:
385,237,59939,2,0,L|465:224,1,71.9999978027344
227,384,60239,6,0,L|243:299,1,71.9999978027344,10|0,0:1|0:0,0:0:0:0:
292,247,60539,1,0,0:0:0:0:
326,326,60689,1,0,0:0:0:0:
101,307,60839,6,0,L|117:222,1,71.9999978027344,10|0,0:1|0:0,0:0:0:0:
166,170,61139,1,0,0:0:0:0:
200,249,61289,1,0,0:1:0:0:
18,192,61439,6,0,B|44:160|44:160|86:165,1,80,10|0,0:1|0:0,0:0:0:0:
81,67,61739,2,0,B|121:51|121:51|133:104,1,80,2|0,0:1|0:0,0:0:0:0:
290,153,62039,2,0,B|259:138|259:138|257:184,1,68.0000012969971,10|0,0:1|0:0,0:0:0:0:
240,33,62339,2,0,B|204:35|204:35|212:79,1,68.0000012969971,2|0,0:1|0:0,0:0:0:0:
338,86,62639,6,0,B|379:110|414:82|414:82|452:81|481:108,1,143.999995605469,10|0,0:1|0:0,0:0:0:0:
399,230,63089,1,0,0:0:0:0:
399,230,63239,2,0,P|407:181|436:158,1,71.9999978027344,10|0,0:1|0:0,0:0:0:0:
470,304,63539,2,0,L|386:315,1,71.9999978027344
216,271,63839,6,0,P|151:269|177:338,1,143.999995605469,10|0,0:1|0:0,0:0:0:0:
302,365,64289,1,0,0:0:0:0:
302,365,64439,2,0,P|252:366|224:342,1,71.9999978027344,10|0,0:1|0:0,0:0:0:0:
313,168,64739,2,0,L|301:245,1,71.9999978027344
115,153,65039,6,0,L|209:151,1,71.9999978027344,10|0,0:1|0:0,0:0:0:0:
56,222,65339,1,0,0:0:0:0:
56,222,65489,2,0,P|21:156|66:80,1,143.999995605469
137,0,65939,2,0,P|143:43|126:71,1,71.9999978027344,0|2,0:0|0:1,0:0:0:0:
39,11,66239,1,8,0:1:0:0:
221,50,66539,6,0,L|276:95,1,71.9999978027344,2|0,0:1|0:0,0:0:0:0:
312,168,66839,2,0,L|300:237,1,64,10|0,0:1|0:0,0:0:0:0:
239,280,67139,2,0,L|175:305,1,55.9999982910157,2|0,0:0|0:0,0:0:0:0:
388,206,67439,5,4,0:0:0:0:
324,239,67589,1,0,0:0:0:0:
313,310,67739,2,0,L|341:385,1,71.9999978027344
435,293,68039,5,10,0:1:0:0:
498,246,68189,1,0,0:0:0:0:
509,167,68339,2,0,L|481:92,1,71.9999978027344,0|2,0:0|0:1,0:0:0:0:
261,40,68639,5,8,0:1:0:0:
345,23,68789,1,2,0:1:0:0:
407,83,68939,2,0,L|381:162,1,71.9999978027344,0|2,0:0|0:1,0:0:0:0:
280,152,69239,5,10,0:1:0:0:
188,170,69389,1,0,0:0:0:0:
125,99,69539,2,0,L|151:20,1,71.9999978027344
38,118,69839,6,0,B|15:185|15:185|53:255,1,143.999995605469,10|0,0:1|0:0,0:0:0:0:
105,178,70289,1,0,0:0:0:0:
110,306,70439,2,0,B|170:343|170:343|246:322,1,143.999995605469,10|0,0:1|0:0,0:0:0:0:
183,254,70889,1,2,0:1:0:0:
348,317,71039,6,0,P|314:362|307:401,1,80,10|0,0:1|0:0,0:0:0:0:
446,296,71339,2,0,P|423:263|389:242,1,80
311,231,71639,2,0,P|280:243|310:252,1,68.0000012969971,10|0,0:1|0:0,0:0:0:0:
414,168,71939,2,0,P|424:136|398:153,1,68.0000012969971
188,170,72239,6,0,L|331:146,1,143.999995605469,10|0,0:1|0:0,0:0:0:0:
324,19,72689,1,0,0:0:0:0:
324,19,72839,2,0,P|292:68|291:99,1,71.9999978027344,10|0,0:1|0:0,0:0:0:0:
403,138,73139,2,0,P|403:102|389:69,1,71.9999978027344
211,46,73439,6,0,B|170:65|136:46|136:46|104:30|61:44,1,143.999995605469,10|0,0:1|0:0,0:0:0:0:
115,183,73889,1,0,0:0:0:0:
115,183,74039,2,0,P|98:151|96:115,1,71.9999978027344,10|0,0:1|0:0,0:0:0:0:
208,169,74339,2,0,P|224:200|226:236,1,71.9999978027344
38,283,74639,6,0,L|149:257,1,107.999996704102,8|0,0:0|0:0,0:0:0:0:
189,276,74939,1,8,0:0:0:0:
29,371,75089,2,0,L|114:351,1,71.9999978027344,0|4,0:0|0:0,0:0:0:0:
268,263,75389,1,8,0:0:0:0:
178,384,75539,2,0,L|263:364,1,71.9999978027344
347,212,75839,5,8,0:0:0:0:
357,308,75989,1,8,0:0:0:0:
269,177,76139,2,0,P|292:145|321:132,1,71.9999978027344,8|8,0:0|0:0,0:0:0:0:
494,257,76439,5,10,0:0:0:0:
442,334,76589,1,8,0:0:0:0:
437,177,76739,2,0,L|452:107,1,71.9999978027344,8|8,0:0|0:0,0:0:0:0:
240,47,77039,6,0,P|278:44|395:39,1,143.999995605469,14|0,0:1|0:2,0:0:0:0:
465,24,77489,1,8,0:1:0:0:
435,109,77639,2,0,L|450:179,1,71.9999978027344,8|0,0:1|0:0,0:0:0:0:
362,282,77939,2,0,L|347:212,1,71.9999978027344
230,156,78239,6,0,P|178:179|100:129,1,143.999995605469,10|0,0:0|0:0,0:0:0:0:
108,60,78689,1,8,0:1:0:0:
36,94,78839,2,0,P|16:135|20:173,1,71.9999978027344,8|0,0:1|0:0,0:0:0:0:
73,216,79139,2,0,P|98:253|133:269,1,71.9999978027344
268,263,79439,6,0,P|208:299|201:369,1,143.999995605469,10|0,0:1|0:0,0:0:0:0:
283,348,79889,1,8,0:1:0:0:
283,348,80039,2,0,L|380:351,1,71.9999978027344,8|0,0:1|0:0,0:0:0:0:
401,274,80339,2,0,L|498:277,1,71.9999978027344
379,63,80639,5,10,0:0:0:0:
322,118,80789,1,8,0:1:0:0:
362,186,80939,2,0,L|459:189,1,71.9999978027344,0|8,0:0|0:1,0:0:0:0:
223,40,81239,2,0,L|324:44,1,80,10|0,0:1|0:0,0:0:0:0:
116,108,81539,2,0,L|217:112,1,80
20,183,81839,6,0,L|195:191,1,143.999995605469,12|0,0:1|0:0,0:0:0:0:
242,184,82289,1,8,0:1:0:0:
126,265,82439,2,0,B|113:301|113:301|139:347,1,71.9999978027344,10|0,0:1|0:0,0:0:0:0:
251,328,82739,2,0,B|264:292|264:292|238:246,1,71.9999978027344
337,379,83039,6,0,B|387:374|387:374|421:352|421:352|489:342,1,143.999995605469,10|0,0:0|0:0,0:0:0:0:
505,271,83489,1,8,0:1:0:0:
418,195,83639,2,0,P|412:239|437:274,1,71.9999978027344,10|0,0:1|0:0,0:0:0:0:
407,113,83939,2,0,P|365:129|348:168,1,71.9999978027344
483,147,84239,5,10,0:1:0:0:
483,147,84389,1,0,0:0:0:0:
471,63,84539,1,0,0:0:0:0:
471,63,84689,1,8,0:1:0:0:
471,63,84839,2,0,P|436:34|393:39,1,71.9999978027344,10|0,0:1|0:0,0:0:0:0:
247,99,85139,2,0,P|272:73|307:68,1,71.9999978027344,0|10,0:0|0:1,0:0:0:0:
251,185,85439,5,10,0:0:0:0:
180,149,85589,1,8,0:1:0:0:
247,99,85739,2,0,P|281:88|321:104,1,80,0|8,0:0|0:1,0:0:0:0:
106,40,86039,2,0,P|131:66|174:71,1,80,10|0,0:1|0:0,0:0:0:0:
0,144,86339,2,0,P|25:118|68:113,1,80,10|0,0:1|0:0,0:0:0:0:
60,333,86639,6,0,B|53:279|53:279|68:247|68:247|55:167,1,143.999995605469,14|0,0:1|0:0,0:0:0:0:
142,215,87089,1,8,0:1:0:0:
163,291,87239,2,0,L|151:363,1,71.9999978027344,10|0,0:1|0:0,0:0:0:0:
314,203,87539,2,0,L|326:275,1,71.9999978027344
251,348,87839,6,0,B|285:372|285:372|411:353,1,143.999995605469,10|0,0:0|0:0,0:0:0:0:
506,241,88289,1,8,0:1:0:0:
434,274,88439,2,0,P|454:306|488:317,1,71.9999978027344,10|0,0:1|0:0,0:0:0:0:
450,132,88739,2,0,P|432:165|439:200,1,71.9999978027344
355,132,89039,6,0,B|321:108|321:108|195:127,1,143.999995605469,10|0,0:1|0:0,0:0:0:0:
171,185,89489,1,8,0:1:0:0:
171,185,89639,2,0,L|96:169,1,71.9999978027344,10|0,0:1|0:0,0:0:0:0:
75,94,89939,2,0,L|4:78,1,71.9999978027344
27,201,90239,5,10,0:0:0:0:
36,279,90389,1,8,0:1:0:0:
113,293,90539,2,0,L|183:308,1,71.9999978027344,0|8,0:0|0:1,0:0:0:0:
18,381,90839,2,0,L|98:368,1,80,10|0,0:1|0:0,0:0:0:0:
331,359,91139,2,0,L|252:371,1,80
309,224,91439,6,0,B|303:182|303:182|380:174|388:234,1,143.999995605469,14|0,0:1|0:0,0:0:0:0:
230,242,91889,1,8,0:1:0:0:
200,102,92039,2,0,P|225:123|211:173,1,71.9999978027344,10|0,0:1|0:0,0:0:0:0:
117,83,92339,2,0,P|114:48|140:25,1,71.9999978027344
142,165,92639,6,0,P|45:173|-6:185,1,143.999995605469,10|0,0:0|0:0,0:0:0:0:
28,256,93089,1,8,0:1:0:0:
106,244,93239,2,0,P|120:294|109:324,1,71.9999978027344,10|0,0:1|0:0,0:0:0:0:
0,374,93539,2,0,L|84:383,1,71.9999978027344
267,329,93839,6,0,L|195:336,1,71.9999978027344,2|8,1:2|0:3,0:0:0:0:
207,256,94139,1,0,0:0:0:0:
207,256,94289,1,8,0:3:0:0:
362,286,94439,6,0,L|280:248,1,80,10|0,0:1|0:0,0:0:0:0:
340,188,94739,1,0,0:0:0:0:
340,188,94889,1,8,0:3:0:0:
478,287,95039,6,8,L|423:210,1,80,2|8,0:1|0:3,0:3:0:0:
195,336,95339,6,0,L|280:345,1,80,10|8,0:0|0:3,0:0:0:0:
289,252,95639,6,0,L|354:301,1,80,8|0,0:3|0:0,0:0:0:0:
471,294,95939,6,0,L|438:220,1,80,8|0,0:3|0:0,0:0:0:0:
268,74,96239,6,0,B|270:38|301:19|333:0|383:13|451:75|445:181|314:144|284:183|288:251|288:251|267:182|220:165|139:220|108:137|102:85|137:35|166:18|236:11|260:83,1,806.400019687501,4|0,0:0|3:0,0:0:0:0:
262,145,101039,5,6,0:0:0:0:
181,236,101339,1,0,0:0:0:0:
181,236,101489,2,0,P|240:254|296:288,1,120.000004577637,6|0,0:0|0:0,0:0:0:0:
142,313,101939,5,8,0:1:0:0:
142,313,102089,2,0,P|179:349|190:373,1,60.0000022888184,2|0,0:1|0:0,0:0:0:0:
56,318,102389,1,0,0:0:0:0:
56,318,102539,2,0,P|70:367|67:393,1,60.0000022888184,6|0,0:0|0:0,0:0:0:0:
50,226,102839,2,0,P|13:190|2:166,1,60.0000022888184,8|0,0:0|0:0,0:0:0:0:
119,169,103139,2,0,P|104:119|107:93,1,60.0000022888184,0|8,0:0|0:1,0:0:0:0:
316,123,103439,6,0,L|170:135,1,120.000004577637,6|0,0:0|0:0,0:0:0:0:
300,50,103889,2,0,P|347:52|389:110,1,120.000004577637,6|0,0:0|0:0,0:0:0:0:
331,199,104339,1,10,0:1:0:0:
331,199,104639,5,0,0:0:0:0:
408,185,104789,1,8,0:1:0:0:
466,236,104939,2,0,P|457:295|458:316,1,60.0000022888184,4|0,0:0|0:0,0:0:0:0:
490,380,105239,6,0,L|410:368,1,60.0000022888184,10|0,0:0|0:0,0:0:0:0:
381,309,105539,1,8,0:1:0:0:
308,338,105689,1,0,0:0:0:0:
177,228,105839,6,0,P|236:232|243:300,1,120.000004577637,6|0,0:0|0:0,0:0:0:0:
65,315,106289,2,0,L|189:327,1,120.000004577637,6|0,0:0|0:0,0:0:0:0:
100,243,106739,2,0,P|99:211|111:171,1,60.0000022888184,10|0,0:1|0:0,0:0:0:0:
188,79,107039,2,0,P|189:111|177:151,1,60.0000022888184,0|8,0:0|0:1,0:0:0:0:
65,71,107339,5,6,0:0:0:0:
126,23,107489,1,0,0:0:0:0:
307,73,107639,2,0,L|181:79,1,120.000004577637,10|10,0:0|0:1,0:0:0:0:
387,196,108239,6,0,L|310:200,1,60.0000022888184,6|0,0:0|0:0,0:0:0:0:
262,146,108539,1,10,0:1:0:0:
400,101,108689,2,0,L|459:97,1,60.0000022888184,6|0,0:0|0:0,0:0:0:0:
489,258,108989,1,0,0:0:0:0:
489,258,109139,2,0,P|479:227|480:185,1,60.0000022888184,10|0,0:1|0:0,0:0:0:0:
449,333,109439,2,0,P|425:311|405:274,2,60.0000022888184,0|8|6,0:0|0:1|0:0,0:0:0:0:
375,376,109889,1,8,0:1:0:0:
208,320,110039,2,0,B|257:309|257:309|292:318|292:318|352:303,1,128,8|0,0:0|0:0,3:0:0:0:
132,195,110639,6,0,L|153:275,1,60.0000022888184,6|0,0:0|0:0,0:0:0:0:
61,134,110939,1,10,0:1:0:0:
61,134,111089,2,0,L|45:192,1,60.0000022888184,6|0,0:0|0:0,0:0:0:0:
202,120,111389,2,0,L|126:106,1,60.0000022888184,0|10,0:0|0:1,0:0:0:0:
217,202,111689,6,0,L|343:178,1,120.000004577637,10|0,0:1|0:0,0:0:0:0:
360,103,112139,2,0,P|387:119|406:155,1,60.0000022888184,6|0,0:0|0:0,0:0:0:0:
344,253,112439,2,0,P|373:250|399:235,1,60.0000022888184,8|0,0:0|0:0,0:0:0:0:
512,62,112739,2,0,P|482:64|456:79,1,60.0000022888184,10|8,0:1|0:1,0:0:0:0:
502,271,113039,6,0,L|482:149,1,120.000004577637,6|10,0:0|0:1,0:0:0:0:
360,103,113489,2,0,P|370:30|421:21,1,120.000004577637,6|0,0:0|0:0,0:0:0:0:
308,26,113939,1,10,0:1:0:0:
308,26,114239,6,0,L|231:33,1,60.0000022888184
264,117,114539,2,0,L|204:111,1,60.0000022888184,6|0,0:0|0:0,0:0:0:0:
152,38,114839,1,10,0:0:0:0:
105,114,114989,1,0,0:0:0:0:
66,32,115139,2,0,L|1:51,1,60.0000022888184,8|0,0:1|0:0,0:0:0:0:
82,238,115439,6,0,B|40:222|40:222|20:130,1,120.000004577637,6|0,0:0|0:0,0:0:0:0:
168,198,115889,2,0,B|191:253|191:253|148:304,1,120.000004577637,6|0,0:0|0:0,0:0:0:0:
79,351,116339,2,0,B|20:369|20:369|64:305,1,120.000004577637,10|0,0:1|0:0,0:0:0:0:
162,382,116789,1,0,0:0:0:0:
162,382,116939,2,0,L|227:373,1,60.0000022888184,6|0,0:0|0:0,0:0:0:0:
346,264,117239,2,0,P|295:302|308:354,1,120.000004577637,8|0,0:0|0:0,0:0:0:0:
392,374,117689,1,0,0:0:0:0:
437,256,117839,6,0,P|457:301|454:333,1,60.0000022888184,6|0,0:0|0:0,0:0:0:0:
404,130,118139,1,10,0:1:0:0:
404,130,118289,2,0,P|384:175|387:207,1,60.0000022888184,6|0,0:0|0:0,0:0:0:0:
465,48,118589,1,0,0:0:0:0:
465,48,118739,2,0,P|485:93|482:125,1,60.0000022888184,6|0,0:0|0:0,0:0:0:0:
305,50,119039,6,0,L|382:41,1,60.0000022888184,0|8,0:0|0:1,0:0:0:0:
163,90,119339,2,0,L|222:96,1,60.0000022888184,6|0,0:0|0:0,0:0:0:0:
74,47,119639,6,0,L|66:9,7,30.0000011444092,10|0|8|0|10|0|0|0,0:0|0:0|0:1|0:0|0:1|0:0|0:0|0:0,0:0:0:0:
67,63,120239,6,0,P|55:143|51:206,1,120.000004577637,12|0,0:1|0:0,0:0:0:0:
222,275,120689,2,0,P|142:263|79:259,1,120.000004577637,0|0,0:2|0:0,0:0:0:0:
33,317,121139,1,10,0:1:0:0:
33,317,121289,1,0,0:0:0:0:
94,384,121439,6,0,P|174:372|237:368,1,120.000004577637,10|0,0:1|0:0,0:0:0:0:
422,312,121889,2,0,P|362:317|303:327,1,120.000004577637,2|0,0:0|0:0,0:0:0:0:
304,233,122339,1,8,0:1:0:0:
304,233,122489,1,0,0:0:0:0:
345,133,122639,6,0,P|378:181|380:210,1,60.0000022888184,8|0,0:1|0:0,0:0:0:0:
226,156,122939,1,8,0:1:0:0:
226,156,123089,2,0,P|238:128|259:107,1,60.0000022888184,10|8,0:0|0:1,0:0:0:0:
384,58,123389,1,0,0:0:0:0:
383,57,123539,2,0,P|355:49|325:50,1,60.0000022888184,8|10,0:1|0:0,0:0:0:0:
474,155,123839,6,0,L|472:88,1,60.0000022888184
453,239,124139,2,0,L|512:237,1,60.0000022888184,10|0,0:1|0:0,0:0:0:0:
366,213,124439,2,0,L|367:272,1,60.0000022888184,14|0,0:3|0:0,0:0:0:0:
384,135,124739,2,0,L|324:136,1,60.0000022888184,8|2,0:1|0:0,0:0:0:0:
181,262,125039,6,0,P|232:257|288:194,1,120.000004577637,14|8,0:0|0:1,0:0:0:0:
123,148,125489,2,0,P|104:180|100:219,1,60.0000022888184,2|8,0:0|0:1,0:0:0:0:
108,332,125789,1,0,0:0:0:0:
108,332,125939,2,0,P|83:304|47:288,2,60.0000022888184,8|2|0,0:1|0:0|0:0,0:0:0:0:
202,374,126389,1,2,0:0:0:0:
202,374,126539,2,0,L|275:368,1,60.0000022888184,10|0,0:1|0:0,0:0:0:0:
367,272,126839,2,0,P|348:304|344:343,1,60.0000022888184,14|0,0:3|0:0,0:0:0:0:
429,358,127139,2,0,P|448:326|452:287,1,60.0000022888184,8|2,0:1|0:0,0:0:0:0:
495,171,127439,6,0,P|451:165|441:231,1,120.000004577637,10|8,0:0|0:0,0:0:0:0:
481,52,127889,6,0,P|439:63|471:82,1,103.999995239258,2|2,0:0|0:0,0:0:0:0:
344,99,128339,6,0,P|349:133|364:108,1,80,8|0,0:0|0:0,0:0:0:0:
292,22,128789,6,0,P|278:13|290:34,1,60.0000022888184,2|2,0:0|0:2,0:0:0:0:
215,124,129239,6,0,L|255:119,1,30.0000011444092,14|0,0:3|0:0,0:0:0:0:
243,201,129539,2,0,L|283:196,1,30.0000011444092,10|0,0:0|0:0,0:0:0:0:
149,262,129839,6,0,L|120:130,1,128,4|8,2:1|0:0,0:0:0:0:
150,25,130289,2,0,P|89:20|40:89,1,128,2|0,0:1|0:0,0:0:0:0:
88,208,130739,2,0,L|11:202,1,64,10|0,0:0|0:1,0:0:0:0:
40,360,131039,6,0,P|74:339|177:370,1,136.000002593994,0|8,0:0|0:0,0:0:0:0:
284,197,131489,2,0,P|246:292|240:329,1,136.000002593994,2|0,0:1|0:0,0:0:0:0:
305,371,131939,5,8,0:0:0:0:
377,336,132089,1,10,1:0:0:0:
379,188,132239,2,0,L|394:270,1,71.9999978027344,10|10,0:1|1:3,0:0:0:0:
463,375,132539,1,8,0:0:0:0:
463,375,132689,2,0,L|475:304,1,71.9999978027344,2|8,1:3|0:0,0:0:0:0:
464,106,132989,5,0,0:0:0:0:
464,106,133139,2,0,P|496:138|478:205,1,107.999996704102,10|0,0:0|0:0,0:0:0:0:
487,195,133439,2,0,L|409:185,1,71.9999978027344,8|2,0:0|0:1,0:0:0:0:
367,22,133739,2,0,L|285:33,1,68.0000012969971,8|0,0:0|0:0,0:0:0:0:
284,197,134039,2,0,L|204:185,1,71.9999978027344,14|0,0:0|0:0,0:0:0:0:
112,72,134339,2,0,L|183:63,1,68.0000012969971,8|2,0:0|0:1,0:0:0:0:
112,173,134639,6,0,L|94:250,2,71.9999978027344,10|8|8,0:0|0:0|0:0,0:0:0:0:
187,283,135089,1,10,0:0:0:0:
187,283,135239,2,0,L|169:360,1,71.9999978027344,8|8,0:0|0:0,0:0:0:0:
279,314,135539,2,0,L|336:368,1,71.9999978027344,10|8,0:0|0:0,0:0:0:0:
351,257,135839,6,0,L|426:234,1,71.9999978027344,14|8,0:0|0:0,0:0:0:0:
368,25,136139,2,0,L|350:102,1,71.9999978027344,10|8,0:0|0:0,0:0:0:0:
254,63,136439,2,0,L|276:138,1,71.9999978027344,10|8,0:0|0:0,0:0:0:0:
343,180,136739,1,10,0:0:0:0:
265,210,136889,1,8,0:0:0:0:
126,144,137039,6,0,L|202:162,1,71.9999978027344,12|0,0:0|0:0,0:0:0:0:
232,293,137339,1,4,0:0:0:0:
141,232,137489,1,4,0:0:0:0:
133,375,137639,1,4,0:0:0:0:
265,210,137789,1,4,0:0:0:0:
39,289,137939,1,4,0:0:0:0:
231,384,138089,1,8,0:0:0:0:
47,202,138239,5,8,0:0:0:0:
47,202,138389,1,8,0:0:0:0:
47,202,138539,2,0,L|37:151,2,47.9999985351563,8|0|0,0:0|0:0|0:0,0:0:0:0:
58,77,139439,6,0,B|99:55|130:72|120:86|156:106|206:72,1,143.999995605469,4|0,1:1|3:0,3:0:0:0:
264,42,139889,1,0,1:0:0:0:
245,218,140039,2,0,P|220:166|224:127,1,71.9999978027344,8|0,0:2|0:0,0:0:0:0:
333,243,140339,5,8,0:1:0:0:
439,98,140489,2,0,L|283:123,2,143.999995605469,10|0|0,1:1|0:0|0:0,0:0:0:0:
377,312,141239,2,0,P|412:265|414:240,1,71.9999978027344,8|0,0:0|0:0,0:0:0:0:
476,177,141539,2,0,P|487:210|512:235,1,71.9999978027344,0|2,0:0|0:1,0:0:0:0:
481,361,141839,6,0,P|404:360|323:393,1,143.999995605469,8|2,1:1|0:1,0:0:0:0:
278,334,142289,1,8,1:1:0:0:
123,327,142439,2,0,L|196:316,1,71.9999978027344,8|0,0:0|0:0,0:0:0:0:
94,152,142739,6,0,P|69:176|53:233,1,71.9999978027344,8|0,1:0|0:1,0:0:0:0:
223,89,143039,2,0,P|214:55|173:12,1,71.9999978027344,10|0,1:1|0:0,0:0:0:0:
215,225,143339,2,0,P|248:234|305:220,1,71.9999978027344,10|8,0:1|1:1,0:0:0:0:
77,148,143639,6,0,P|50:174|33:237,1,71.9999978027344,8|0,0:0|0:0,0:0:0:0:
227,239,143939,2,0,P|263:249|322:232,1,71.9999978027344,10|0,1:1|0:0,0:0:0:0:
402,52,144239,2,0,B|353:81|353:81|326:119|346:180,1,143.999995605469,10|10,1:1|0:1,3:0:0:0:
351,311,144689,2,0,P|371:279|373:218,1,71.9999978027344,10|8,0:1|0:0,0:0:0:0:
491,154,144989,1,0,0:0:0:0:
491,154,145139,2,0,P|453:158|405:196,1,71.9999978027344,10|0,1:1|0:0,0:0:0:0:
219,305,145439,6,0,B|263:334|263:334|308:334|368:301,1,143.999995605469,10|10,1:1|1:1,0:0:0:0:
461,318,145889,2,0,P|428:335|397:389,1,71.9999978027344,10|8,0:1|0:0,0:0:0:0:
296,244,146189,1,0,0:0:0:0:
296,244,146339,2,0,L|286:165,1,71.9999978027344,10|0,0:1|0:0,0:0:0:0:
116,30,146639,6,0,P|151:108|135:175,1,143.999995605469,10|10,1:1|0:1,0:0:0:0:
59,217,147089,2,0,P|45:182|56:121,1,71.9999978027344,8|8,1:1|0:0,0:0:0:0:
207,284,147389,1,0,0:0:0:0:
207,284,147539,2,0,P|170:278|123:238,1,71.9999978027344,10|10,0:1|1:1,0:0:0:0:
60,344,147839,2,0,P|30:320|9:263,1,71.9999978027344,0|2,0:0|0:1,0:0:0:0:
149,372,148139,6,0,L|266:367,1,107.999996704102,10|0,1:1|0:0,0:0:0:0:
262,358,148439,2,0,L|379:353,1,107.999996704102,8|0,0:0|0:0,0:0:0:0:
377,346,148739,2,0,L|494:341,1,107.999996704102,10|0,0:1|0:0,0:0:0:0:
443,254,149039,6,0,P|430:183|410:115,1,143.999995605469,4|0,1:1|0:1,0:0:0:0:
316,213,149489,1,10,1:1:0:0:
316,213,149639,2,0,P|355:198|395:194,1,71.9999978027344,8|0,0:0|0:0,0:0:0:0:
360,48,149939,5,10,0:1:0:0:
185,155,150089,2,0,L|332:119,2,143.999995605469,10|8|0,1:1|0:1|0:0,0:0:0:0:
199,22,150839,2,0,P|167:65|129:66,1,71.9999978027344,8|0,0:0|0:0,0:0:0:0:
28,122,151139,2,0,P|81:128|101:160,1,71.9999978027344,8|2,0:1|0:1,0:0:0:0:
67,339,151439,6,0,L|42:185,1,143.999995605469,10|8,1:1|0:1,0:0:0:0:
128,212,151889,1,2,1:1:0:0:
230,300,152039,2,0,B|196:314|196:314|150:305,1,71.9999978027344,8|0,0:0|0:0,0:0:0:0:
319,264,152339,6,0,B|333:298|333:298|324:344,1,71.9999978027344,10|0,1:1|0:0,0:0:0:0:
381,186,152639,2,0,L|458:162,1,71.9999978027344,10|2,0:1|0:1,0:0:0:0:
498,328,152939,2,0,L|474:251,1,71.9999978027344,10|10,1:1|1:1,0:0:0:0:
279,117,153239,2,0,L|300:185,1,71.9999978027344,8|0,0:0|0:0,0:0:0:0:
326,332,153539,2,0,L|403:308,1,71.9999978027344,10|0,1:0|0:0,0:0:0:0:
507,74,153839,6,0,P|516:134|429:153,1,143.999995605469,10|8,1:0|0:1,0:0:0:0:
362,109,154289,2,0,P|390:87|436:91,1,71.9999978027344,10|8,1:0|0:0,0:0:0:0:
294,33,154589,1,0,1:0:0:0:
294,33,154739,2,0,L|365:10,1,71.9999978027344,10|0,1:1|0:0,0:0:0:0:
200,141,155039,6,0,L|60:98,1,143.999995605469,10|10,1:0|0:1,0:0:0:0:
203,55,155489,2,0,L|132:32,1,71.9999978027344,8|8,0:1|0:0,0:0:0:0:
289,148,155789,1,10,1:1:0:0:
289,148,155939,2,0,P|270:190|270:227,1,71.9999978027344,10|0,0:1|0:0,0:0:0:0:
340,336,156239,5,10,1:1:0:0:
108,313,156389,2,0,L|280:293,1,160,10|8,0:0|0:1,0:0:0:0:
93,231,156839,1,10,0:0:0:0:
31,342,156989,1,0,0:0:0:0:
47,160,157139,2,0,P|17:196|20:255,1,80,10|8,1:0|0:3,0:0:0:0:
11,61,157439,5,0,0:0:0:0:
162,185,157589,1,4,0:3:0:0:
207,61,157739,2,0,L|119:75,1,80,0|4,0:0|0:3,0:0:0:0:
266,148,158039,5,10,0:0:0:0:
170,269,158189,1,10,1:1:0:0:
306,59,158339,5,0,0:0:0:0:
365,141,158489,1,10,1:0:0:0:
295,288,158639,6,0,B|339:285|339:285|367:258|367:258|437:256|437:256|409:284,1,184.000003509522,4|0,1:0|0:0,0:0:0:0:
309,365,159089,2,0,L|213:368,1,80,10|0,0:1|0:0,0:0:0:0:
114,366,159389,1,2,1:1:0:0:
170,269,159539,1,8,0:1:0:0:
33,290,159689,6,0,B|2:236|2:236|27:175|96:201,1,160,10|10,0:1|0:1,0:0:0:0:
228,213,160139,2,0,P|197:190|144:193,1,80,8|0,0:1|0:0,0:0:0:0:
81,55,160439,2,0,P|82:94|105:126,1,80,6|0,0:0|0:0,0:0:0:0:
243,66,160739,2,0,L|159:70,1,80,10|0,0:1|0:0,0:0:0:0:
317,156,161039,6,0,L|406:151,1,83.9999974365235,14|0,0:3|0:3,0:0:0:0:
479,75,161339,1,0,0:0:0:0:
511,293,161489,2,0,P|478:263|471:218,1,83.9999974365235,10|0,0:1|0:0,0:0:0:0:
314,244,161789,5,0,1:0:0:0:
395,226,161939,1,8,0:1:0:0:
437,363,162089,2,0,B|416:324|375:303|375:303|365:345|299:368,1,167.999994873047,10|10,0:1|0:1,0:0:0:0:
223,285,162539,5,10,0:1:0:0:
240,360,162689,1,0,0:0:0:0:
116,310,162839,2,0,L|133:227,1,83.9999974365235,6|0,0:0|0:0,0:0:0:0:
144,85,163139,2,0,P|142:109|147:89,1,83.9999974365235,10|0,0:1|0:0,3:0:0:0:
343,150,163439,6,0,P|299:153|229:167,1,83.9999974365235,14|0,0:3|0:0,0:0:0:0:
265,36,163739,1,2,0:1:0:0:
449,123,163889,2,0,P|446:79|432:9,1,83.9999974365235,10|0,0:1|0:0,0:0:0:0:
372,250,164189,2,0,P|336:276|285:326,1,83.9999974365235,2|8,1:0|0:1,0:0:0:0:
488,384,164489,6,0,B|493:332|493:332|472:280|472:280|477:215,1,167.999994873047,10|2,0:1|0:1,0:0:0:0:
362,364,164939,2,0,P|329:382|255:370,1,83.9999974365235,10|0,0:1|0:0,0:0:0:0:
231,233,165239,2,0,P|202:263|191:303,1,83.9999974365235,6|0,0:0|0:0,0:0:0:0:
116,346,165539,1,10,0:1:0:0:
196,384,165689,1,0,0:0:0:0:
159,165,165839,6,0,B|127:132|84:134|84:134|46:165|59:235,1,167.999994873047,14|0,0:3|0:0,0:0:0:0:
253,141,166289,2,0,P|254:99|275:63,1,83.9999974365235,0|10,0:0|0:1,0:0:0:0:
419,190,166589,1,0,0:0:0:0:
419,190,166739,2,0,L|317:196,1,92.0000017547608,0|2,0:0|0:0,0:0:0:0:
394,32,167039,6,0,P|472:19|476:114,1,176.000005371094,10|0,0:1|0:0,0:0:0:0:
360,111,167489,1,2,0:1:0:0:
512,261,167639,2,0,L|496:170,1,80,4|10,2:3|0:0,0:0:0:0:
417,279,167939,2,0,L|405:356,1,60.0000022888184,4|4,2:3|2:3,0:0:0:0:
239,340,168239,6,0,P|205:285|293:310,1,184.000003509522,4|0,0:1|0:0,0:0:0:0:
152,307,168689,2,0,P|116:294|64:299,1,80,10|2,0:1|0:1,0:0:0:0:
78,151,168989,1,0,1:0:0:0:
15,218,169139,1,0,0:0:0:0:
189,166,169289,6,0,B|238:141|272:158|274:186|245:211|191:205,1,160,10|2,0:1|0:1,3:0:0:0:
142,83,169739,1,10,0:1:0:0:
52,67,169889,1,0,0:0:0:0:
196,2,170039,2,0,P|228:32|232:82,1,80,6|0,0:0|0:0,0:0:0:0:
292,168,170339,2,0,P|301:129|331:103,1,80,10|0,0:1|0:0,0:0:0:0:
507,233,170639,6,0,L|416:246,1,80,14|0,0:3|0:0,0:0:0:0:
379,174,170939,1,0,0:0:0:0:
380,384,171089,2,0,L|367:293,1,80,10|2,0:1|0:0,0:0:0:0:
318,232,171389,1,0,1:0:0:0:
452,325,171539,1,0,0:0:0:0:
205,330,171689,6,0,P|244:300|254:382,1,160,10|2,0:1|0:1,0:0:0:0:
231,252,172139,2,0,B|216:227|215:205|215:205|197:233|191:259,1,80,10|2,0:1|0:0,0:0:0:0:
83,311,172439,2,0,B|97:335|98:357|98:357|116:329|112:331,1,80,4|0,0:0|0:0,0:0:0:0:
78,181,172739,2,0,B|48:152|48:152|34:198,1,80,10|2,0:1|0:1,0:0:0:0:
328,128,173039,6,0,B|274:112|248:127|253:140|215:147|173:131,1,160,14|0,0:3|0:0,0:0:0:0:
284,23,173489,2,0,P|230:39|205:72,1,80,10|0,0:1|0:0,0:0:0:0:
423,131,173789,1,2,1:1:0:0:
364,47,173939,1,0,0:0:0:0:
377,200,174089,6,0,B|385:236|367:258|367:258|384:293|384:293|370:317|383:363,1,160,10|10,0:1|0:1,0:0:0:0:
512,199,174539,2,0,P|464:229|449:267,1,80,10|0,1:1|0:0,0:0:0:0:
512,384,174839,2,0,P|464:353|449:315,1,80,4|2,0:0|1:1,0:0:0:0:
216,317,175139,2,0,L|317:303,1,80,10|0,1:1|0:0,0:0:0:0:
115,297,175439,6,0,P|131:331|121:397,1,80,10|8,0:0|0:0,0:0:0:0:
39,178,175739,2,0,P|23:212|33:278,2,80,8|10|8,0:0|0:0|0:0,0:0:0:0:
139,127,176189,1,8,0:0:0:0:
139,127,176339,2,0,P|155:161|145:227,1,80,10|0,0:1|0:0,0:0:0:0:
54,98,176639,5,10,0:0:0:0:
84,24,176789,1,8,0:0:0:0:
162,8,176939,1,0,0:0:0:0:
235,39,177089,1,4,0:0:0:0:
258,115,177239,2,0,L|251:161,3,40,4|0|0|0,3:0|0:0|0:0|0:0,3:0:0:0:
278,143,177539,2,0,L|285:189,3,40
315,154,177839,6,0,P|376:139|480:217,1,167.999994873047,4|0,1:2|0:0,0:0:0:0:
405,246,178289,1,2,0:0:0:0:
450,48,178439,2,0,P|412:87|396:128,1,83.9999974365235,8|0,0:0|0:0,0:0:0:0:
444,329,178739,2,0,P|482:290|498:249,1,83.9999974365235,0|0,1:0|0:0,0:0:0:0:
235,267,179039,2,0,P|276:265|316:277,1,83.9999974365235,10|0,0:1|0:0,0:0:0:0:
239,369,179339,2,0,P|197:370|157:358,1,83.9999974365235,0|8,0:0|0:1,0:0:0:0:
234,257,179639,2,0,P|284:255|332:269,1,83.9999974365235,10|0,0:0|0:0,0:0:0:0:
239,378,179939,2,0,P|189:380|141:366,1,83.9999974365235,2|0,0:1|0:0,0:0:0:0:
166,178,180239,6,0,B|100:159|52:217|52:217|83:260,1,167.999994873047,10|0,0:1|0:0,0:0:0:0:
157,268,180689,1,10,0:1:0:0:
70,77,180839,2,0,P|68:126|82:174,1,83.9999974365235,8|0,0:0|0:0,0:0:0:0:
142,25,181139,5,2,0:1:0:0:
207,77,181289,1,8,0:1:0:0:
271,23,181439,1,8,0:1:0:0:
411,76,181589,2,0,L|328:83,1,83.9999974365235,10|0,0:0|0:0,0:0:0:0:
471,17,181889,5,8,0:1:0:0:
471,17,182039,2,0,B|506:69|492:113|475:111|452:137|487:189,1,184.000003509522,10|0,0:0|0:0,0:0:0:0:
399,267,182489,2,0,P|445:256|494:294,1,92.0000017547608,8|10,0:1|0:1,0:0:0:0:
359,334,182789,5,0,0:0:0:0:
352,190,182939,2,0,B|313:221|313:221|321:289,1,92.0000017547608,0|10,0:0|0:1,0:0:0:0:
327,83,183239,2,0,P|295:119|197:93,1,138.000002632141,8|0,0:0|0:0,0:0:0:0:
206,97,183539,2,0,P|183:145|182:202,1,92.0000017547608,2|0,0:1|0:0,0:0:0:0:
123,339,183839,6,0,P|123:285|100:233,1,92.0000017547608,10|0,0:1|0:0,0:0:0:0:
122,63,184139,2,0,P|167:90|224:96,1,92.0000017547608,2|10,0:1|0:1,0:0:0:0:
384,257,184439,2,0,P|337:283|304:329,1,92.0000017547608,8|0,0:0|0:0,0:0:0:0:
207,264,184739,2,0,P|221:307|219:353,1,92.0000017547608,10|0,0:1|0:0,0:0:0:0:
295,214,185039,6,0,L|496:202,1,184.000003509522,10|0,0:1|0:0,0:0:0:0:
469,290,185489,1,10,0:1:0:0:
442,43,185639,2,0,B|421:85|421:85|438:137,1,92.0000017547608,10|0,0:0|0:0,0:0:0:0:
353,125,185939,5,0,0:1:0:0:
510,94,186089,1,10,0:1:0:0:
278,76,186239,1,0,0:0:0:0:
355,46,186389,1,10,0:0:0:0:
280,154,186539,2,0,L|189:138,1,92.0000017547608,0|10,0:0|0:1,0:0:0:0:
114,36,186839,2,0,P|64:91|64:129,1,92.0000017547608,10|0,0:0|0:0,0:0:0:0:
71,264,187139,5,10,0:1:0:0:
46,186,187289,1,0,0:0:0:0:
126,207,187439,2,0,L|217:223,1,92.0000017547608,10|0,0:1|0:0,0:0:0:0:
330,265,187739,2,0,P|260:292|244:326,1,92.0000017547608,0|10,0:0|0:1,0:0:0:0:
512,369,188039,2,0,P|455:375|429:267,1,184.000003509522,8|10,0:0|0:1,0:0:0:0:
506,285,188489,1,0,0:0:0:0:
344,359,188639,6,0,L|446:345,1,92.0000017547608,10|0,0:1|0:0,0:0:0:0:
405,192,188939,1,0,0:0:0:0:
479,213,189089,1,8,0:1:0:0:
371,118,189239,2,0,P|328:178|332:216,1,92.0000017547608,10|0,0:0|0:0,0:0:0:0:
512,94,189539,2,0,P|493:22|461:1,1,92.0000017547608,10|0,0:1|0:0,0:0:0:0:
228,50,189839,6,0,L|410:35,1,167.999994873047,10|0,0:1|0:0,0:0:0:0:
233,128,190289,1,8,0:1:0:0:
111,56,190439,2,0,P|153:116|150:151,1,83.9999974365235,10|0,0:0|0:0,0:0:0:0:
14,180,190739,1,0,0:0:0:0:
72,124,190889,1,10,0:1:0:0:
96,202,191039,2,0,L|214:214,1,83.9999974365235,8|10,0:1|0:0,0:0:0:0:
295,297,191339,2,0,L|211:288,1,83.9999974365235,10|0,0:1|0:0,0:0:0:0:
315,219,191639,2,0,P|374:268|344:360,1,167.999994873047,10|10,0:0|0:1,0:0:0:0:
410,263,192089,5,0,0:0:0:0:
410,263,192239,2,0,B|452:252|488:283|488:283|533:255|501:192,1,167.999994873047,10|2,0:1|0:1,0:0:0:0:
432,93,192689,1,8,0:1:0:0:
432,93,192839,2,0,B|411:133|411:133|421:176,1,83.9999974365235,10|0,0:0|0:0,0:0:0:0:
317,19,193139,1,10,0:1:0:0:
317,19,193289,2,0,B|338:59|338:59|328:102,1,83.9999974365235,4|0,0:3|0:0,0:0:0:0:
226,197,193589,2,0,B|217:159|217:159|238:119,1,83.9999974365235,10|4,0:1|0:3,0:0:0:0:
311,179,193889,1,2,0:0:0:0:
141,50,194039,2,0,L|234:39,1,83.9999974365235,10|4,1:0|0:3,0:0:0:0:
56,31,194339,5,4,0:3:0:0:
150,131,194489,1,4,0:3:0:0:
86,258,194639,6,0,B|40:281|40:281|17:216|85:162|85:162|151:164|242:218|157:331,1,420.000016021729,6|2,0:0|0:0,0:0:0:0:
163,321,197039,6,0,B|202:310|252:313|237:337|283:344|323:351|323:351|332:329|362:278|374:213|353:179|278:151|242:212|279:263,1,448,6|2,0:0|0:0,0:0:0:0:
276,259,199439,6,0,B|177:258|132:191|203:55|261:59|304:169|391:106|380:17|319:-5|319:-5|304:38,1,476.00000907898,6|2,0:0|0:0,0:0:0:0:
307,28,201839,2,0,B|407:63|458:152|455:346|239:295|192:80|335:75|461:93|513:139|494:221,1,560,6|0,0:0|0:0,0:0:0:0:
250,281,204239,6,0,B|191:321|159:356|159:356|167:315|164:235|164:235|164:235|164:235|106:189|64:170|64:170|105:166|178:135|178:135|205:69|211:22|211:22|227:59|277:122|277:122|350:125|396:117|396:117|366:144|321:210|321:210|340:280|364:321|364:321|325:299|239:276,1,1203.19998164063,6|4,0:0|0:0,0:0:0:0:
