osu file format v14

[General]
AudioFilename: audio.mp3
AudioLeadIn: 0
PreviewTime: 47843
Countdown: 0
SampleSet: None
StackLeniency: 0.8
Mode: 0
LetterboxInBreaks: 0
WidescreenStoryboard: 1

[Editor]
Bookmarks: 8486,11828,14427,19328,24229,25120,26308,35813,40566,48882
DistanceSpacing: 0.3
BeatDivisor: 4
GridSize: 4
TimelineZoom: 1.800001

[Metadata]
Title:Warrior (TV-Size)
TitleUnicode:Warrior (TV-Size)
Artist:Disturbed
ArtistUnicode:Disturbed
Creator:Zuisho
Version:Warrior
Source:Alysum
Tags:
BeatmapID:2129595
BeatmapSetID:1017528

[Difficulty]
HPDrainRate:5
CircleSize:4.2
OverallDifficulty:9
ApproachRate:9.4
SliderMultiplier:2
SliderTickRate:1

[Events]
//Background and Video events
0,0,"big_1473979010_image.jpg",0,0
//Break Periods
//Storyboard Layer 0 (Background)
//Storyboard Layer 1 (Fail)
//Storyboard Layer 2 (Pass)
//Storyboard Layer 3 (Foreground)
//Storyboard Layer 4 (Overlay)
//Storyboard Sound Samples

[TimingPoints]
170,297.029702970297,4,3,1,100,1,0
14427,-200,4,3,1,100,0,0
16803,-100,4,3,1,100,0,0

[Colours]
Combo1 : 105,105,105
Combo2 : 255,255,255
Combo3 : 128,128,0
Combo4 : 213,213,0
Combo5 : 255,236,168

[HitObjects]
140,176,170,5,4,0:0:0:0:
240,212,318,2,0,P|262:144|250:80,1,100,4|0,0:0|0:0,0:0:0:0:
140,176,615,1,0,0:0:0:0:
41,130,764,2,0,P|17:180|16:230,1,100
148,310,1061,5,4,0:0:0:0:
314,266,1209,1,4,0:0:0:0:
148,310,1358,1,4,0:0:0:0:
326,335,1506,1,4,0:0:0:0:
434,254,1655,6,0,P|419:182|392:145,1,100
305,54,1952,1,4,0:0:0:0:
305,54,2100,1,4,0:0:0:0:
158,77,2249,2,0,P|173:126|221:175,1,100
402,247,2546,1,0,0:0:0:0:
269,314,2694,1,4,0:0:0:0:
105,295,2843,6,4,P|96:235|100:172,1,100
219,72,3140,2,0,P|223:162|234:210,1,100,4|0,0:0|0:0,0:0:0:0:
241,308,3437,1,0,0:0:0:0:
241,308,3585,1,0,0:0:0:0:
377,285,3734,2,4,P|341:227|305:198,1,100
125,108,4031,2,0,P|194:109|237:112,1,100
401,81,4328,2,0,L|315:152,1,100
184,249,4625,1,4,0:0:0:0:
184,249,4773,1,4,0:0:0:0:
368,305,4922,6,4,L|426:206,1,100
414,96,5219,1,0,0:0:0:0:
414,96,5368,1,0,0:0:0:0:
238,92,5516,1,0,0:0:0:0:
238,92,5665,1,0,0:0:0:0:
69,152,5813,2,4,L|118:260,3,100
210,299,6407,5,0,0:0:0:0:
312,144,6556,1,0,0:0:0:0:
210,299,6704,1,4,0:0:0:0:
395,247,6853,1,4,0:0:0:0:
435,119,7001,2,0,L|347:68,1,100
187,77,7298,2,0,L|91:169,1,100,0|4,0:0|0:0,0:0:0:0:
86,307,7595,1,4,0:0:0:0:
86,307,7744,1,4,0:0:0:0:
264,324,7892,6,0,L|291:198,1,100,4|0,0:0|0:0,0:0:0:0:
316,70,8189,1,0,0:0:0:0:
316,70,8338,1,0,0:0:0:0:
119,130,8486,5,8,0:0:0:0:
355,218,8635,1,8,0:0:0:0:
119,130,8783,1,8,0:0:0:0:
355,218,8932,1,8,0:0:0:0:
100,299,9080,1,8,0:0:0:0:
290,123,9229,1,8,0:0:0:0:
100,299,9377,1,8,0:0:0:0:
290,123,9526,1,8,0:0:0:0:
290,123,9600,1,8,0:0:0:0:
290,123,9674,5,4,0:0:0:0:
422,138,9823,2,0,L|372:229,1,100,4|0,0:0|0:0,0:0:0:0:
300,314,10120,1,0,0:0:0:0:
163,320,10269,1,0,0:0:0:0:
57,212,10417,1,0,0:0:0:0:
130,58,10566,1,4,0:0:0:0:
57,212,10714,1,4,0:0:0:0:
286,160,10863,1,4,0:0:0:0:
430,264,11011,6,0,L|314:303,1,100,4|0,0:0|0:0,0:0:0:0:
209,303,11308,1,0,0:0:0:0:
209,303,11457,1,4,0:0:0:0:
79,274,11605,1,4,0:0:0:0:
71,151,11754,2,0,P|135:126|199:118,1,100
307,199,12051,2,0,P|238:189|188:190,1,100,0|4,0:0|0:0,0:0:0:0:
74,236,12348,1,4,0:0:0:0:
74,236,12496,1,4,0:0:0:0:
159,343,12645,5,4,0:0:0:0:
307,342,12793,2,0,P|350:281|372:220,1,100
345,85,13090,2,0,P|328:152|301:194,1,100,0|4,0:0|0:0,0:0:0:0:
208,304,13387,1,4,0:0:0:0:
208,304,13536,1,0,0:0:0:0:
77,237,13684,6,0,P|121:151|151:127,1,100
251,106,13981,1,0,0:0:0:0:
380,128,14130,1,4,0:0:0:0:
432,254,14278,1,4,0:0:0:0:
308,313,14427,6,8,P|173:327|104:319,1,200
56,196,15169,1,8,0:0:0:0:
43,68,15318,2,8,P|158:55|259:59,1,200
309,191,16061,1,8,0:0:0:0:
323,327,16209,2,8,P|389:290|427:206,1,150
430,202,16803,5,4,0:0:0:0:
344,59,16952,2,0,P|259:62|199:78,1,100,4|0,0:0|0:0,0:0:0:0:
87,151,17249,2,0,P|164:160|221:173,1,100
288,249,17546,1,0,0:0:0:0:
288,249,17694,1,4,0:0:0:0:
385,328,17843,1,4,0:0:0:0:
462,221,17991,2,4,P|430:164|375:124,1,100
286,74,18288,5,0,0:0:0:0:
126,97,18437,1,0,0:0:0:0:
71,245,18585,1,4,0:0:0:0:
185,337,18734,2,0,L|265:258,1,100,4|0,0:0|0:0,0:0:0:0:
263,122,19031,2,0,L|183:192,1,100
71,303,19328,5,4,0:0:0:0:
337,341,19476,1,4,0:0:0:0:
56,284,19625,1,4,0:0:0:0:
346,253,19773,1,4,0:0:0:0:
457,153,19922,2,0,P|405:113|330:84,1,100
314,209,20219,2,0,P|271:179|201:156,1,100,0|4,0:0|0:0,0:0:0:0:
45,244,20516,2,0,P|114:245|151:255,1,100,4|0,0:0|0:0,0:0:0:0:
289,318,20813,1,0,0:0:0:0:
417,230,20962,6,0,L|473:138,1,100
274,199,21259,2,0,L|208:114,1,100,4|4,0:0|0:0,0:0:0:0:
45,93,21556,2,4,L|126:201,1,100
206,291,21853,1,0,0:0:0:0:
206,291,22001,1,0,0:0:0:0:
322,261,22150,6,0,L|428:322,1,100
335,118,22447,2,4,L|430:70,3,100
329,117,23041,1,0,0:0:0:0:
192,156,23189,1,0,0:0:0:0:
95,267,23338,5,4,0:0:0:0:
170,106,23486,1,4,0:0:0:0:
327,59,23635,1,0,0:0:0:0:
211,205,23783,1,0,0:0:0:0:
108,316,23932,5,0,0:0:0:0:
108,316,24080,1,4,0:0:0:0:
233,306,24229,1,4,0:0:0:0:
354,204,24377,1,4,0:0:0:0:
443,57,24526,1,4,0:0:0:0:
443,57,24674,1,0,0:0:0:0:
271,61,24823,2,0,L|147:119,1,100
78,206,25120,5,8,0:0:0:0:
372,317,25269,1,8,0:0:0:0:
193,89,25417,1,8,0:0:0:0:
267,366,25566,1,8,0:0:0:0:
94,106,25714,1,8,0:0:0:0:
434,239,25863,1,8,0:0:0:0:
38,204,26011,1,8,0:0:0:0:
444,132,26160,1,8,0:0:0:0:
254,196,26308,5,4,0:0:0:0:
340,63,26457,1,4,0:0:0:0:
409,211,26605,1,0,0:0:0:0:
383,336,26754,2,0,P|317:311|256:263,1,100
193,135,27051,2,0,P|276:154|318:181,1,100,0|4,0:0|0:0,0:0:0:0:
383,336,27348,2,4,P|321:314|270:282,1,100
152,220,27645,5,4,0:0:0:0:
70,86,27793,1,0,0:0:0:0:
141,223,27942,1,0,0:0:0:0:
82,83,28090,1,4,0:0:0:0:
128,226,28239,1,4,0:0:0:0:
95,80,28387,1,0,0:0:0:0:
253,128,28536,5,0,0:0:0:0:
387,210,28684,1,0,0:0:0:0:
250,139,28833,1,4,0:0:0:0:
390,198,28981,1,4,0:0:0:0:
247,152,29130,1,4,0:0:0:0:
393,185,29278,1,4,0:0:0:0:
194,285,29427,6,0,L|88:311,1,100
194,285,29724,2,0,L|251:196,1,100,0|4,0:0|0:0,0:0:0:0:
194,285,30021,2,0,L|85:237,1,100,4|0,0:0|0:0,0:0:0:0:
194,285,30318,2,0,L|173:181,1,100
141,61,30615,5,0,0:0:0:0:
141,61,30764,1,4,0:0:0:0:
287,62,30912,2,4,L|329:165,1,100
344,278,31209,1,4,0:0:0:0:
225,338,31358,1,0,0:0:0:0:
344,278,31506,1,0,0:0:0:0:
429,169,31655,1,0,0:0:0:0:
369,47,31803,2,0,P|294:52|233:65,1,100,0|4,0:0|0:0,0:0:0:0:
121,134,32100,5,4,0:0:0:0:
257,223,32249,1,4,0:0:0:0:
121,134,32397,1,4,0:0:0:0:
75,289,32546,2,0,P|136:296|189:287,1,100
299,155,32843,2,4,P|209:162|172:176,1,100
70,248,33140,1,0,0:0:0:0:
190,338,33288,2,0,P|276:328|324:302,1,100
377,222,33585,5,4,0:0:0:0:
263,92,33734,1,4,0:0:0:0:
250,262,33882,1,4,0:0:0:0:
250,262,34031,1,4,0:0:0:0:
118,326,34179,2,0,P|74:283|56:221,1,100
122,78,34476,2,0,L|172:187,1,100,0|4,0:0|0:0,0:0:0:0:
235,308,34773,1,4,0:0:0:0:
235,308,34922,1,0,0:0:0:0:
366,285,35070,6,0,L|310:171,1,100
430,227,35368,2,8,L|373:116,1,100
187,81,35665,2,8,L|231:194,1,100
281,290,35962,5,8,0:0:0:0:
258,309,36110,1,8,0:0:0:0:
228,316,36259,1,8,0:0:0:0:
198,319,36407,1,12,0:0:0:0:
167,317,36556,1,8,0:0:0:0:
94,221,36704,5,8,0:0:0:0:
123,214,36853,1,8,0:0:0:0:
151,205,37001,1,8,0:0:0:0:
177,191,37150,1,12,0:0:0:0:
203,176,37298,1,8,0:0:0:0:
289,34,37447,5,8,0:0:0:0:
259,37,37595,1,12,0:0:0:0:
229,41,37744,1,8,0:0:0:0:
199,45,37892,1,8,0:0:0:0:
170,54,38041,1,8,0:0:0:0:
143,67,38189,1,8,0:0:0:0:
116,80,38338,1,12,0:0:0:0:
89,189,38486,6,8,L|224:219,1,100
82,220,38783,2,8,L|192:243,1,100,12|8,0:0|0:0,0:0:0:0:
72,250,39080,2,8,L|180:270,1,100
423,189,39377,6,8,L|288:219,1,100,12|8,0:0|0:0,0:0:0:0:
430,220,39674,2,8,L|320:243,1,100,8|12,0:0|0:0,0:0:0:0:
440,250,39971,2,8,L|332:270,1,100
101,294,40269,1,12,0:0:0:0:
86,71,40417,1,12,0:0:0:0:
337,167,40566,5,0,0:0:0:0:
380,305,40714,2,0,P|255:315|247:308,1,100
180,299,41011,1,0,0:0:0:0:
115,193,41160,1,0,0:0:0:0:
125,66,41308,1,0,0:0:0:0:
125,66,41457,2,0,L|241:95,1,100
403,93,41754,5,4,0:0:0:0:
333,244,41902,1,4,0:0:0:0:
173,302,42051,1,4,0:0:0:0:
118,76,42348,5,0,0:0:0:0:
118,76,42496,2,0,L|208:129,1,100
321,151,43239,5,4,0:0:0:0:
321,151,43387,2,4,L|194:198,1,100
118,302,44130,6,8,L|83:206,2,100
146,311,44575,1,8,0:0:0:0:
175,316,44724,1,8,0:0:0:0:
204,317,44872,1,8,0:0:0:0:
249,309,45021,1,8,0:0:0:0:
298,283,45170,5,8,0:0:0:0:
298,283,45318,2,0,L|347:178,1,100
269,60,45615,1,0,0:0:0:0:
269,60,45764,2,0,L|181:140,1,100
86,284,46061,1,0,0:0:0:0:
86,284,46209,2,0,L|206:262,1,100
369,215,46506,2,4,L|440:141,2,100
398,309,47397,6,0,L|343:215,1,100
254,88,47991,1,4,0:0:0:0:
254,88,48140,2,4,L|174:172,1,100
100,269,48437,1,8,0:0:0:0:
224,321,48585,1,8,0:0:0:0:
350,327,48734,1,8,0:0:0:0:
455,256,48882,1,8,0:0:0:0:
455,256,49031,1,8,0:0:0:0:
