osu file format v14

[General]
AudioFilename: audio.mp3
AudioLeadIn: 0
PreviewTime: 62874
Countdown: 1
SampleSet: Normal
StackLeniency: 0.7
Mode: 0
LetterboxInBreaks: 0
WidescreenStoryboard: 1

[Editor]
Bookmarks: 18051,29345,63227,97109,130992,164874,191698,212874
DistanceSpacing: 1.6
BeatDivisor: 4
GridSize: 4
TimelineZoom: 1.7

[Metadata]
Title:The Vengeful One
TitleUnicode:The Vengeful One
Artist:Disturbed
ArtistUnicode:Disturbed
Creator:Hullahopp
Version:Hard
Source:
Tags:
BeatmapID:1445897
BeatmapSetID:635921

[Difficulty]
HPDrainRate:5.4
CircleSize:3.2
OverallDifficulty:4.8
ApproachRate:8.2
SliderMultiplier:1.2
SliderTickRate:1

[Events]
//Background and Video events
0,0,"TheVengefulOne.png",0,0
//Break Periods
2,52133,59684
2,119897,127448
2,153780,157815
//Storyboard Layer 0 (Background)
//Storyboard Layer 1 (Fail)
//Storyboard Layer 2 (Pass)
//Storyboard Layer 3 (Foreground)
//Storyboard Sound Samples

[TimingPoints]
1110,352.941176470588,4,1,1,100,1,0
51933,-500,4,1,1,100,0,0
60404,-100,4,1,1,100,0,0
63227,-83.3333333333333,4,1,1,100,0,1
65168,-83.3333333333333,4,1,1,10,0,1
65345,-83.3333333333333,4,1,1,100,0,1
67992,-83.3333333333333,4,1,1,10,0,1
68168,-83.3333333333333,4,1,1,100,0,1
70815,-83.3333333333333,4,1,1,10,0,1
70992,-83.3333333333333,4,1,1,100,0,1
76462,-83.3333333333333,4,1,1,10,0,1
76639,-83.3333333333333,4,1,1,100,0,1
77345,-83.3333333333333,4,1,1,100,0,0
78404,-83.3333333333333,4,1,1,100,0,1
79286,-83.3333333333333,4,1,1,10,0,1
79462,-83.3333333333333,4,1,1,100,0,1
82109,-83.3333333333333,4,1,1,10,0,1
82286,-83.3333333333333,4,1,1,100,0,1
85815,-100,4,1,1,100,0,0
119698,-500,4,1,1,100,0,0
128168,-100,4,1,1,100,0,0
130992,-83.3333333333333,4,1,1,100,0,1
132933,-83.3333333333333,4,1,1,10,0,1
133109,-83.3333333333333,4,1,1,100,0,1
135757,-83.3333333333333,4,1,1,10,0,1
135933,-83.3333333333333,4,1,1,100,0,1
138580,-83.3333333333333,4,1,1,10,0,1
138757,-83.3333333333333,4,1,1,100,0,1
144227,-83.3333333333333,4,1,1,10,0,1
144404,-83.3333333333333,4,1,1,100,0,1
145109,-83.3333333333333,4,1,1,100,0,0
146168,-83.3333333333333,4,1,1,100,0,1
147051,-83.3333333333333,4,1,1,10,0,1
147227,-83.3333333333333,4,1,1,100,0,1
149874,-83.3333333333333,4,1,1,10,0,1
150051,-83.3333333333333,4,1,1,100,0,1
153580,-83.3333333333333,4,1,1,100,0,0
164874,-100,4,1,1,100,0,0
191345,-74.0740740740741,4,1,1,100,0,1
192227,-74.0740740740741,4,1,1,10,0,1
192404,-74.0740740740741,4,1,1,100,0,1
195051,-74.0740740740741,4,1,1,10,0,1
195227,-74.0740740740741,4,1,1,100,0,1
197874,-74.0740740740741,4,1,1,10,0,1
198051,-74.0740740740741,4,1,1,100,0,1
203521,-74.0740740740741,4,1,1,10,0,1
203698,-74.0740740740741,4,1,1,100,0,1
204404,-74.0740740740741,4,1,1,100,0,0
205462,-74.0740740740741,4,1,1,100,0,1
206345,-74.0740740740741,4,1,1,10,0,1
206521,-74.0740740740741,4,1,1,100,0,1
207227,-74.0740740740741,4,1,1,100,0,0
208286,-74.0740740740741,4,1,1,100,0,1
209168,-74.0740740740741,4,1,1,10,0,1
209345,-74.0740740740741,4,1,1,100,0,1
212698,-74.0740740740741,4,1,1,100,0,0
212874,-83.3333333333333,4,1,1,100,0,1
214815,-74.0740740740741,4,1,1,10,0,1
214992,-83.3333333333333,4,1,1,100,0,1
217639,-74.0740740740741,4,1,1,10,0,1
217815,-83.3333333333333,4,1,1,100,0,1
220462,-74.0740740740741,4,1,1,10,0,1
220639,-83.3333333333333,4,1,1,100,0,1
226109,-74.0740740740741,4,1,1,10,0,1
226286,-83.3333333333333,4,1,1,100,0,1
226992,-74.0740740740741,4,1,1,100,0,0
228051,-83.3333333333333,4,1,1,100,0,1
228933,-74.0740740740741,4,1,1,10,0,1
229109,-83.3333333333333,4,1,1,100,0,1
231757,-74.0740740740741,4,1,1,10,0,1
231933,-83.3333333333333,4,1,1,100,0,1
237580,-100,4,1,1,100,0,0

[Colours]
Combo1 : 200,34,38
Combo2 : 192,192,192
Combo3 : 0,79,157
Combo4 : 255,0,0

[HitObjects]
368,320,1110,6,0,L|380:200,1,120
312,48,1815,1,0,0:0:0:0:
128,328,2521,6,0,L|116:208,1,120
204,64,3227,2,0,L|216:184,1,120
380,228,3933,6,0,P|388:184|360:116,1,120
204,64,4639,1,0,0:0:0:0:
40,356,5345,6,0,L|160:364,1,120
296,264,6051,2,0,L|176:272,1,120
300,160,6757,6,0,P|356:176|392:228,1,120
284,356,7462,1,0,0:0:0:0:
40,128,8168,6,0,P|56:72|108:35,1,120
196,180,8874,2,0,P|145:208|82:196,1,120
208,80,9580,6,0,B|264:68|264:68|328:76,1,120
440,200,10286,1,0,0:0:0:0:
132,332,10992,6,0,B|72:320|72:320|36:268,1,120
132,132,11698,2,0,B|192:144|192:144|228:196,1,120
56,192,12404,6,0,P|32:136|52:76,1,120
200,12,13109,1,0,0:0:0:0:
284,336,13815,2,0,L|296:216,1,120
412,96,14521,2,0,L|400:216,1,120
248,144,15227,6,0,B|152:128|152:128|168:148,1,120
292,256,15933,2,0,B|388:272|388:272|372:252,1,120
328,168,16462,2,0,P|320:136|320:108,1,60
108,72,16992,5,0,0:0:0:0:
88,84,17168,1,0,0:0:0:0:
72,104,17345,1,0,0:0:0:0:
64,124,17521,1,0,0:0:0:0:
60,148,17698,1,0,0:0:0:0:
64,172,17874,1,0,0:0:0:0:
76,192,18051,6,0,L|144:204,1,60
196,276,18404,2,0,P|256:296|312:280,1,120
376,212,18933,1,0,0:0:0:0:
368,116,19109,1,0,0:0:0:0:
372,20,19286,2,0,P|432:40|460:88,1,120
368,116,19815,6,0,L|248:108,1,120
184,36,20345,2,0,P|128:16|68:32,1,120
124,112,20874,6,0,P|132:144|132:176,1,60
60,232,21227,2,0,P|40:288|60:344,1,120
156,356,21757,2,0,L|280:368,2,120
320,252,22815,1,0,0:0:0:0:
320,252,22992,1,0,0:0:0:0:
320,252,23168,2,0,P|376:272|432:256,1,120
468,164,23698,6,0,L|464:104,1,60
372,76,24051,2,0,B|312:84|312:84|252:72,1,120
168,28,24580,1,0,0:0:0:0:
72,24,24757,1,0,0:0:0:0:
20,104,24933,2,0,B|8:204|8:204|28:184,1,120
104,144,25462,6,0,P|164:128|216:148,1,120
160,228,25992,2,0,P|215:248|272:232,1,120
344,168,26521,6,0,L|408:176,1,60
440,264,26874,2,0,L|380:256,1,60
304,312,27227,1,0,0:0:0:0:
256,228,27404,2,0,L|196:220,1,60
244,136,27757,2,0,P|272:80|248:28,1,120
156,32,28286,6,0,L|88:40,1,60
76,132,28639,2,0,L|44:136,3,30
96,136,28992,2,0,B|92:172|92:172|96:196,1,60
192,196,29345,6,0,B|196:232|196:232|192:256,1,60
140,336,29698,2,0,L|212:344,1,60
288,308,30051,1,0,0:0:0:0:
376,344,30227,2,0,L|435:337,1,60
472,248,30580,2,0,L|480:124,2,120
360,92,31639,5,0,0:0:0:0:
288,32,31815,2,0,P|252:28|224:32,1,60
180,116,32168,6,0,P|120:128|72:100,1,120
232,204,32874,2,0,P|292:192|340:220,1,120
272,292,33404,2,0,L|392:308,1,120
468,252,33933,6,0,B|480:224|480:224|464:172|464:172|476:140,1,120
420,60,34462,2,0,L|372:172,1,120
276,164,34992,5,0,0:0:0:0:
108,72,35345,2,0,L|96:136,1,60
160,204,35698,1,0,0:0:0:0:
96,276,35874,2,0,L|108:340,1,60
204,344,36227,2,0,P|256:364|324:352,2,120
388,292,37286,6,0,P|396:260|396:232,1,60
348,148,37639,1,0,0:0:0:0:
420,84,37815,6,0,P|368:52|308:60,1,120
156,172,38521,2,0,P|208:204|268:196,1,120
230,107,39051,2,0,P|178:75|118:83,1,120
64,156,39580,6,0,L|72:280,1,120
256,336,40286,1,0,0:0:0:0:
256,336,40462,1,0,0:0:0:0:
256,336,40639,6,0,L|316:340,1,60
368,260,40992,2,0,P|396:252|420:232,1,60
448,140,41345,1,0,0:0:0:0:
400,56,41521,2,0,P|377:36|348:28,1,60
260,64,41874,2,0,B|200:76|200:76|140:56,2,120
80,128,42933,5,0,0:0:0:0:
168,168,43109,2,0,L|232:192,1,60
152,256,43462,6,0,P|116:304|128:364,1,120
316,336,44168,2,0,L|436:324,1,120
376,248,44698,2,0,L|256:236,1,120
316,160,45227,6,0,P|376:144|404:96,1,120
312,60,45757,2,0,L|192:56,1,120
120,120,46286,5,0,0:0:0:0:
84,308,46639,2,0,P|116:304|144:308,1,60
232,344,46992,1,0,0:0:0:0:
320,380,47168,2,0,P|352:384|380:380,1,60
436,304,47521,2,0,P|444:248|440:184,2,120
280,192,48580,6,0,P|280:160|284:132,1,60
352,64,48933,1,0,0:0:0:0:
264,32,49109,6,0,B|204:44|204:44|144:32,1,120
8,168,49815,2,0,B|68:156|68:156|128:168,1,120
112,264,50345,2,0,B|169:275|169:275|229:263,1,120
292,192,50874,6,0,P|324:188|352:192,1,60
404,272,51227,2,0,P|433:275|463:271,2,60
428,176,51757,1,0,0:0:0:0:
408,80,51933,5,0,0:0:0:0:
256,192,60404,12,0,62521,0:0:0:0:
408,104,63227,6,0,B|416:228|416:228|400:208,1,143.999995605469
320,152,63757,1,0,0:0:0:0:
232,104,63933,2,0,P|196:96|160:100,1,71.9999978027344
80,160,64286,2,0,P|64:232|100:288,1,143.999995605469
200,284,64815,5,0,0:0:0:0:
292,328,64992,2,0,L|364:332,1,71.9999978027344
428,252,65345,2,0,L|284:244,1,143.999995605469
212,176,65874,1,0,0:0:0:0:
312,160,66051,6,0,B|384:164|384:164|408:136|408:96,1,143.999995605469
340,24,66580,1,0,0:0:0:0:
244,56,66757,2,0,P|208:64|172:60,1,71.9999978027344
80,20,67109,2,0,L|88:168,1,143.999995605469
180,208,67639,5,0,0:0:0:0:
116,284,67815,2,0,P|112:320|120:356,1,71.9999978027344
212,312,68168,2,0,B|320:316|320:316|296:288,1,143.999995605469
272,192,68698,1,0,0:0:0:0:
360,236,68874,6,0,L|456:344,1,143.999995605469
500,252,69404,1,0,0:0:0:0:
432,176,69580,2,0,L|380:116,1,71.9999978027344
408,24,69933,2,0,P|336:24|288:72,1,143.999995605469
284,172,70462,5,0,0:0:0:0:
192,212,70639,2,0,P|184:176|188:140,1,71.9999978027344
100,188,70992,2,0,P|112:260|96:332,1,143.999995605469
300,324,71698,5,0,0:0:0:0:
372,256,71874,2,0,B|408:264|408:264|444:260|444:260|424:224|428:192,1,143.999995605469
256,84,72580,1,0,0:0:0:0:
160,52,72757,1,0,0:0:0:0:
180,152,72933,2,0,B|144:144|144:144|108:148|108:148|128:184|124:216,1,143.999995605469
304,308,73639,5,0,0:0:0:0:
304,308,73815,2,0,L|376:320,1,71.9999978027344
340,224,74168,2,0,L|268:212,1,71.9999978027344
336,136,74521,6,0,B|444:152|444:152|420:128,1,143.999995605469
364,44,75051,1,0,0:0:0:0:
268,72,75227,2,0,P|232:80|196:76,1,71.9999978027344
120,8,75580,2,0,B|100:80|100:80|116:148,1,143.999995605469
196,208,76109,5,0,0:0:0:0:
148,296,76286,2,0,P|184:308|224:304,1,71.9999978027344
296,244,76639,2,0,B|366:260|366:260|436:244,1,143.999995605469
492,160,77168,1,0,0:0:0:0:
440,72,77345,6,0,B|404:60|404:60|368:56,1,71.9999978027344
292,148,77698,2,0,B|256:160|256:160|222:163,1,71.9999978027344
156,44,78051,2,0,B|120:32|120:32|86:28,1,71.9999978027344
88,144,78404,2,0,P|120:208|100:276,1,143.999995605469
40,352,78933,5,0,0:0:0:0:
140,372,79109,2,0,P|176:376|212:372,1,71.9999978027344
292,312,79462,2,0,B|408:320|408:320|384:304,1,143.999995605469
328,220,79992,1,0,0:0:0:0:
400,152,80168,6,0,P|424:84|396:20,1,143.999995605469
324,88,80698,1,0,0:0:0:0:
228,120,80874,2,0,P|192:128|156:124,1,71.9999978027344
88,52,81227,2,0,P|56:116|72:184,1,143.999995605469
145,253,81757,5,0,0:0:0:0:
240,284,81933,2,0,P|244:320|240:356,1,71.9999978027344
332,312,82286,2,0,P|328:240|356:168,1,143.999995605469
184,64,82992,5,0,0:0:0:0:
136,152,83168,2,0,B|116:184|76:192|76:192|64:224|64:224|80:268,1,143.999995605469
268,316,83874,1,0,0:0:0:0:
364,288,84051,1,0,0:0:0:0:
284,228,84227,2,0,B|304:196|344:188|344:188|356:156|356:156|340:112,1,143.999995605469
148,76,84933,5,0,0:0:0:0:
148,76,85109,2,0,P|112:72|76:76,1,71.9999978027344
112,172,85462,2,0,P|148:176|184:172,1,71.9999978027344
248,100,85815,6,0,L|308:100,1,60
372,172,86168,2,0,B|400:184|436:176|436:176|444:212|440:240,1,120
412,316,86698,1,0,0:0:0:0:
324,352,86874,1,0,0:0:0:0:
240,304,87051,2,0,P|180:324|128:308,1,120
181,228,87580,6,0,B|209:172|209:172|197:116,1,120
140,36,88109,2,0,L|260:40,1,120
340,92,88639,6,0,P|376:104|400:104,1,60
476,48,88992,2,0,P|496:104|480:160,1,120
400,216,89521,2,0,L|408:340,2,120
232,308,90580,5,0,0:0:0:0:
232,308,90757,1,0,0:0:0:0:
232,308,90933,2,0,B|188:296|140:312|140:312|152:288,1,120
196,204,91462,6,0,P|208:176|212:144,1,60
252,60,91815,2,0,P|192:52|140:80,1,120
92,164,92345,1,0,0:0:0:0:
96,260,92521,1,0,0:0:0:0:
44,340,92698,2,0,P|100:356|156:336,1,120
216,260,93227,6,0,B|276:268|276:268|336:260,1,120
368,168,93757,2,0,B|331:119|331:119|283:83,1,120
192,112,94286,6,0,L|128:120,1,60
140,216,94639,2,0,L|80:223,1,60
120,312,94992,1,0,0:0:0:0:
140,216,95168,2,0,L|199:208,1,60
280,264,95521,2,0,B|288:272|304:276|304:276|316:264|316:264|340:240|388:244,1,120
476,284,96051,6,0,L|480:224,1,60
456,132,96404,2,0,L|460:96,3,30
412,116,96757,2,0,B|376:124|376:124|352:120,1,60
300,40,97109,6,0,L|240:32,1,60
164,92,97462,2,0,B|141:88|141:88|104:96,1,60
52,176,97815,1,0,0:0:0:0:
104,260,97992,2,0,B|126:263|126:263|164:256,1,60
236,196,98345,2,0,P|292:176|356:192,2,120
400,300,99404,5,0,0:0:0:0:
448,220,99580,2,0,P|452:192|448:160,1,60
404,76,99933,6,0,L|280:64,1,120
116,156,100639,2,0,L|235:167,1,120
184,248,101168,2,0,B|104:240|104:240|116:256|124:276,1,120
196,340,101698,6,0,P|256:360|308:344,1,120
356,260,102227,2,0,B|364:160|364:160|344:180,1,120
260,212,102757,5,0,0:0:0:0:
144,60,103109,2,0,P|112:64|84:60,1,60
20,132,103462,1,0,0:0:0:0:
84,204,103639,2,0,P|116:200|144:204,1,60
204,276,103992,2,0,P|260:296|316:276,2,120
376,192,105051,5,0,0:0:0:0:
472,208,105227,2,0,P|464:240|444:264,1,60
376,192,105580,6,0,P|408:132|456:112,1,120
264,88,106286,2,0,P|213:133|161:135,1,120
80,88,106815,2,0,L|88:208,1,120
28,284,107345,6,0,P|84:308|140:292,1,120
304,192,108051,1,0,0:0:0:0:
304,192,108227,1,0,0:0:0:0:
304,192,108404,6,0,L|364:196,1,60
452,156,108757,2,0,P|460:192|456:220,1,60
416,300,109109,1,0,0:0:0:0:
328,336,109286,2,0,P|320:300|324:272,1,60
300,184,109639,2,0,B|240:176|240:176|188:144,2,120
176,36,110698,5,0,0:0:0:0:
88,76,110874,2,0,L|92:136,1,60
28,208,111227,2,0,B|28:272|28:272|56:320,1,120
240,256,111933,2,0,P|300:240|356:264,1,120
292,336,112462,2,0,P|232:352|176:328,1,120
144,240,112992,6,0,L|160:120,1,120
248,84,113521,2,0,L|232:202,1,120
296,272,114051,5,0,0:0:0:0:
444,148,114404,2,0,P|456:116|456:88,1,60
388,20,114757,1,0,0:0:0:0:
292,32,114933,2,0,P|269:57|260:84,1,60
296,172,115286,2,0,P|300:232|280:288,2,120
104,160,116345,5,0,0:0:0:0:
140,248,116521,2,0,P|112:256|80:252,1,60
104,160,116874,6,0,P|132:152|164:156,1,60
240,212,117227,2,0,L|300:216,1,60
368,284,117580,2,0,B|352:224|352:224|384:172,1,120
444,100,118109,2,0,P|384:120|332:104,1,120
276,24,118639,6,0,L|216:28,1,60
164,108,118992,2,0,L|104:112,2,60
244,160,119521,1,0,0:0:0:0:
192,240,119697,5,0,0:0:0:0:
256,192,128168,12,0,130286,0:0:0:0:
136,272,130992,6,0,B|124:160|124:160|148:184,1,143.999995605469
236,228,131521,1,0,0:0:0:0:
312,164,131698,2,0,P|320:128|316:92,1,71.9999978027344
404,144,132051,2,0,P|396:212|416:284,1,143.999995605469
496,348,132580,5,0,0:0:0:0:
396,372,132757,2,0,B|352:380|352:380|320:372,1,71.9999978027344
256,300,133109,2,0,B|212:288|212:288|112:304,1,143.999995605469
16,324,133639,1,0,0:0:0:0:
64,236,133815,6,0,P|84:172|72:96,1,143.999995605469
8,20,134345,1,0,0:0:0:0:
108,16,134521,2,0,L|184:24,1,71.9999978027344
252,96,134874,2,0,P|320:116|384:88,1,143.999995605469
440,4,135404,5,0,0:0:0:0:
476,96,135580,2,0,B|484:136|484:136|480:168,1,71.9999978027344
400,228,135933,2,0,B|392:268|392:268|396:300|396:300|364:284|328:288,1,143.999995605469
232,328,136462,1,0,0:0:0:0:
140,368,136639,6,0,P|68:360|36:300,1,143.999995605469
88,216,137168,1,0,0:0:0:0:
188,224,137345,2,0,L|260:228,1,71.9999978027344
304,136,137698,2,0,L|156:128,1,143.999995605469
92,52,138227,5,0,0:0:0:0:
192,32,138404,2,0,L|264:36,1,71.9999978027344
360,68,138757,2,0,B|472:76|472:76|440:88,1,143.999995605469
348,264,139462,5,0,0:0:0:0:
260,312,139639,2,0,B|220:320|212:312|212:312|200:304|160:312|160:312|176:292|184:272,1,143.999995605469
292,108,140345,1,0,0:0:0:0:
208,56,140521,1,0,0:0:0:0:
300,16,140698,2,0,B|340:8|348:16|348:16|360:24|400:16|400:16|384:36|376:56,1,143.999995605469
360,252,141404,5,0,0:0:0:0:
360,252,141580,2,0,L|288:256,1,71.9999978027344
252,352,141933,2,0,L|324:348,1,71.9999978027344
288,255,142286,6,0,B|212:259|212:259|172:247|172:247|192:239|200:231,1,143.999995605469
252,152,142815,1,0,0:0:0:0:
300,64,142992,2,0,P|264:52|228:56,1,71.9999978027344
252,152,143345,2,0,P|328:164|384:116,1,143.999995605469
412,32,143874,5,0,0:0:0:0:
476,108,144051,2,0,B|484:144|484:144|480:180,1,71.9999978027344
444,272,144404,2,0,B|440:296|440:296|448:328|448:328|432:320|412:320|412:320|400:328|364:328,1,143.999995605469
268,296,144933,1,0,0:0:0:0:
176,256,145109,6,0,P|140:248|104:252,1,71.9999978027344
256,160,145462,2,0,P|292:168|328:164,1,71.9999978027344
176,56,145815,2,0,P|140:48|104:52,1,71.9999978027344
256,160,146168,2,0,B|288:172|328:164|328:164|364:172|400:164,1,143.999995605469
468,88,146698,5,0,0:0:0:0:
408,8,146874,2,0,P|384:32|370:72,1,71.9999978027344
468,88,147227,2,0,P|500:152|484:220,1,143.999995605469
400,276,147757,1,0,0:0:0:0:
308,312,147933,6,0,L|164:304,1,143.999995605469
68,336,148462,1,0,0:0:0:0:
104,240,148639,2,0,P|109:202|103:167,1,71.9999978027344
23,107,148992,2,0,P|85:67|152:80,1,143.999995605469
228,144,149521,5,0,0:0:0:0:
320,184,149698,2,0,P|356:188|392:180,1,71.9999978027344
468,116,150051,2,0,B|440:184|440:184|456:256,1,143.999995605469
268,328,150757,5,0,0:0:0:0:
168,308,150933,2,0,B|176:272|204:248|204:248|188:252|188:252|204:232|208:196,1,143.999995605469
304,24,151639,1,0,0:0:0:0:
244,104,151815,1,0,0:0:0:0:
344,124,151992,2,0,B|336:160|308:184|308:184|324:180|324:180|308:200|304:236,1,143.999995605469
488,320,152698,5,0,0:0:0:0:
488,320,152874,2,0,P|452:304|420:304,1,71.9999978027344
328,344,153227,2,0,P|292:343|259:328,1,71.9999978027344
216,236,153580,5,0,0:0:0:0:
400,188,159227,6,0,L|404:152,3,35.9999989013672
352,144,159580,2,0,L|356:108,3,35.9999989013672
308,96,159933,2,0,L|312:60,3,35.9999989013672
260,52,160286,2,0,L|264:16,3,35.9999989013672
224,44,160639,6,0,L|228:80,3,35.9999989013672
176,88,160992,2,0,L|180:124,3,35.9999989013672
132,136,161345,2,0,L|136:172,3,35.9999989013672
84,180,161698,2,0,L|88:216,3,35.9999989013672
256,192,162051,12,0,164168,0:0:0:0:
370,311,164874,6,0,L|379:249,1,60
458,197,165227,2,0,L|449:135,1,60
416,47,165580,2,0,P|363:76|303:70,1,120
223,20,166109,1,0,0:0:0:0:
165,97,166286,6,0,L|106:101,1,60
52,181,166639,2,0,L|111:185,1,60
163,266,166992,2,0,P|222:293|276:283,1,120
352,227,167521,1,0,0:0:0:0:
429,284,167698,5,0,0:0:0:0:
440,188,167874,2,0,B|458:98|458:98|433:119,1,120
342,138,168404,2,0,P|291:154|225:141,1,120
152,80,168933,2,0,P|119:71|86:71,1,60
28,141,169286,6,0,B|17:236|17:236|41:219,1,120
97,296,169815,2,0,P|155:276|212:288,1,120
281,354,170345,1,0,0:0:0:0:
364,307,170521,6,0,L|431:313,1,60
478,232,170874,2,0,L|418:226,1,60
330,186,171227,2,0,B|343:157|371:139|371:139|352:86,1,120
272,30,171757,1,0,0:0:0:0:
191,82,171933,6,0,P|162:87|132:83,1,60
89,169,172286,2,0,P|118:164|148:168,1,60
120,260,172639,2,0,L|112:319,2,60
213,238,173168,1,0,0:0:0:0:
290,295,173345,6,0,P|344:319|400:302,1,120
455,223,173874,2,0,L|465:99,1,120
386,45,174404,2,0,B|362:37|337:40|337:40|320:30|320:30|296:37|269:32,1,120
177,57,174933,6,0,P|116:52|79:96,1,120
55,186,175462,2,0,L|61:249,1,60
152,276,175815,2,0,L|146:216,1,60
238,243,176168,6,0,P|274:255|298:255,1,60
377,203,176521,2,0,L|445:207,1,60
396,119,176874,2,0,B|377:98|378:63|378:63|313:70,1,120
230,110,177404,1,0,0:0:0:0:
143,68,177580,6,0,L|74:61,1,60
51,152,177933,2,0,L|120:145,1,60
84,238,178286,2,0,P|58:302|82:342,1,120
177,348,178815,1,0,0:0:0:0:
263,305,178992,5,0,0:0:0:0:
354,334,179168,2,0,B|425:338|425:338|444:322|446:294,1,120
406,206,179698,2,0,P|398:145|421:92,1,120
484,20,180227,2,0,L|420:11,1,60
337,52,180580,6,0,P|279:72|221:60,1,120
190,151,181109,2,0,P|132:131|74:143,1,120
25,225,181639,1,0,0:0:0:0:
100,283,181815,6,0,L|95:348,1,60
186,310,182168,2,0,L|190:250,1,60
274,298,182521,2,0,P|331:314|386:291,1,120
421,201,183051,1,0,0:0:0:0:
472,120,183227,6,0,L|464:61,1,60
371,32,183580,2,0,L|379:91,1,60
318,166,183933,2,0,L|326:225,2,60
247,100,184462,1,0,0:0:0:0:
157,136,184639,5,0,0:0:0:0:
73,88,184815,2,0,P|57:146|83:199,1,120
246,297,185521,1,0,0:0:0:0:
338,271,185698,1,0,0:0:0:0:
408,335,185874,2,0,P|435:280|422:226,1,120
282,92,186580,5,0,0:0:0:0:
199,142,186757,2,0,B|182:147|182:147|133:138|133:138|118:143,2,80
106,53,187462,5,0,0:0:0:0:
27,108,187639,2,0,B|30:142|16:167|16:167|11:193|29:226,1,120
191,325,188345,1,0,0:0:0:0:
245,246,188521,1,0,0:0:0:0:
326,296,188698,2,0,B|347:313|347:313|342:266|366:223,1,120
476,65,189404,5,0,0:0:0:0:
386,99,189580,1,0,0:0:0:0:
357,62,191345,6,0,B|352:99|325:123|325:123|335:145|335:145|310:168|304:206,1,162.000000617981
328,306,191874,1,0,0:0:0:0:
229,268,192051,2,0,P|189:260|147:266,1,81.0000003089905
79,344,192404,2,0,P|43:272|72:198,1,162.000000617981
165,154,192933,1,0,0:0:0:0:
262,191,193109,6,0,B|276:149|259:112|259:112|300:134|345:117,1,162.000000617981
432,71,193639,1,0,0:0:0:0:
472,167,193815,2,0,L|466:249,1,81.0000003089905
463,353,194168,2,0,P|398:306|318:309,1,162.000000617981
229,364,194698,5,0,0:0:0:0:
130,328,194874,2,0,L|49:322,1,81.0000003089905
120,244,195227,2,0,P|165:177|120:120,1,162.000000617981
19,91,195757,1,0,0:0:0:0:
109,36,195933,6,0,B|152:48|152:48|223:33|223:33|268:43,1,162.000000617981
340,118,196462,1,0,0:0:0:0:
438,79,196639,2,0,P|447:120|437:162,1,81.0000003089905
356,223,196992,2,0,B|350:349|350:349|331:319,1,162.000000617981
246,255,197521,5,0,0:0:0:0:
152,304,197698,2,0,P|112:313|70:308,1,81.0000003089905
22,215,198051,2,0,B|33:93|33:93|52:132,1,162.000000617981
256,80,198757,5,0,0:0:0:0:
347,131,198933,2,0,B|425:138|425:138|384:159|363:205,1,162.000000617981
218,346,199639,1,0,0:0:0:0:
256,248,199815,1,0,0:0:0:0:
153,274,199992,2,0,B|75:267|75:267|116:246|137:200,1,162.000000617981
21,29,200698,5,0,0:0:0:0:
21,29,200874,2,0,L|102:36,1,81.0000003089905
171,115,201227,2,0,L|252:108,1,81.0000003089905
330,37,201580,6,0,P|362:112|327:180,1,162.000000617981
426,217,202109,2,0,P|391:287|423:359,1,162.000000617981
318,349,202639,2,0,B|284:349|260:338|260:338|217:354|217:354|191:342|161:344,1,162.000000617981
57,357,203168,5,0,0:0:0:0:
106,263,203345,2,0,P|123:223|119:184,1,81.0000003089905
30,129,203698,2,0,B|45:12|45:12|69:54,1,162.000000617981
162,94,204227,1,0,0:0:0:0:
257,49,204404,6,0,P|296:40|338:44,1,81.0000003089905
461,147,204757,2,0,P|422:156|380:152,1,81.0000003089905
224,217,205109,2,0,P|263:208|303:212,1,81.0000003089905
427,316,205462,2,0,B|393:332|349:321|349:321|316:335|316:335|295:326|267:329,1,162.000000617981
167,351,205992,5,0,0:0:0:0:
87,281,206168,2,0,L|4:274,1,81.0000003089905
71,190,206521,2,0,P|122:126|100:55,1,162.000000617981
2,15,207051,1,0,0:0:0:0:
39,113,207227,5,0,0:0:0:0:
350,59,207757,1,0,0:0:0:0:
152,336,208286,2,0,B|180:322|218:328|218:328|244:313|244:313|279:322|312:316,1,162.000000617981
408,263,208815,5,0,0:0:0:0:
472,169,208992,2,0,P|479:127|471:88,1,81.0000003089905
368,42,209345,2,0,L|205:47,1,162.000000617981
92,244,210051,5,0,0:0:0:0:
170,325,210227,2,0,B|210:340|210:340|235:328|246:300|246:300|279:293|308:307,1,162.000000617981
440,122,210933,1,0,0:0:0:0:
375,28,211109,1,0,0:0:0:0:
325,130,211286,2,0,B|285:145|285:145|260:133|249:105|249:105|216:98|187:112,1,162.000000617981
17,264,211992,5,0,0:0:0:0:
17,264,212168,2,0,L|24:345,1,81.0000003089905
112,273,212521,2,0,L|105:192,1,81.0000003089905
199,229,212874,6,0,B|206:310|206:310|234:283|274:279,1,143.999995605469
361,289,213404,1,0,0:0:0:0:
434,357,213580,2,0,L|505:347,1,71.9999978027344
460,256,213933,2,0,P|428:192|449:126,1,143.999995605469
506,43,214462,5,0,0:0:0:0:
406,27,214639,2,0,L|331:31,1,71.9999978027344
281,116,214992,2,0,P|216:145|148:124,1,143.999995605469
94,39,215521,1,0,0:0:0:0:
39,123,215698,6,0,B|33:150|47:179|47:179|40:206|40:206|58:229|62:264,1,143.999995605469
30,355,216227,1,0,0:0:0:0:
128,332,216404,2,0,P|169:324|200:327,1,71.9999978027344
291,368,216757,2,0,P|363:361|399:303,1,143.999995605469
376,206,217286,5,0,0:0:0:0:
449,137,217462,2,0,L|454:65,1,71.9999978027344
355,87,217815,2,0,B|325:91|295:77|295:77|253:86|253:86|215:77,1,143.999995605469
117,47,218345,1,0,0:0:0:0:
41,113,218521,6,0,B|26:168|81:187|56:259,1,143.999995605469
19,346,219051,1,0,0:0:0:0:
115,316,219227,2,0,L|192:322,1,71.9999978027344
270,264,219580,2,0,B|303:240|303:240|193:231,1,143.999995605469
112,180,220109,5,0,0:0:0:0:
202,135,220286,2,0,L|278:141,1,71.9999978027344
363,94,220639,2,0,P|445:112|462:166,1,143.999995605469
343,325,221345,5,0,0:0:0:0:
242,326,221521,2,0,B|202:328|170:314|170:314|135:310|98:334,1,143.999995605469
257,200,222227,1,0,0:0:0:0:
187,126,222404,1,0,0:0:0:0:
276,79,222580,2,0,B|316:77|348:91|348:91|383:95|420:71,1,143.999995605469
345,263,223286,5,0,0:0:0:0:
345,263,223462,2,0,L|274:270,1,71.9999978027344
198,337,223815,2,0,L|127:330,1,71.9999978027344
96,233,224168,6,0,B|62:221|62:221|25:226,2,71.9999978027344
178,173,224698,2,0,B|212:185|212:185|249:180,2,71.9999978027344
221,81,225227,2,0,B|328:68|328:68|318:83|315:105,1,143.999995605469
415,121,225757,5,0,0:0:0:0:
480,197,225933,2,0,P|449:216|412:221,1,71.9999978027344
335,285,226286,2,0,B|262:270|262:270|191:280,1,143.999995605469
103,325,226815,1,0,0:0:0:0:
25,241,226992,6,0,P|17:198|23:162,1,81.0000003089905
159,78,227345,2,0,L|153:163,1,81.0000003089905
305,109,227698,2,0,P|313:66|307:30,1,81.0000003089905
411,133,228051,2,0,P|390:194|419:271,1,143.999995605469
488,335,228580,5,0,0:0:0:0:
390,360,228757,2,0,L|317:353,1,71.9999978027344
255,274,229109,2,0,P|187:251|118:269,1,143.999995605469
41,333,229639,1,0,0:0:0:0:
31,232,229815,6,0,B|19:193|19:193|58:96,1,143.999995605469
153,64,230345,2,0,B|165:103|165:103|126:200,1,143.999995605469
111,298,230874,2,0,P|182:284|224:227,1,143.999995605469
240,129,231404,5,0,0:0:0:0:
330,172,231580,2,0,L|402:177,1,71.9999978027344
433,272,231933,2,0,B|361:254|361:254|289:264,1,143.999995605469
99,325,232639,5,0,0:0:0:0:
44,240,232815,2,0,B|62:207|62:207|52:191|48:172|48:172|82:179|117:168,1,143.999995605469
294,74,233521,1,0,0:0:0:0:
381,123,233698,1,0,0:0:0:0:
319,202,233874,2,0,B|301:235|301:235|311:251|315:270|315:270|281:263|246:274,1,143.999995605469
182,82,234580,5,0,0:0:0:0:
182,82,234757,2,0,L|256:88,1,71.9999978027344
194,169,235109,2,0,L|122:163,1,71.9999978027344
152,259,235462,5,0,0:0:0:0:
226,327,235639,2,0,B|252:351|252:351|232:294|265:243,1,143.999995605469
370,75,236345,1,0,0:0:0:0:
316,160,236521,1,0,0:0:0:0:
234,100,236698,2,0,B|208:76|208:76|228:133|195:184,1,143.999995605469
21,79,237404,5,0,0:0:0:0:
114,41,237580,1,0,0:0:0:0:
256,192,237757,12,0,240404,0:0:0:0:
387,57,241109,6,0,L|376:120,1,60
437,190,241462,2,0,P|447:249|416:308,1,120
329,328,241992,1,0,0:0:0:0:
244,283,242168,1,0,0:0:0:0:
158,327,242345,2,0,B|66:315|66:315|86:294,1,120
141,217,242874,6,0,P|172:162|163:108,1,120
110,26,243404,2,0,L|229:35,1,120
323,13,243933,5,0,0:0:0:0:
381,88,244109,1,0,0:0:0:0:
469,51,244286,2,0,P|477:78|471:122,1,60
416,185,244639,2,0,L|419:245,2,60
328,224,245168,2,0,L|334:343,1,120
245,305,245698,6,0,L|239:186,1,120
156,235,246227,2,0,P|98:256|42:239,1,120
95,158,246757,6,0,P|105:123|103:97,1,60
40,27,247109,2,0,B|103:43|103:43|158:32,1,120
250,8,247639,1,0,0:0:0:0:
342,33,247815,1,0,0:0:0:0:
274,101,247992,2,0,B|284:198|284:198|299:177,1,120
359,252,248521,6,0,B|372:233|372:233|382:330,1,120
287,312,249051,2,0,P|231:288|174:298,1,120
95,353,249580,5,0,0:0:0:0:
24,287,249757,1,0,0:0:0:0:
73,204,249933,1,0,0:0:0:0:
