osu file format v14

[General]
AudioFilename: audio.mp3
AudioLeadIn: 0
PreviewTime: 62874
Countdown: 1
SampleSet: Normal
StackLeniency: 0.7
Mode: 0
LetterboxInBreaks: 0
WidescreenStoryboard: 0

[Editor]
Bookmarks: 29345,63227,97109,130992,164874,191698,212874
DistanceSpacing: 1
BeatDivisor: 4
GridSize: 4
TimelineZoom: 1.7

[Metadata]
Title:The Vengeful One
TitleUnicode:The Vengeful One
Artist:Disturbed
ArtistUnicode:Disturbed
Creator:Hullahopp
Version:Dying Light
Source:
Tags:
BeatmapID:1349497
BeatmapSetID:635921

[Difficulty]
HPDrainRate:7
CircleSize:3.8
OverallDifficulty:8.8
ApproachRate:9.4
SliderMultiplier:1.6
SliderTickRate:1

[Events]
//Background and Video events
0,0,"TheVengefulOne.png",0,0
//Break Periods
//Storyboard Layer 0 (Background)
//Storyboard Layer 1 (Fail)
//Storyboard Layer 2 (Pass)
//Storyboard Layer 3 (Foreground)
//Storyboard Sound Samples

[TimingPoints]
1110,352.941176470588,4,1,1,100,1,0
51933,-500,4,1,1,100,0,0
60404,-100,4,1,1,100,0,0
63227,-83.3333333333333,4,1,1,100,0,1
65168,-83.3333333333333,4,1,1,10,0,1
65345,-83.3333333333333,4,1,1,100,0,1
67992,-83.3333333333333,4,1,1,10,0,1
68168,-83.3333333333333,4,1,1,100,0,1
70815,-83.3333333333333,4,1,1,10,0,1
70992,-83.3333333333333,4,1,1,100,0,1
76462,-83.3333333333333,4,1,1,10,0,1
76639,-83.3333333333333,4,1,1,100,0,1
77345,-83.3333333333333,4,1,1,100,0,0
78404,-83.3333333333333,4,1,1,100,0,1
79286,-83.3333333333333,4,1,1,10,0,1
79462,-83.3333333333333,4,1,1,100,0,1
82109,-83.3333333333333,4,1,1,10,0,1
82286,-83.3333333333333,4,1,1,100,0,1
85815,-100,4,1,1,100,0,0
119698,-500,4,1,1,100,0,0
128168,-100,4,1,1,100,0,0
130992,-83.3333333333333,4,1,1,100,0,1
132933,-83.3333333333333,4,1,1,10,0,1
133109,-83.3333333333333,4,1,1,100,0,1
135757,-83.3333333333333,4,1,1,10,0,1
135933,-83.3333333333333,4,1,1,100,0,1
138580,-83.3333333333333,4,1,1,10,0,1
138757,-83.3333333333333,4,1,1,100,0,1
144227,-83.3333333333333,4,1,1,10,0,1
144404,-83.3333333333333,4,1,1,100,0,1
145109,-83.3333333333333,4,1,1,100,0,0
146168,-83.3333333333333,4,1,1,100,0,1
147051,-83.3333333333333,4,1,1,10,0,1
147227,-83.3333333333333,4,1,1,100,0,1
149874,-83.3333333333333,4,1,1,10,0,1
150051,-83.3333333333333,4,1,1,100,0,1
153580,-83.3333333333333,4,1,1,100,0,0
164874,-74.0740740740741,4,1,1,100,0,0
165227,-100,4,1,1,100,0,0
170521,-74.0740740740741,4,1,1,100,0,0
170874,-100,4,1,1,100,0,0
176168,-74.0740740740741,4,1,1,100,0,0
176521,-100,4,1,1,100,0,0
181815,-74.0740740740741,4,1,1,100,0,0
182168,-100,4,1,1,100,0,0
186757,-66.6666666666667,4,1,1,100,0,0
186874,-66.6666666666667,4,1,1,10,0,0
186992,-100,4,1,1,100,0,0
187109,-100,4,1,1,10,0,0
187227,-200,4,1,1,100,0,0
187345,-200,4,1,1,10,0,0
187462,-100,4,1,1,100,0,0
191345,-74.0740740740741,4,1,1,100,0,1
192227,-74.0740740740741,4,1,1,10,0,1
192404,-74.0740740740741,4,1,1,100,0,1
195051,-74.0740740740741,4,1,1,10,0,1
195227,-74.0740740740741,4,1,1,100,0,1
197874,-74.0740740740741,4,1,1,10,0,1
198051,-74.0740740740741,4,1,1,100,0,1
203521,-74.0740740740741,4,1,1,10,0,1
203698,-74.0740740740741,4,1,1,100,0,1
204404,-74.0740740740741,4,1,1,100,0,0
205462,-74.0740740740741,4,1,1,100,0,1
206345,-74.0740740740741,4,1,1,10,0,1
206521,-74.0740740740741,4,1,1,100,0,1
207227,-74.0740740740741,4,1,1,100,0,0
207315,-74.0740740740741,4,1,1,10,0,0
207757,-74.0740740740741,4,1,1,100,0,0
207845,-74.0740740740741,4,1,1,10,0,0
208286,-74.0740740740741,4,1,1,100,0,1
209168,-74.0740740740741,4,1,1,10,0,1
209345,-74.0740740740741,4,1,1,100,0,1
212698,-74.0740740740741,4,1,1,100,0,0
212874,-74.0740740740741,4,1,1,100,0,1
214815,-74.0740740740741,4,1,1,10,0,1
214992,-74.0740740740741,4,1,1,100,0,1
217639,-74.0740740740741,4,1,1,10,0,1
217815,-74.0740740740741,4,1,1,100,0,1
220462,-74.0740740740741,4,1,1,10,0,1
220639,-74.0740740740741,4,1,1,100,0,1
226109,-74.0740740740741,4,1,1,10,0,1
226286,-74.0740740740741,4,1,1,100,0,1
226992,-74.0740740740741,4,1,1,100,0,0
228051,-74.0740740740741,4,1,1,100,0,1
228933,-74.0740740740741,4,1,1,10,0,1
229109,-74.0740740740741,4,1,1,100,0,1
231757,-74.0740740740741,4,1,1,10,0,1
231933,-74.0740740740741,4,1,1,100,0,1
237580,-74.0740740740741,4,1,1,100,0,0

[Colours]
Combo1 : 200,34,38
Combo2 : 192,192,192
Combo3 : 0,79,157
Combo4 : 255,0,0

[HitObjects]
352,316,1110,6,0,L|368:156,1,160
352,316,1815,1,0,0:0:0:0:
160,316,2521,6,0,L|144:156,1,160
160,316,3227,2,0,P|160:236|216:184,1,160
408,264,3933,6,0,L|392:104,1,160
408,264,4638,1,0,0:0:0:0:
140,252,5345,6,0,L|156:92,1,160
140,252,6051,2,0,P|140:172|84:120,1,160
384,304,6757,6,0,L|224:288,1,160
460,216,7462,1,0,0:0:0:0:
128,56,8168,6,0,L|288:40,1,160
152,72,8874,2,0,P|80:108|60:184,1,160
256,356,9580,6,0,L|276:196,1,160
92,352,10286,1,0,0:0:0:0:
168,48,10992,6,0,L|176:208,1,160
176,68,11698,2,0,P|104:24|32:36,1,160
292,256,12404,6,0,L|456:244,1,160
272,120,13109,1,0,0:0:0:0:
232,336,13815,6,0,L|64:320,1,160
248,332,14521,2,0,P|188:276|188:200,1,160
440,96,15227,6,0,L|452:256,1,160
248,192,15933,2,0,L|260:32,1,160
112,180,16462,2,0,L|120:260,1,80
320,312,16992,5,0,0:0:0:0:
312,292,17169,1,0,0:0:0:0:
304,268,17345,1,0,0:0:0:0:
296,248,17521,1,0,0:0:0:0:
288,228,17698,1,0,0:0:0:0:
280,208,17874,1,0,0:0:0:0:
372,96,18051,5,0,0:0:0:0:
132,72,18227,1,0,0:0:0:0:
200,184,18404,2,0,L|184:264,1,80
392,324,18757,1,0,0:0:0:0:
416,196,18933,1,0,0:0:0:0:
304,284,19109,1,0,0:0:0:0:
208,176,19286,2,0,P|164:180|128:176,1,80
64,72,19639,5,0,0:0:0:0:
220,172,19815,2,0,P|224:216|220:252,1,80
76,328,20168,1,0,0:0:0:0:
208,164,20345,2,0,P|252:160|288:164,1,80
368,300,20698,1,0,0:0:0:0:
452,152,20874,5,0,0:0:0:0:
484,348,21051,1,0,0:0:0:0:
356,132,21227,2,0,L|276:136,1,80
208,320,21580,1,0,0:0:0:0:
88,240,21757,2,0,P|44:244|8:240,1,80
136,328,22109,2,0,P|178:316|214:314,1,80
76,168,22462,6,0,P|39:151|7:128,1,80
148,36,22815,1,0,0:0:0:0:
184,232,22992,1,0,0:0:0:0:
260,56,23168,1,0,0:0:0:0:
332,160,23345,2,0,P|372:168|412:168,1,80
264,60,23698,5,0,0:0:0:0:
248,284,23874,1,0,0:0:0:0:
188,140,24051,2,0,L|176:220,1,80
320,308,24404,1,0,0:0:0:0:
444,288,24580,1,0,0:0:0:0:
384,224,24757,1,0,0:0:0:0:
312,328,24933,2,0,P|272:340|232:336,1,80
152,224,25286,5,0,0:0:0:0:
312,240,25462,2,0,P|324:280|320:320,1,80
212,372,25815,1,0,0:0:0:0:
136,232,25992,2,0,P|124:192|128:152,1,80
284,80,26345,2,0,P|287:119|275:157,1,80
120,44,26698,5,0,0:0:0:0:
200,220,26874,1,0,0:0:0:0:
64,144,27051,1,0,0:0:0:0:
284,96,27227,1,0,0:0:0:0:
148,44,27404,1,0,0:0:0:0:
180,252,27580,1,0,0:0:0:0:
40,144,27757,2,0,B|84:160|84:160|136:152|136:152|164:164,1,120
180,176,28109,5,0,0:0:0:0:
272,324,28286,1,0,0:0:0:0:
348,120,28462,1,0,0:0:0:0:
180,192,28639,1,0,0:0:0:0:
184,212,28727,1,0,0:0:0:0:
200,236,28815,1,0,0:0:0:0:
224,248,28904,1,0,0:0:0:0:
252,248,28992,1,0,0:0:0:0:
248,72,29168,1,0,0:0:0:0:
164,200,29345,6,0,B|148:240|148:240|152:280,1,80
292,236,29698,1,0,0:0:0:0:
160,188,29874,1,0,0:0:0:0:
296,348,30051,1,0,0:0:0:0:
300,120,30227,1,0,0:0:0:0:
412,336,30404,1,0,0:0:0:0:
284,244,30580,2,0,P|248:256|204:256,1,80
84,132,30933,6,0,P|121:118|161:117,1,80
292,272,31286,2,0,P|255:286|224:312,1,80
384,348,31639,1,0,0:0:0:0:
400,132,31815,1,0,0:0:0:0:
292,284,31992,1,0,0:0:0:0:
396,124,32168,6,0,P|400:84|392:44,1,80
236,136,32521,2,0,P|245:174|267:209,1,80
432,116,32874,2,0,P|409:82|377:57,1,80
228,128,33227,1,0,0:0:0:0:
360,304,33404,2,0,P|367:264|362:223,1,80
216,124,33757,5,0,0:0:0:0:
176,348,33933,2,0,P|224:304|224:252,1,120
192,224,34286,1,0,0:0:0:0:
12,152,34462,1,0,0:0:0:0:
216,124,34639,1,0,0:0:0:0:
0,252,34815,1,0,0:0:0:0:
116,48,34992,6,0,L|200:52,1,80
292,172,35345,1,0,0:0:0:0:
368,68,35521,1,0,0:0:0:0:
424,196,35698,1,0,0:0:0:0:
368,60,35875,1,0,0:0:0:0:
280,256,36051,1,0,0:0:0:0:
368,48,36227,2,0,P|328:56|288:52,1,80
152,136,36580,6,0,P|188:153|227:158,1,80,0|0,0:3|0:3,0:3:0:0:
416,184,36933,2,0,P|387:212|352:231,1,80,0|0,0:3|0:3,0:3:0:0:
160,140,37286,1,0,0:0:0:0:
332,244,37462,1,0,0:0:0:0:
104,224,37639,1,0,0:0:0:0:
340,252,37815,6,0,B|356:228|352:200|352:200|368:176|368:176|356:136|376:100,1,160
336,352,38521,2,0,B|272:340|248:284|248:284|228:308|208:316,1,160
180,168,39051,2,0,B|168:200|180:240|180:240|156:224|156:224|124:232|92:220,1,160
252,88,39580,6,0,B|288:120|252:200|252:200|276:196|288:184,1,160
440,96,40286,1,0,0:0:0:0:
456,16,40462,1,0,0:0:0:0:
408,120,40639,6,0,B|400:136|400:136|400:156|392:176|392:176|396:200,1,80
448,336,40992,1,0,0:0:0:0:
496,200,41168,1,0,0:0:0:0:
276,264,41345,1,0,0:0:0:0:
432,332,41521,1,0,0:0:0:0:
180,340,41698,1,0,0:0:0:0:
296,248,41874,2,0,P|304:204|300:168,1,80
116,136,42227,6,0,P|138:168|169:193,1,80
300,88,42580,2,0,P|260:87|221:97,1,80
356,224,42933,1,0,0:0:0:0:
432,84,43109,1,0,0:0:0:0:
452,300,43286,1,0,0:0:0:0:
280,264,43462,6,0,B|252:256|252:256|200:264,1,80
40,332,43815,2,0,B|68:340|68:340|120:332,1,80
76,120,44168,2,0,P|60:156|64:196,1,80
184,244,44521,1,0,0:0:0:0:
96,40,44698,2,0,P|56:37|20:54,1,80
176,236,45051,5,0,0:0:0:0:
184,24,45227,2,0,B|192:60|168:96|168:96|180:108|212:104,1,120
252,96,45580,1,0,0:0:0:0:
320,224,45757,1,0,0:0:0:0:
392,40,45933,1,0,0:0:0:0:
444,176,46109,1,0,0:0:0:0:
312,212,46286,6,0,L|232:208,1,80
128,296,46639,1,0,0:0:0:0:
64,156,46815,1,0,0:0:0:0:
12,344,46992,1,0,0:0:0:0:
60,144,47168,1,0,0:0:0:0:
180,368,47345,1,0,0:0:0:0:
56,132,47521,2,0,P|96:144|136:144,1,80
308,40,47874,6,0,P|266:42|228:56,1,80
140,228,48227,2,0,P|178:211|208:185,1,80
316,40,48580,1,0,0:0:0:0:
376,204,48757,1,0,0:0:0:0:
456,96,48933,1,0,0:0:0:0:
252,144,49109,6,0,B|204:156|204:156|144:156|144:156|96:172,1,160
248,336,49815,2,0,B|208:264|208:264|288:240,1,160
444,204,50345,2,0,B|484:276|484:276|404:300,1,160
368,120,50874,5,0,0:0:0:0:
288,12,51051,1,0,0:0:0:0:
212,200,51227,1,0,0:0:0:0:
148,48,51404,1,0,0:0:0:0:
116,248,51580,1,0,0:0:0:0:
144,52,51757,1,0,0:0:0:0:
44,128,51933,6,0,P|80:160|240:136,1,224
284,60,54757,6,0,B|268:96|280:140|280:140|344:136|376:192|360:236,1,224
288,216,57580,6,0,B|286:275|227:305|168:271|165:205|215:174,1,224
384,96,60404,5,0,0:0:0:0:
220,168,60580,2,0,B|176:176|176:176|140:168|120:128|120:128|104:164,1,160
292,312,61286,1,0,0:0:0:0:
224,172,61462,1,0,0:0:0:0:
408,288,61639,2,0,B|384:244|384:244|408:216|416:180|416:180|384:160,1,160
264,52,62345,5,0,0:0:0:0:
196,188,62521,2,0,L|208:272,1,80
284,56,62874,1,0,0:0:0:0:
96,148,63051,1,0,0:0:0:0:
348,264,63227,6,0,B|320:136|320:136|364:168|408:164,1,191.999994140625
404,16,63757,1,0,0:0:0:0:
196,144,63933,2,0,L|216:240,1,95.9999970703126
108,112,64286,2,0,B|72:72|72:72|20:72|20:72|48:112|32:160,1,191.999994140625
0,316,64815,5,0,0:0:0:0:
156,280,64992,2,0,L|256:284,1,95.9999970703126
448,316,65345,1,0,0:0:0:0:
296,208,65521,1,0,0:0:0:0:
480,204,65698,1,0,0:0:0:0:
280,356,65874,1,0,0:0:0:0:
396,136,66051,6,0,B|408:84|408:84|432:60|432:60|384:88|324:64,1,191.999994140625
188,0,66580,1,0,0:0:0:0:
208,152,66757,2,0,P|208:200|180:240,1,95.9999970703126
32,108,67109,2,0,B|72:148|72:148|116:160|116:160|80:192|76:244,1,191.999994140625
168,348,67639,5,0,0:0:0:0:
356,248,67815,2,0,P|328:208|284:192,1,95.9999970703126
420,344,68168,2,0,B|460:188|460:188|432:208,1,191.999994140625
256,264,68698,1,0,0:0:0:0:
460,96,68874,6,0,B|416:124|416:124|372:120|372:120|388:68|348:32,1,191.999994140625
144,128,69404,1,0,0:0:0:0:
292,96,69580,2,0,P|280:144|288:192,1,95.9999970703126
174,306,69933,2,0,P|186:210|142:126,1,191.999994140625
20,292,70462,5,0,0:0:0:0:
200,320,70639,2,0,L|296:328,1,95.9999970703126
428,196,70992,1,0,0:0:0:0:
472,348,71168,1,0,0:0:0:0:
344,144,71345,1,0,0:0:0:0:
372,368,71521,1,0,0:0:0:0:
188,264,71698,5,0,0:0:0:0:
348,148,71874,2,0,B|416:152|460:112|460:112|432:84|396:88,1,191.999994140625
172,280,72580,1,0,0:0:0:0:
320,332,72757,1,0,0:0:0:0:
144,132,72933,2,0,B|76:136|32:96|32:96|60:68|96:72,1,191.999994140625
280,248,73639,5,0,0:0:0:0:
336,40,73815,1,0,0:0:0:0:
220,128,73992,1,0,0:0:0:0:
352,40,74168,1,0,0:0:0:0:
392,240,74344,1,0,0:0:0:0:
372,40,74521,6,0,B|276:36|276:36|296:72|288:104|288:104|300:132,1,191.999994140625
176,256,75051,1,0,0:0:0:0:
116,56,75227,2,0,L|208:80,1,95.9999970703126
116,312,75580,2,0,P|100:216|172:176,1,191.999994140625
280,344,76109,5,0,0:0:0:0:
408,248,76286,2,0,L|500:272,1,95.9999970703126
288,348,76639,2,0,B|272:204|272:204|308:240,1,191.999994140625
384,140,77168,1,0,0:0:0:0:
128,208,77345,5,0,0:0:0:0:
376,136,77521,1,0,0:0:0:0:
100,288,77698,1,0,0:0:0:0:
384,52,77874,1,0,0:0:0:0:
56,160,78051,1,0,0:0:0:0:
456,168,78227,1,0,0:0:0:0:
236,332,78404,2,0,B|232:288|256:256|256:256|240:228|240:228|260:188|248:144,1,191.999994140625
140,56,78933,5,0,0:0:0:0:
328,220,79109,2,0,P|376:236|420:228,1,95.9999970703126
228,108,79462,1,0,0:0:0:0:
136,268,79639,1,0,0:0:0:0:
140,56,79815,1,0,0:0:0:0:
224,228,79992,1,0,0:0:0:0:
48,160,80168,6,0,B|48:220|48:220|32:256|32:256|32:312|32:312|48:276,1,191.999994140625
152,128,80698,1,0,0:0:0:0:
220,312,80874,2,0,P|260:340|312:340,1,95.9999970703126
388,152,81227,2,0,P|296:180|284:264,1,191.999994140625
452,328,81757,5,0,0:0:0:0:
468,156,81933,2,0,P|456:108|420:80,1,95.9999970703126
212,104,82286,2,0,B|68:120|68:120|116:144,1,191.999994140625
280,244,82815,1,0,0:0:0:0:
216,76,82992,5,0,0:0:0:0:
96,272,83168,2,0,B|72:316|80:368|80:368|112:352|112:352|140:364|172:352,1,191.999994140625
228,180,83874,1,0,0:0:0:0:
292,12,84051,1,0,0:0:0:0:
412,208,84227,2,0,B|436:252|428:304|428:304|396:288|396:288|368:300|336:288,1,191.999994140625
216,176,84933,5,0,0:0:0:0:
336,96,85109,1,0,0:0:0:0:
96,96,85286,1,0,0:0:0:0:
276,252,85462,1,0,0:0:0:0:
208,16,85639,1,0,0:0:0:0:
84,248,85815,5,0,0:0:0:0:
112,88,85992,1,0,0:0:0:0:
172,300,86168,2,0,P|216:320|252:320,1,80
356,156,86521,1,0,0:0:0:0:
400,300,86698,1,0,0:0:0:0:
248,196,86874,1,0,0:0:0:0:
368,152,87051,2,0,L|448:160,1,80
364,288,87404,5,0,0:0:0:0:
328,68,87580,2,0,L|248:60,1,80
180,204,87933,1,0,0:0:0:0:
216,336,88109,1,0,0:0:0:0:
92,192,88286,2,0,P|108:152|140:124,1,80
312,240,88639,5,0,0:0:0:0:
224,348,88815,1,0,0:0:0:0:
252,136,88992,2,0,B|288:152|288:152|328:148,1,80
420,48,89345,1,0,0:0:0:0:
164,112,89521,2,0,P|160:152|176:188,1,80
312,328,89874,2,0,P|307:288|323:252,1,80
492,252,90227,6,0,P|467:282|430:297,1,80
252,136,90580,1,0,0:0:0:0:
176,288,90757,1,0,0:0:0:0:
92,188,90933,1,0,0:0:0:0:
184,304,91109,1,0,0:0:0:0:
160,60,91286,1,0,0:0:0:0:
264,144,91462,5,0,0:0:0:0:
60,88,91639,1,0,0:0:0:0:
320,48,91815,2,0,B|336:88|336:88|332:128,1,80
228,272,92168,1,0,0:0:0:0:
128,180,92345,1,0,0:0:0:0:
136,336,92521,1,0,0:0:0:0:
252,192,92698,2,0,P|300:196|328:212,1,80
332,352,93051,5,0,0:0:0:0:
352,128,93227,2,0,P|391:155|407:183,1,80
332,352,93580,1,0,0:0:0:0:
184,264,93757,2,0,L|104:272,1,80
196,88,94109,1,0,0:0:0:0:
312,240,94286,5,0,0:0:0:0:
368,64,94462,1,0,0:0:0:0:
384,296,94639,1,0,0:0:0:0:
292,28,94815,1,0,0:0:0:0:
428,176,94992,1,0,0:0:0:0:
248,136,95168,1,0,0:0:0:0:
460,252,95345,1,0,0:0:0:0:
208,64,95521,2,0,B|172:48|132:56|132:56|116:44|116:44|100:76|64:92,1,160
32,4,96051,5,0,0:0:0:0:
96,204,96227,1,0,0:0:0:0:
208,64,96404,1,0,0:0:0:0:
200,88,96492,1,0,0:0:0:0:
196,116,96580,1,0,0:0:0:0:
200,144,96668,1,0,0:0:0:0:
212,168,96757,1,0,0:0:0:0:
328,56,96933,1,0,0:0:0:0:
236,188,97109,6,0,L|220:268,1,80
376,320,97462,1,0,0:0:0:0:
420,160,97639,1,0,0:0:0:0:
388,328,97815,1,0,0:0:0:0:
320,112,97992,1,0,0:0:0:0:
404,336,98168,1,0,0:0:0:0:
228,184,98345,2,0,L|148:188,1,80
36,292,98698,6,0,L|114:309,1,80
280,56,99051,2,0,L|206:87,1,80
352,200,99404,1,0,0:0:0:0:
416,76,99580,1,0,0:0:0:0:
444,268,99757,1,0,0:0:0:0:
232,224,99933,6,0,P|200:248|184:288,1,80
308,192,100286,2,0,P|284:160|244:144,1,80
344,268,100639,2,0,P|376:244|392:204,1,80
348,52,100992,1,0,0:0:0:0:
280,320,101168,2,0,P|311:344|354:349,1,80
360,64,101521,5,0,0:0:0:0:
212,128,101698,2,0,B|172:136|172:136|136:128|136:128|140:152|128:176,1,120
108,208,102051,1,0,0:0:0:0:
264,292,102227,1,0,0:0:0:0:
84,304,102404,1,0,0:0:0:0:
288,208,102580,1,0,0:0:0:0:
176,364,102757,6,0,B|168:304|168:304|176:276,1,80
308,204,103109,1,0,0:0:0:0:
172,140,103286,1,0,0:0:0:0:
344,104,103462,1,0,0:0:0:0:
136,64,103639,1,0,0:0:0:0:
384,32,103815,1,0,0:0:0:0:
220,72,103992,2,0,L|208:156,1,80
344,280,104345,6,0,L|332:200,1,80
148,276,104698,2,0,L|136:360,1,80
252,296,105051,1,0,0:0:0:0:
40,232,105227,1,0,0:0:0:0:
220,200,105404,1,0,0:0:0:0:
80,112,105580,6,0,B|96:128|128:128|128:128|160:116|176:92|176:92|204:84|232:96,1,160
368,80,106286,2,0,B|380:116|380:116|344:136|340:176|340:176|352:196|352:220,1,160
272,360,106815,2,0,B|264:320|288:284|288:284|258:251|264:208,1,160
344,336,107345,6,0,P|272:360|192:320,1,160
80,104,108051,1,0,0:0:0:0:
64,224,108227,1,0,0:0:0:0:
100,112,108404,6,0,B|112:96|112:96|104:72|116:52|116:52|132:44,1,80
348,128,108757,1,0,0:0:0:0:
200,88,108933,1,0,0:0:0:0:
392,48,109109,1,0,0:0:0:0:
200,184,109286,1,0,0:0:0:0:
292,8,109462,1,0,0:0:0:0:
304,216,109639,2,0,P|316:256|316:296,1,80
152,320,109992,6,0,P|180:289|215:269,1,80,0|0,0:3|0:3,0:3:0:0:
412,312,110345,2,0,P|383:342|348:362,1,80,0|0,0:3|0:3,0:3:0:0:
140,312,110698,1,0,0:0:0:0:
100,144,110874,1,0,0:0:0:0:
44,336,111051,1,0,0:0:0:0:
104,136,111227,6,0,L|184:144,1,80
380,40,111580,2,0,L|300:48,1,80
112,144,111933,2,0,P|96:104|100:68,1,80
228,8,112286,1,0,0:0:0:0:
136,224,112462,2,0,P|92:225|60:209,1,80
224,20,112815,5,0,0:0:0:0:
224,264,112992,2,0,B|256:280|256:280|276:304|276:304|276:276|296:248,1,120
312,220,113345,1,0,0:0:0:0:
360,360,113521,1,0,0:0:0:0:
400,152,113698,1,0,0:0:0:0:
272,376,113874,1,0,0:0:0:0:
464,256,114051,6,0,L|476:176,1,80
360,44,114404,1,0,0:0:0:0:
256,180,114580,1,0,0:0:0:0:
216,56,114757,1,0,0:0:0:0:
344,204,114933,1,0,0:0:0:0:
120,184,115109,1,0,0:0:0:0:
264,288,115286,2,0,P|304:292|344:288,1,80
194,156,115639,6,0,P|155:165|118:183,1,80
344,204,115992,2,0,P|377:181|405:152,1,80
212,72,116345,1,0,0:0:0:0:
424,60,116521,1,0,0:0:0:0:
180,160,116698,1,0,0:0:0:0:
352,132,116874,5,0,0:0:0:0:
148,248,117051,1,0,0:0:0:0:
296,208,117227,2,0,L|384:224,1,80
148,248,117580,2,0,B|24:224|24:224|56:208,1,160
96,20,118109,2,0,B|76:56|76:56|80:96|80:96|120:84|160:100,1,160
252,220,118639,5,0,0:0:0:0:
332,88,118815,1,0,0:0:0:0:
368,284,118992,1,0,0:0:0:0:
212,136,119168,1,0,0:0:0:0:
448,124,119345,1,0,0:0:0:0:
252,36,119521,1,0,0:0:0:0:
392,196,119698,6,0,B|340:192|308:233|308:233|253:201|253:201|236:232|200:244,1,224
164,148,122521,6,0,B|124:108|144:46|144:46|120:104|52:108,1,224
16,204,125345,6,0,B|20:228|8:256|8:256|12:308|72:316|72:316|108:296|144:300,1,224
348,360,128168,5,0,0:0:0:0:
220,308,128345,2,0,B|216:268|216:268|244:240|236:192|236:192|192:180,1,160
140,60,129051,1,0,0:0:0:0:
48,220,129227,1,0,0:0:0:0:
276,92,129404,2,0,B|328:105|328:105|360:84|364:52|364:52|400:68,1,160
320,336,130109,5,0,0:0:0:0:
264,200,130286,1,0,0:0:0:0:
204,360,130462,1,0,0:0:0:0:
268,184,130639,1,0,0:0:0:0:
84,324,130815,1,0,0:0:0:0:
272,168,130992,6,0,B|280:124|280:124|272:84|272:84|280:40|280:40|304:100,1,191.999994140625
432,184,131521,1,0,0:0:0:0:
176,224,131698,2,0,L|192:128,1,95.9999970703126
328,312,132051,2,0,B|288:312|260:340|260:340|236:320|236:320|200:348|152:336,1,191.999994140625
48,200,132580,5,0,0:0:0:0:
188,124,132757,2,0,L|284:136,1,95.9999970703126
344,272,133109,1,0,0:0:0:0:
388,64,133286,1,0,0:0:0:0:
240,260,133462,1,0,0:0:0:0:
480,100,133639,1,0,0:0:0:0:
192,172,133815,6,0,B|144:168|112:128|112:128|116:156|116:156|96:172|92:224,1,191.999994140625
192,352,134345,1,0,0:0:0:0:
281,185,134521,2,0,P|277:137|249:101,1,95.9999970703126
276,296,134874,2,0,B|336:288|360:252|360:252|388:268|388:268|380:240|392:200,1,191.999994140625
488,76,135404,5,0,0:0:0:0:
256,92,135580,2,0,L|280:184,1,95.9999970703126
324,24,135933,2,0,P|232:0|164:68,1,191.999994140625
188,224,136462,1,0,0:0:0:0:
32,160,136639,6,0,B|40:96|24:20|24:20|36:44|60:56,1,191.999994140625
200,204,137168,1,0,0:0:0:0:
152,340,137345,2,0,L|56:336,1,95.9999970703126
216,204,137698,2,0,B|272:208|272:208|308:228|308:228|356:232|356:232|316:208,1,191.999994140625
192,96,138227,5,0,0:0:0:0:
408,140,138404,2,0,L|484:200,1,95.9999970703126
300,352,138757,1,0,0:0:0:0:
212,200,138933,1,0,0:0:0:0:
148,352,139109,1,0,0:0:0:0:
332,232,139286,1,0,0:0:0:0:
88,196,139462,5,0,0:0:0:0:
288,132,139639,2,0,B|348:104|408:136|408:136|376:120|364:80,1,191.999994140625
144,296,140345,1,0,0:0:0:0:
368,240,140521,1,0,0:0:0:0:
204,208,140698,2,0,B|144:180|84:212|84:212|116:196|128:156,1,191.999994140625
312,96,141404,5,0,0:0:0:0:
332,308,141580,1,0,0:0:0:0:
392,152,141757,1,0,0:0:0:0:
264,244,141933,1,0,0:0:0:0:
408,248,142109,1,0,0:0:0:0:
244,144,142286,6,0,B|192:144|192:144|152:124|152:124|168:144|168:176|168:176|152:192|144:212,1,191.999994140625
188,360,142815,1,0,0:0:0:0:
400,256,142992,2,0,L|300:244,1,95.9999970703126
440,331,143345,2,0,P|488:247|436:179,1,191.999994140625
276,140,143874,5,0,0:0:0:0:
400,20,144051,2,0,L|384:116,1,95.9999970703126
208,198,144404,2,0,P|192:102|268:50,1,191.999994140625
312,292,144933,1,0,0:0:0:0:
264,132,145109,5,0,0:0:0:0:
224,316,145286,1,0,0:0:0:0:
328,68,145462,1,0,0:0:0:0:
112,352,145639,1,0,0:0:0:0:
188,52,145815,1,0,0:0:0:0:
288,372,145992,1,0,0:0:0:0:
280,208,146168,2,0,B|252:208|232:216|232:216|192:196|192:196|160:212|160:212|132:192|96:196,1,191.999994140625
96,320,146698,5,0,0:0:0:0:
236,132,146874,2,0,P|240:84|216:40,1,95.9999970703126
56,104,147227,1,0,0:0:0:0:
256,216,147404,1,0,0:0:0:0:
104,312,147580,1,0,0:0:0:0:
156,104,147757,1,0,0:0:0:0:
256,228,147933,6,0,P|304:256|392:176,1,191.999994140625
348,32,148462,1,0,0:0:0:0:
244,224,148639,2,0,P|232:272|248:320,1,95.9999970703126
316,176,148992,2,0,P|236:140|161:199,1,191.999994140625
252,356,149521,5,0,0:0:0:0:
328,176,149698,2,0,L|324:80,1,95.9999970703126
108,120,150051,2,0,B|128:264|128:264|144:216,1,191.999994140625
268,92,150580,1,0,0:0:0:0:
312,292,150757,5,0,0:0:0:0:
396,160,150933,2,0,B|440:140|428:100|428:100|392:96|392:96|364:60|380:20,1,191.999994140625
168,96,151639,1,0,0:0:0:0:
236,304,151815,1,0,0:0:0:0:
72,236,151992,2,0,B|28:216|40:176|40:176|76:172|76:172|104:136|88:96,1,191.999994140625
208,252,152698,5,0,0:0:0:0:
408,216,152874,1,0,0:0:0:0:
240,84,153051,1,0,0:0:0:0:
324,340,153227,1,0,0:0:0:0:
392,104,153404,1,0,0:0:0:0:
208,252,153580,1,0,0:0:0:0:
108,320,154992,5,0,0:0:0:0:
336,192,156404,5,0,0:0:0:0:
336,192,156580,1,0,0:0:0:0:
136,172,157109,1,0,0:0:0:0:
136,172,157286,1,0,0:0:0:0:
380,28,157815,5,0,0:0:0:0:
256,192,157904,12,0,158874,0:0:0:0:
132,296,159227,5,0,0:0:0:0:
168,304,159315,1,0,0:0:0:0:
204,296,159404,2,0,L|256:292,1,47.9999985351563
216,88,159580,1,0,0:0:0:0:
200,120,159668,1,0,0:0:0:0:
196,160,159757,2,0,L|204:208,1,47.9999985351563
408,172,159933,1,0,0:0:0:0:
384,144,160021,1,0,0:0:0:0:
348,140,160109,2,0,L|296:152,1,47.9999985351563
352,360,160286,1,0,0:0:0:0:
356,324,160374,1,0,0:0:0:0:
360,288,160462,2,0,L|356:236,1,47.9999985351563
172,256,160639,5,0,0:0:0:0:
136,248,160727,1,0,0:0:0:0:
100,236,160815,2,0,L|52:240,1,47.9999985351563
304,176,160992,1,0,0:0:0:0:
340,168,161080,1,0,0:0:0:0:
376,156,161168,2,0,L|424:160,1,47.9999985351563
188,92,161345,1,0,0:0:0:0:
152,84,161433,1,0,0:0:0:0:
116,72,161521,2,0,L|68:76,1,47.9999985351563
312,24,161698,1,0,0:0:0:0:
348,16,161786,1,0,0:0:0:0:
384,4,161874,2,0,L|432:8,1,47.9999985351563
344,276,162051,6,0,L|296:272,1,47.9999985351563
124,296,162227,2,0,L|172:300,1,47.9999985351563
360,204,162404,2,0,P|344:196|304:192,1,47.9999985351563
104,200,162580,2,0,P|120:208|160:212,1,47.9999985351563
368,124,162757,2,0,P|352:112|324:100,1,47.9999985351563
120,100,162933,2,0,P|136:112|164:124,1,47.9999985351563
392,44,163109,2,0,P|376:20|356:4,1,47.9999985351563
144,4,163286,2,0,P|160:28|180:44,1,47.9999985351563
344,152,163462,6,0,L|332:104,1,47.9999985351563
152,216,163639,2,0,L|164:168,1,47.9999985351563
380,280,163815,2,0,L|368:232,1,47.9999985351563
124,344,163992,2,0,L|136:296,1,47.9999985351563
256,192,164168,1,0,0:0:0:0:
256,192,164874,6,0,B|264:244|264:244|252:308,1,108.000000411987
176,152,165227,1,0,0:0:0:0:
384,232,165404,1,0,0:0:0:0:
188,332,165580,2,0,L|108:340,1,80
176,152,165933,1,0,0:0:0:0:
192,336,166109,1,0,0:0:0:0:
40,216,166286,6,0,B|32:184|32:184|44:136,1,80
208,236,166639,1,0,0:0:0:0:
152,68,166815,1,0,0:0:0:0:
296,112,166992,2,0,B|320:124|320:124|376:116,1,80
384,280,167345,1,0,0:0:0:0:
296,120,167521,1,0,0:0:0:0:
192,248,167698,5,0,0:0:0:0:
376,284,167874,1,0,0:0:0:0:
168,160,168051,1,0,0:0:0:0:
316,340,168227,1,0,0:0:0:0:
296,120,168404,1,0,0:0:0:0:
224,352,168580,1,0,0:0:0:0:
384,120,168757,1,0,0:0:0:0:
156,296,168933,1,0,0:0:0:0:
408,284,169109,5,0,0:0:0:0:
188,160,169286,1,0,0:0:0:0:
336,348,169462,1,0,0:0:0:0:
268,104,169639,1,0,0:0:0:0:
240,348,169815,1,0,0:0:0:0:
384,120,169992,1,0,0:0:0:0:
144,312,170168,1,0,0:0:0:0:
420,216,170345,1,0,0:0:0:0:
168,216,170521,6,0,B|144:176|144:176|152:108,1,108.000000411987
276,144,170874,1,0,0:0:0:0:
52,256,171051,1,0,0:0:0:0:
120,32,171227,2,0,L|200:36,1,80
168,216,171580,1,0,0:0:0:0:
320,80,171757,1,0,0:0:0:0:
384,240,171933,6,0,B|388:256|388:256|368:320,1,80
160,228,172286,1,0,0:0:0:0:
308,168,172462,1,0,0:0:0:0:
104,344,172639,2,0,B|96:320|96:320|88:264,1,80
204,64,172992,1,0,0:0:0:0:
160,228,173168,1,0,0:0:0:0:
312,120,173345,5,0,0:0:0:0:
352,116,173433,1,0,0:0:0:0:
392,124,173521,1,0,0:0:0:0:
424,148,173609,1,0,0:0:0:0:
444,184,173698,1,0,0:0:0:0:
448,224,173786,1,0,0:0:0:0:
436,264,173874,1,0,0:0:0:0:
404,288,173962,1,0,0:0:0:0:
368,272,174051,1,0,0:0:0:0:
328,260,174139,1,0,0:0:0:0:
288,264,174227,1,0,0:0:0:0:
252,280,174315,1,0,0:0:0:0:
220,308,174404,1,0,0:0:0:0:
180,316,174492,1,0,0:0:0:0:
140,308,174580,1,0,0:0:0:0:
108,288,174668,1,0,0:0:0:0:
128,256,174757,5,0,0:0:0:0:
136,216,174845,1,0,0:0:0:0:
132,176,174933,1,0,0:0:0:0:
124,136,175021,1,0,0:0:0:0:
136,96,175109,1,0,0:0:0:0:
168,68,175198,1,0,0:0:0:0:
208,56,175286,1,0,0:0:0:0:
248,64,175374,1,0,0:0:0:0:
276,92,175462,1,0,0:0:0:0:
248,288,175639,1,0,0:0:0:0:
296,124,175815,1,0,0:0:0:0:
220,304,175992,1,0,0:0:0:0:
300,156,176168,6,0,B|336:160|336:160|392:204,1,108.000000411987
188,308,176521,1,0,0:0:0:0:
208,144,176698,1,0,0:0:0:0:
267,300,176874,2,0,L|187:308,1,80
40,196,177227,1,0,0:0:0:0:
212,144,177404,1,0,0:0:0:0:
40,276,177580,6,0,L|40:196,1,80
140,0,177933,1,0,0:0:0:0:
212,152,178109,1,0,0:0:0:0:
60,8,178286,2,0,L|140:0,1,80
320,168,178639,1,0,0:0:0:0:
136,112,178815,1,0,0:0:0:0:
368,72,178992,5,0,0:0:0:0:
140,216,179168,1,0,0:0:0:0:
296,24,179345,1,0,0:0:0:0:
228,292,179521,1,0,0:0:0:0:
200,24,179698,1,0,0:0:0:0:
328,280,179874,1,0,0:0:0:0:
124,92,180051,1,0,0:0:0:0:
376,200,180227,1,0,0:0:0:0:
140,216,180404,5,0,0:0:0:0:
368,72,180580,1,0,0:0:0:0:
228,292,180757,1,0,0:0:0:0:
296,24,180933,1,0,0:0:0:0:
328,280,181109,1,0,0:0:0:0:
200,24,181286,1,0,0:0:0:0:
376,200,181462,1,0,0:0:0:0:
124,92,181639,1,0,0:0:0:0:
136,220,181815,6,0,B|116:272|116:272|128:324,1,108.000000411987
328,280,182168,1,0,0:0:0:0:
252,88,182345,1,0,0:0:0:0:
160,248,182521,2,0,B|184:256|184:256|240:252,1,80
248,84,182874,1,0,0:0:0:0:
156,252,183051,1,0,0:0:0:0:
336,160,183227,6,0,L|416:164,1,80
160,76,183580,2,0,L|80:80,1,80
184,232,183933,1,0,0:0:0:0:
256,72,184109,1,0,0:0:0:0:
316,320,184286,1,0,0:0:0:0:
256,144,184462,1,0,0:0:0:0:
172,352,184639,5,0,0:0:0:0:
64,256,184815,2,0,B|32:204|64:136|64:136|80:156|80:176,1,160
256,144,185521,1,0,0:0:0:0:
320,376,185698,1,0,0:0:0:0:
460,212,185874,2,0,B|492:160|460:92|460:92|444:112|444:132,1,160
256,296,186580,5,0,0:0:0:0:
256,116,186757,2,0,L|232:40,1,80.0000030517579
196,188,186992,2,0,L|164:140,1,53.3333333333333
156,276,187227,2,0,L|128:264,1,26.6666666666667
348,240,187462,5,0,0:0:0:0:
292,40,187639,2,0,B|352:52|352:52|420:44|420:44|384:64,1,160
184,148,188345,1,0,0:0:0:0:
144,328,188521,1,0,0:0:0:0:
192,136,188698,2,0,B|132:148|132:148|64:140|64:140|100:160,1,160
280,316,189404,5,0,0:0:0:0:
276,104,189580,1,0,0:0:0:0:
256,192,189757,12,0,191168,0:0:0:0:
192,280,191345,6,0,B|204:216|172:168|172:168|204:180|204:180|192:144|208:108,1,216.000000823975
100,240,191874,1,0,0:0:0:0:
280,148,192051,2,0,L|392:144,1,108.000000411987
264,336,192404,1,0,0:0:0:0:
288,152,192580,1,0,0:0:0:0:
136,320,192757,1,0,0:0:0:0:
396,192,192933,1,0,0:0:0:0:
128,176,193109,6,0,P|132:68|228:28,1,216.000000823975
260,224,193639,1,0,0:0:0:0:
72,248,193815,2,0,P|40:200|40:152,1,108.000000411987
264,140,194168,2,0,P|344:212|304:296,1,216.000000823975
124,296,194698,5,0,0:0:0:0:
220,72,194874,2,0,P|272:60|320:80,1,108.000000411987
260,252,195227,2,0,B|256:288|244:304|244:304|252:328|252:360|252:360|240:332|216:320|216:320|184:320|148:300,1,216.000000823975
100,132,195757,1,0,0:0:0:0:
260,240,195933,6,0,B|312:256|312:256|372:244|372:244|424:256|424:256|384:232,1,216.000000823975
248,116,196462,1,0,0:0:0:0:
460,72,196639,2,0,P|468:104|436:168,1,108.000000411987
244,124,196992,2,0,B|192:124|152:96|152:96|108:104|108:104|64:88|64:88|84:112,1,216.000000823975
116,284,197521,5,0,0:0:0:0:
260,132,197698,2,0,L|280:24,1,108.000000411987
392,272,198051,1,0,0:0:0:0:
256,140,198227,1,0,0:0:0:0:
448,144,198404,1,0,0:0:0:0:
224,280,198580,1,0,0:0:0:0:
380,52,198757,5,0,0:0:0:0:
404,280,198933,2,0,B|380:320|392:376|392:376|368:312|304:308,1,216.000000823975
124,344,199639,1,0,0:0:0:0:
248,124,199816,1,0,0:0:0:0:
24,224,199992,2,0,B|48:264|36:320|36:320|60:256|124:252,1,216.000000823975
340,248,200698,5,0,0:0:0:0:
168,184,200874,1,0,0:0:0:0:
340,112,201051,1,0,0:0:0:0:
156,188,201227,1,0,0:0:0:0:
272,0,201404,1,0,0:0:0:0:
144,192,201580,6,0,P|132:244|156:292,1,108.000000411987
200,308,201845,1,0,0:0:0:0:
248,304,201933,1,0,0:0:0:0:
284,272,202021,1,0,0:0:0:0:
376,116,202109,2,0,P|388:64|364:16,1,108.000000411987
320,0,202374,1,0,0:0:0:0:
272,4,202462,1,0,0:0:0:0:
236,36,202550,1,0,0:0:0:0:
224,84,202639,2,0,B|232:144|232:144|212:232|212:232|208:192|192:168,1,216.000000823975
52,136,203168,5,0,0:0:0:0:
168,304,203345,2,0,P|220:316|268:292,1,108.000000411987
328,76,203698,2,0,B|336:112|352:136|352:136|360:180|340:224|340:224|372:208|384:176,1,216.000000823975
232,156,204227,1,0,0:0:0:0:
400,24,204404,5,0,0:0:0:0:
228,288,204580,1,0,0:0:0:0:
232,24,204757,1,0,0:0:0:0:
376,296,204933,1,0,0:0:0:0:
64,112,205109,1,0,0:0:0:0:
408,112,205286,1,0,0:0:0:0:
64,296,205462,2,0,B|180:252|172:336|284:296,1,216.000000823975
400,112,205992,5,0,0:0:0:0:
220,120,206168,2,0,P|208:172|228:220,1,108.000000411987
299,52,206521,2,0,P|195:20|123:88,1,216.000000823975
136,280,207051,1,0,0:0:0:0:
340,216,207227,6,0,L|348:160,1,54.0000002059937
144,280,207757,2,0,L|136:224,1,54.0000002059937
308,336,208286,2,0,B|296:280|324:240|324:240|368:220|368:220|392:192|392:148,1,216.000000823975
412,300,208815,5,0,0:0:0:0:
292,152,208992,2,0,L|184:148,1,108.000000411987
132,304,209345,1,0,0:0:0:0:
56,112,209521,1,0,0:0:0:0:
28,312,209698,1,0,0:0:0:0:
144,80,209874,1,0,0:0:0:0:
0,212,210051,5,0,0:0:0:0:
200,244,210227,2,0,B|224:256|256:256|256:256|280:244|308:244|308:244|332:256|360:256|360:256|352:228|328:216,1,216.000000823975
240,72,210933,1,0,0:0:0:0:
124,304,211109,1,0,0:0:0:0:
272,152,211285,2,0,B|248:164|216:164|216:164|192:152|164:152|164:152|140:164|112:164|112:164|120:136|144:124,1,216.000000823975
284,248,211992,5,0,0:0:0:0:
340,352,212168,1,0,0:0:0:0:
416,132,212345,1,0,0:0:0:0:
192,280,212521,1,0,0:0:0:0:
448,232,212698,1,0,0:0:0:0:
236,152,212874,6,0,B|160:164|160:164|92:136|92:136|20:148,1,216.000000823975
72,312,213404,1,0,0:0:0:0:
244,160,213580,2,0,P|256:108|240:52,1,108.000000411987
196,256,213933,2,0,P|304:256|352:168,1,216.000000823975
242,56,214462,5,0,0:0:0:0:
192,248,214639,2,0,P|176:300|196:348,1,108.000000411987
264,172,214992,2,0,B|96:164|96:164|140:148,1,216.000000823975
276,36,215521,1,0,0:0:0:0:
336,220,215698,6,0,B|320:240|328:280|328:280|344:368|344:368|336:336|308:312,1,216.000000823975
168,284,216227,1,0,0:0:0:0:
336,220,216404,2,0,P|388:200|440:204,1,108.000000411987
280,300,216757,2,0,P|244:196|312:128,1,216.000000823975
464,92,217286,5,0,0:0:0:0:
272,36,217462,2,0,L|164:40,1,108.000000411987
312,132,217815,2,0,B|328:184|328:184|312:240|312:240|320:288|320:288|308:256|280:244,1,216.000000823975
144,260,218345,1,0,0:0:0:0:
320,128,218521,6,0,B|476:148|476:148|416:168,1,216.000000823975
236,280,219051,1,0,0:0:0:0:
320,124,219227,2,0,P|328:72|304:24,1,108.000000411987
108,184,219580,2,0,P|132:278|236:280,1,216.000000823975
248,88,220109,5,0,0:0:0:0:
100,184,220286,2,0,L|68:288,1,108.000000411987
188,200,220639,2,0,P|164:106|60:104,1,216.000000823975
144,332,221168,1,0,0:0:0:0:
304,160,221345,5,0,0:0:0:0:
336,288,221521,2,0,B|392:336|448:304|448:304|424:280|424:280|444:256|440:220,1,216.000000823975
196,164,222227,1,0,0:0:0:0:
268,352,222403,1,0,0:0:0:0:
148,232,222580,2,0,B|92:280|36:248|36:248|60:224|60:224|40:200|44:164,1,216.000000823975
256,56,223286,5,0,0:0:0:0:
320,252,223463,1,0,0:0:0:0:
260,64,223639,1,0,0:0:0:0:
204,308,223816,1,0,0:0:0:0:
264,72,223992,1,0,0:0:0:0:
88,208,224168,6,0,B|32:184|32:184|8:144,1,108.000000411987
268,80,224521,1,0,0:0:0:0:
416,220,224698,2,0,B|392:276|392:276|352:300,1,108.000000411987,0|0,0:3|0:3,0:3:0:0:
272,88,225051,1,0,0:0:0:0:
156,304,225227,2,0,B|168:244|144:196|144:196|164:208|164:208|152:164|176:120,1,216.000000823975
356,144,225757,5,0,0:0:0:0:
352,336,225933,2,0,P|296:344|252:320,1,108.000000411987
364,144,226286,2,0,B|384:120|388:92|388:92|392:128|424:152|424:152|444:192|424:236,1,216.000000823975
276,280,226815,1,0,0:0:0:0:
164,64,226992,5,0,0:0:0:0:
128,348,227168,1,0,0:0:0:0:
332,72,227345,1,0,0:0:0:0:
56,272,227521,1,0,0:0:0:0:
404,336,227698,1,0,0:0:0:0:
56,140,227874,1,0,0:0:0:0:
308,200,228051,6,0,P|360:212|456:104,1,216.000000823975
216,40,228580,1,0,0:0:0:0:
300,208,228757,2,0,L|288:316,1,108.000000411987
196,180,229109,2,0,P|268:100|364:120,1,216.000000823975
288,315,229639,1,0,0:0:0:0:
124,236,229815,6,0,P|104:180|120:132,1,108.000000411987
152,104,230080,1,0,0:0:0:0:
200,100,230168,1,0,0:0:0:0:
244,120,230257,1,0,0:0:0:0:
332,268,230345,2,0,L|344:160,1,108.000000411987
308,176,230609,1,0,0:0:0:0:
264,200,230698,1,0,0:0:0:0:
216,196,230786,1,0,0:0:0:0:
172,176,230874,2,0,B|168:232|168:232|140:268|144:328|144:328|141:293|116:276,1,216.000000823975
8,208,231404,5,0,0:0:0:0:
176,68,231580,2,0,L|172:175,1,108.000000411987
76,28,231933,2,0,B|128:28|176:68|176:68|200:44|232:48|232:48|248:64|272:68,1,216.000000823975
436,40,232462,1,0,0:0:0:0:
256,176,232639,5,0,0:0:0:0:
504,112,232815,2,0,B|508:140|492:164|492:164|492:192|512:220|512:220|488:200|440:192|440:192|452:220,1,216.000000823975
260,304,233521,1,0,0:0:0:0:
284,88,233697,1,0,0:0:0:0:
112,160,233874,2,0,B|108:188|124:212|124:212|124:240|104:268|104:268|128:248|176:240|176:240|164:268,1,216.000000823975
316,348,234580,5,0,0:0:0:0:
436,200,234756,1,0,0:0:0:0:
268,256,234933,1,0,0:0:0:0:
436,312,235109,1,0,0:0:0:0:
312,136,235285,1,0,0:0:0:0:
172,312,235462,5,0,0:0:0:0:
132,152,235639,2,0,B|140:96|140:96|180:60|180:60|148:68|120:56|120:56|84:88,1,216.000000823975
312,328,236345,1,0,0:0:0:0:
240,172,236521,1,0,0:0:0:0:
412,240,236698,2,0,B|404:184|404:184|364:148|364:148|396:156|424:144|424:144|460:176,1,216.000000823975
312,328,237404,5,0,0:0:0:0:
216,152,237580,1,0,0:0:0:0:
120,264,237757,1,0,0:0:0:0:
256,192,237845,12,0,240933,0:0:0:0:
320,304,241109,5,0,0:0:0:0:
256,176,241286,1,0,0:0:0:0:
172,324,241462,2,0,B|120:312|120:312|64:320,1,108.000000411987
124,148,241815,1,0,0:0:0:0:
176,328,241992,1,0,0:0:0:0:
196,88,242168,1,0,0:0:0:0:
280,252,242345,2,0,P|336:260|384:244,1,108.000000411987
428,88,242698,5,0,0:0:0:0:
180,208,242874,2,0,P|172:264|187:312,1,108.000000411987,0|0,0:3|0:3,0:3:0:0:
324,172,243227,1,0,0:0:0:0:
152,108,243404,2,0,B|96:100|96:100|44:108,1,108.000000411987
80,296,243757,1,0,0:0:0:0:
164,112,243933,5,0,0:0:0:0:
176,348,244109,1,0,0:0:0:0:
236,64,244286,2,0,P|236:124|244:172,1,108.000000411987
380,296,244639,1,0,0:0:0:0:
340,140,244815,1,0,0:0:0:0:
272,360,244992,1,0,0:0:0:0:
428,200,245168,2,0,B|436:168|436:168|432:128|432:128|440:92,1,108.000000411987
276,200,245521,5,0,0:0:0:0:
160,56,245698,2,0,B|168:88|168:88|164:128|164:128|172:164,1,108.000000411987
328,48,246051,1,0,0:0:0:0:
152,48,246227,2,0,B|96:56|96:56|56:96,1,108.000000411987
84,304,246580,1,0,0:0:0:0:
184,188,246757,5,0,0:0:0:0:
216,368,246933,1,0,0:0:0:0:
320,256,247109,2,0,B|408:268|408:268|392:252,1,108.000000411987
292,128,247462,1,0,0:0:0:0:
216,368,247639,1,0,0:0:0:0:
184,188,247815,1,0,0:0:0:0:
56,336,247992,2,0,P|44:284|52:228,1,108.000000411987
192,184,248345,5,0,0:0:0:0:
328,24,248521,2,0,P|340:76|332:132,1,108.000000411987
184,188,248874,1,0,0:0:0:0:
280,332,249051,2,0,L|392:320,1,108.000000411987
304,172,249404,1,0,0:0:0:0:
148,316,249580,5,0,0:0:0:0:
100,88,249757,1,0,0:0:0:0:
40,364,249933,1,0,0:0:0:0:
