osu file format v14

[General]
AudioFilename: audio.mp3
AudioLeadIn: 0
PreviewTime: 46064
Countdown: 0
SampleSet: Normal
StackLeniency: 0.7
Mode: 1
LetterboxInBreaks: 0
WidescreenStoryboard: 1

[Editor]
DistanceSpacing: 1.2
BeatDivisor: 4
GridSize: 32
TimelineZoom: 2

[Metadata]
Title:Drakkar (Cut Ver.)
TitleUnicode:Drakkar (Cut Ver.)
Artist:Distrion & Electro-Light
ArtistUnicode:Distrion & Electro-Light
Creator:Fynbi
Version:Ura Oni
Source:
Tags:ncs nocopyrightsounds future house
BeatmapID:1913649
BeatmapSetID:916298

[Difficulty]
HPDrainRate:6
CircleSize:2
OverallDifficulty:6
ApproachRate:10
SliderMultiplier:1.4
SliderTickRate:1

[Events]
//Background and Video events
0,0,"bg.png",0,20
//Break Periods
//Storyboard Layer 0 (Background)
//Storyboard Layer 1 (Fail)
//Storyboard Layer 2 (Pass)
//Storyboard Layer 3 (Foreground)
//Storyboard Layer 4 (Overlay)
//Storyboard Sound Samples

[TimingPoints]
1064,468.75,4,1,0,80,1,0
61064,-100,4,1,0,80,0,1
76064,-100,4,1,0,80,0,0
91181,-100,4,1,0,40,0,0

[Colours]
Combo1 : 89,89,89
Combo2 : 220,159,99
Combo3 : 155,155,155
Combo4 : 166,92,38

[HitObjects]
256,192,1064,5,8,0:0:0:0:
256,192,2470,5,0,0:0:0:0:
256,192,2704,5,0,0:0:0:0:
256,192,2939,5,8,0:0:0:0:
256,192,3642,5,0,0:0:0:0:
256,192,4579,5,0,0:0:0:0:
256,192,4814,5,8,0:0:0:0:
256,192,6220,5,0,0:0:0:0:
256,192,6454,5,0,0:0:0:0:
256,192,6689,5,8,0:0:0:0:
256,192,7392,5,8,0:0:0:0:
256,192,8564,5,8,0:0:0:0:
256,192,9970,5,8,0:0:0:0:
256,192,10204,5,0,0:0:0:0:
256,192,10439,5,8,0:0:0:0:
256,192,11142,5,0,0:0:0:0:
256,192,12079,5,8,0:0:0:0:
256,192,12314,5,0,0:0:0:0:
256,192,13720,5,0,0:0:0:0:
256,192,13954,5,0,0:0:0:0:
256,192,14189,5,8,0:0:0:0:
256,192,14540,5,0,0:0:0:0:
256,192,14892,5,8,0:0:0:0:
259,187,16064,5,4,0:0:0:0:
259,187,16532,5,8,0:0:0:0:
259,187,17001,5,0,0:0:0:0:
259,187,17470,5,8,0:0:0:0:
259,187,17704,5,0,0:0:0:0:
259,187,17939,5,8,0:0:0:0:
259,187,18173,5,8,0:0:0:0:
259,187,18407,5,0,0:0:0:0:
259,187,18524,5,0,0:0:0:0:
259,187,18642,5,8,0:0:0:0:
259,187,18876,5,0,0:0:0:0:
259,187,19345,5,8,0:0:0:0:
259,187,19579,5,0,0:0:0:0:
259,187,19814,5,8,0:0:0:0:
259,187,20282,5,8,0:0:0:0:
259,187,20751,5,0,0:0:0:0:
259,187,21220,5,0,0:0:0:0:
259,187,21454,5,0,0:0:0:0:
259,187,21689,5,8,0:0:0:0:
259,187,21923,5,8,0:0:0:0:
259,187,22157,5,0,0:0:0:0:
256,192,22274,5,8,0:0:0:0:
259,187,22392,5,0,0:0:0:0:
259,187,22626,5,8,0:0:0:0:
256,192,22978,5,0,0:0:0:0:
259,187,23095,5,8,0:0:0:0:
259,187,23329,5,8,0:0:0:0:
259,187,23564,5,0,0:0:0:0:
259,187,24032,5,8,0:0:0:0:
259,187,24501,5,0,0:0:0:0:
259,187,24970,5,8,0:0:0:0:
259,187,25204,5,8,0:0:0:0:
259,187,25439,5,0,0:0:0:0:
259,187,25673,5,8,0:0:0:0:
259,187,25907,5,8,0:0:0:0:
259,187,26024,5,8,0:0:0:0:
259,187,26142,5,0,0:0:0:0:
259,187,26376,5,8,0:0:0:0:
259,187,26845,5,0,0:0:0:0:
259,187,27079,5,8,0:0:0:0:
259,187,27314,5,0,0:0:0:0:
259,187,27782,5,8,0:0:0:0:
259,187,28251,5,0,0:0:0:0:
259,187,28720,5,0,0:0:0:0:
259,187,28954,5,8,0:0:0:0:
259,187,29189,5,0,0:0:0:0:
259,187,29423,5,8,0:0:0:0:
259,187,29540,5,8,0:0:0:0:
259,187,29657,5,0,0:0:0:0:
259,187,29774,5,8,0:0:0:0:
259,187,29892,5,0,0:0:0:0:
259,187,30126,5,8,0:0:0:0:
259,187,30478,5,0,0:0:0:0:
259,187,30595,5,8,0:0:0:0:
259,187,30712,5,0,0:0:0:0:
259,187,30829,5,8,0:0:0:0:
259,187,31064,5,4,0:0:0:0:
257,191,31415,5,8,0:0:0:0:
257,191,31532,5,0,0:0:0:0:
257,191,31767,5,8,0:0:0:0:
257,191,32001,5,0,0:0:0:0:
257,191,32353,5,8,0:0:0:0:
257,191,32470,5,0,0:0:0:0:
257,191,32704,5,8,0:0:0:0:
257,191,32939,5,0,0:0:0:0:
257,191,33095,5,8,0:0:0:0:
257,191,33173,5,8,0:0:0:0:
257,191,33407,5,0,0:0:0:0:
257,191,33642,5,8,0:0:0:0:
257,191,33876,5,0,0:0:0:0:
257,191,34228,5,8,0:0:0:0:
257,191,34345,5,0,0:0:0:0:
257,191,34579,5,8,0:0:0:0:
257,191,34696,5,8,0:0:0:0:
257,191,34814,5,0,0:0:0:0:
257,191,35165,5,8,0:0:0:0:
257,191,35282,5,0,0:0:0:0:
257,191,35517,5,8,0:0:0:0:
257,191,35751,5,0,0:0:0:0:
257,191,36103,5,8,0:0:0:0:
257,191,36220,5,0,0:0:0:0:
257,191,36454,5,8,0:0:0:0:
257,191,36689,5,0,0:0:0:0:
257,191,36845,5,8,0:0:0:0:
257,191,37001,5,8,0:0:0:0:
257,191,37157,5,0,0:0:0:0:
257,191,37392,5,8,0:0:0:0:
257,191,37626,5,0,0:0:0:0:
256,192,37704,5,0,0:0:0:0:
256,192,37782,5,0,0:0:0:0:
257,191,37860,5,0,0:0:0:0:
257,191,38095,5,8,0:0:0:0:
257,191,38212,5,8,0:0:0:0:
257,191,38329,5,0,0:0:0:0:
257,191,38446,5,0,0:0:0:0:
257,191,38564,5,8,0:0:0:0:
257,191,38798,5,0,0:0:0:0:
257,191,38915,5,8,0:0:0:0:
257,191,39149,5,0,0:0:0:0:
257,191,39384,5,8,0:0:0:0:
257,191,39501,5,0,0:0:0:0:
257,191,39735,5,0,0:0:0:0:
257,191,39853,5,8,0:0:0:0:
257,191,40087,5,0,0:0:0:0:
257,191,40321,5,8,0:0:0:0:
257,191,40439,5,0,0:0:0:0:
257,191,40673,5,8,0:0:0:0:
257,191,40790,5,0,0:0:0:0:
257,191,41024,5,8,0:0:0:0:
257,191,41259,5,0,0:0:0:0:
257,191,41376,5,8,0:0:0:0:
257,191,41610,5,0,0:0:0:0:
257,191,41728,5,8,0:0:0:0:
257,191,41962,5,0,0:0:0:0:
257,191,42196,5,8,0:0:0:0:
257,191,42314,5,0,0:0:0:0:
257,191,42431,5,0,0:0:0:0:
257,191,42548,5,8,0:0:0:0:
257,191,42665,5,0,0:0:0:0:
257,191,42782,5,8,0:0:0:0:
257,191,42899,5,8,0:0:0:0:
257,191,43017,5,0,0:0:0:0:
257,191,43134,5,8,0:0:0:0:
257,191,43251,5,0,0:0:0:0:
257,191,43368,5,0,0:0:0:0:
257,191,43485,5,8,0:0:0:0:
251,185,43603,5,0,0:0:0:0:
257,191,43720,5,8,0:0:0:0:
255,194,43837,5,8,0:0:0:0:
257,191,43954,5,0,0:0:0:0:
257,191,44071,5,8,0:0:0:0:
257,191,44189,5,0,0:0:0:0:
257,191,44540,5,8,0:0:0:0:
257,191,44657,5,0,0:0:0:0:
257,191,44892,5,8,0:0:0:0:
257,191,45126,5,0,0:0:0:0:
257,191,45243,5,8,0:0:0:0:
257,191,45360,5,0,0:0:0:0:
257,191,45478,5,0,0:0:0:0:
257,191,45595,5,8,0:0:0:0:
257,191,45829,5,0,0:0:0:0:
257,191,46064,5,12,0:0:0:0:
257,191,46298,5,0,0:0:0:0:
257,191,46415,5,8,0:0:0:0:
257,191,46532,5,0,0:0:0:0:
257,191,46767,5,8,0:0:0:0:
257,191,47001,5,0,0:0:0:0:
256,192,47470,5,8,0:0:0:0:
257,191,47704,5,0,0:0:0:0:
257,191,47860,5,8,0:0:0:0:
257,191,47939,5,0,0:0:0:0:
257,191,48095,5,8,0:0:0:0:
257,191,48173,5,0,0:0:0:0:
257,191,48407,5,8,0:0:0:0:
257,191,48642,5,8,0:0:0:0:
257,191,48876,5,0,0:0:0:0:
257,191,49345,5,4,0:0:0:0:
256,192,49579,5,8,0:0:0:0:
257,191,49814,5,0,0:0:0:0:
257,191,50048,5,8,0:0:0:0:
257,191,50165,5,0,0:0:0:0:
257,191,50282,5,8,0:0:0:0:
257,191,50517,5,0,0:0:0:0:
257,191,50751,5,8,0:0:0:0:
257,191,51220,5,0,0:0:0:0:
257,191,51454,5,8,0:0:0:0:
257,191,51532,5,8,0:0:0:0:
257,191,51610,5,8,0:0:0:0:
257,191,51689,5,0,0:0:0:0:
257,191,51845,5,8,0:0:0:0:
257,191,52001,5,0,0:0:0:0:
257,191,52157,5,8,0:0:0:0:
257,191,52392,5,8,0:0:0:0:
257,191,52626,5,0,0:0:0:0:
257,191,53095,5,12,0:0:0:0:
257,191,53329,5,0,0:0:0:0:
257,191,53564,5,12,0:0:0:0:
257,191,53798,5,0,0:0:0:0:
257,191,53915,5,0,0:0:0:0:
257,191,54032,5,8,0:0:0:0:
257,191,54267,5,8,0:0:0:0:
257,191,54501,5,0,0:0:0:0:
257,191,54970,5,8,0:0:0:0:
257,191,55204,5,0,0:0:0:0:
257,191,55360,5,0,0:0:0:0:
257,191,55439,5,8,0:0:0:0:
257,191,55595,5,8,0:0:0:0:
257,191,55673,5,0,0:0:0:0:
257,191,55907,5,0,0:0:0:0:
257,191,56142,5,8,0:0:0:0:
257,191,56376,5,0,0:0:0:0:
257,191,56845,5,12,0:0:0:0:
257,191,57314,5,0,0:0:0:0:
257,191,57548,5,8,0:0:0:0:
257,191,57665,5,8,0:0:0:0:
257,191,57782,5,0,0:0:0:0:
257,191,58017,5,0,0:0:0:0:
257,191,58251,5,8,0:0:0:0:
257,191,58720,5,0,0:0:0:0:
257,191,58954,5,8,0:0:0:0:
257,191,59032,5,8,0:0:0:0:
257,191,59110,5,8,0:0:0:0:
257,191,59189,5,0,0:0:0:0:
257,191,59345,5,0,0:0:0:0:
257,191,59501,5,0,0:0:0:0:
257,191,59657,5,8,0:0:0:0:
257,191,59892,5,8,0:0:0:0:
257,191,60126,5,0,0:0:0:0:
257,191,60595,5,8,0:0:0:0:
257,191,61064,5,4,0:0:0:0:
257,191,61298,5,8,0:0:0:0:
257,191,61415,5,0,0:0:0:0:
257,191,61532,5,8,0:0:0:0:
257,191,61649,5,8,0:0:0:0:
257,191,61767,5,0,0:0:0:0:
257,191,62001,5,8,0:0:0:0:
257,191,62118,5,0,0:0:0:0:
257,191,62353,5,0,0:0:0:0:
257,191,62470,5,8,0:0:0:0:
257,191,62704,5,0,0:0:0:0:
257,191,62860,5,8,0:0:0:0:
257,191,62939,5,0,0:0:0:0:
257,191,63095,5,0,0:0:0:0:
257,191,63173,5,8,0:0:0:0:
257,191,63407,5,0,0:0:0:0:
257,191,63524,5,8,0:0:0:0:
257,191,63642,5,0,0:0:0:0:
257,191,63876,5,8,0:0:0:0:
257,191,64345,5,4,0:0:0:0:
257,191,64579,5,8,0:0:0:0:
257,191,64814,5,0,0:0:0:0:
257,191,65048,5,8,0:0:0:0:
248,186,65165,5,8,0:0:0:0:
257,191,65282,5,0,0:0:0:0:
248,186,65399,5,0,0:0:0:0:
257,191,65517,5,8,0:0:0:0:
257,191,65751,5,0,0:0:0:0:
255,190,65868,5,8,0:0:0:0:
257,191,66103,5,8,0:0:0:0:
257,191,66220,5,0,0:0:0:0:
257,191,66454,5,8,0:0:0:0:
257,191,66532,5,0,0:0:0:0:
257,191,66610,5,0,0:0:0:0:
257,191,66689,5,8,0:0:0:0:
257,191,66845,5,0,0:0:0:0:
257,191,67001,5,0,0:0:0:0:
257,191,67157,5,8,0:0:0:0:
256,192,67274,5,0,0:0:0:0:
257,191,67392,5,8,0:0:0:0:
257,191,67509,5,8,0:0:0:0:
257,191,67626,5,0,0:0:0:0:
257,191,68095,5,12,0:0:0:0:
257,191,68329,5,0,0:0:0:0:
257,191,68564,5,12,0:0:0:0:
257,191,68798,5,0,0:0:0:0:
257,191,68915,5,8,0:0:0:0:
257,191,69032,5,0,0:0:0:0:
257,191,69149,5,0,0:0:0:0:
257,191,69267,5,8,0:0:0:0:
257,191,69501,5,0,0:0:0:0:
257,191,69618,5,0,0:0:0:0:
257,191,69853,5,8,0:0:0:0:
257,191,69970,5,0,0:0:0:0:
257,191,70204,5,0,0:0:0:0:
257,191,70360,5,8,0:0:0:0:
257,191,70439,5,0,0:0:0:0:
257,191,70595,5,8,0:0:0:0:
257,191,70673,5,8,0:0:0:0:
257,191,70907,5,8,0:0:0:0:
257,191,71024,5,8,0:0:0:0:
257,191,71142,5,0,0:0:0:0:
257,191,71376,5,8,0:0:0:0:
257,191,71845,5,4,0:0:0:0:
256,192,72079,5,8,0:0:0:0:
257,191,72314,5,0,0:0:0:0:
257,191,72548,5,8,0:0:0:0:
248,186,72665,5,8,0:0:0:0:
257,191,72782,5,0,0:0:0:0:
248,186,72899,5,8,0:0:0:0:
257,191,73017,5,0,0:0:0:0:
257,191,73251,5,8,0:0:0:0:
257,191,73368,5,0,0:0:0:0:
257,191,73603,5,0,0:0:0:0:
257,191,73720,5,8,0:0:0:0:
257,191,73954,5,0,0:0:0:0:
257,191,74032,5,8,0:0:0:0:
257,191,74110,5,8,0:0:0:0:
257,191,74189,5,0,0:0:0:0:
257,191,74345,5,8,0:0:0:0:
257,191,74501,5,0,0:0:0:0:
257,191,74657,5,8,0:0:0:0:
257,191,74892,5,8,0:0:0:0:
257,191,75126,5,0,0:0:0:0:
257,191,76064,5,12,0:0:0:0:
257,191,76532,5,0,0:0:0:0:
257,191,76767,5,8,0:0:0:0:
257,191,77001,5,0,0:0:0:0:
257,191,77470,5,8,0:0:0:0:
257,191,77704,5,0,0:0:0:0:
257,191,77860,5,8,0:0:0:0:
257,191,77939,5,0,0:0:0:0:
257,191,78173,5,8,0:0:0:0:
257,191,78407,5,0,0:0:0:0:
257,191,78524,5,0,0:0:0:0:
257,191,78642,5,8,0:0:0:0:
257,191,78876,5,0,0:0:0:0:
257,191,79345,5,12,0:0:0:0:
257,191,79814,5,0,0:0:0:0:
257,191,80282,5,8,0:0:0:0:
257,191,80517,5,8,0:0:0:0:
257,191,80751,5,0,0:0:0:0:
257,191,81220,5,0,0:0:0:0:
257,191,81454,5,8,0:0:0:0:
256,192,81571,5,0,0:0:0:0:
257,191,81689,5,8,0:0:0:0:
257,191,81845,5,0,0:0:0:0:
257,191,82001,5,0,0:0:0:0:
257,191,82157,5,8,0:0:0:0:
257,191,82392,5,8,0:0:0:0:
257,191,82626,5,0,0:0:0:0:
257,191,83095,5,8,0:0:0:0:
256,192,83329,5,0,0:0:0:0:
257,191,83564,5,12,0:0:0:0:
257,191,84032,5,0,0:0:0:0:
257,191,84267,5,8,0:0:0:0:
257,191,84501,5,0,0:0:0:0:
257,191,84735,5,0,0:0:0:0:
257,191,84970,5,8,0:0:0:0:
257,191,85204,5,8,0:0:0:0:
256,192,85360,5,0,0:0:0:0:
257,191,85439,5,0,0:0:0:0:
257,191,85673,5,8,0:0:0:0:
257,191,85907,5,0,0:0:0:0:
257,191,86024,5,8,0:0:0:0:
257,191,86142,5,8,0:0:0:0:
257,191,86376,5,0,0:0:0:0:
257,191,86845,5,12,0:0:0:0:
257,191,87314,5,0,0:0:0:0:
257,191,87548,5,0,0:0:0:0:
257,191,87782,5,8,0:0:0:0:
257,191,88017,5,0,0:0:0:0:
257,191,88251,5,8,0:0:0:0:
257,191,88485,5,8,0:0:0:0:
257,191,88720,5,0,0:0:0:0:
257,191,88954,5,8,0:0:0:0:
257,191,89189,5,0,0:0:0:0:
257,191,89345,5,0,0:0:0:0:
257,191,89501,5,0,0:0:0:0:
257,191,89657,5,8,0:0:0:0:
257,191,89892,5,8,0:0:0:0:
257,191,90126,5,0,0:0:0:0:
257,191,90595,5,8,0:0:0:0:
257,191,91064,5,4,0:0:0:0:
256,192,91298,12,0,94814,0:0:0:0:
