osu file format v14

[General]
AudioFilename: audio.mp3
AudioLeadIn: 0
PreviewTime: 67189
Countdown: 0
SampleSet: Soft
StackLeniency: 0.3
Mode: 0
LetterboxInBreaks: 0
WidescreenStoryboard: 1

[Editor]
Bookmarks: 9589,19189,38389,43189,47989,57589,67189,76789
DistanceSpacing: 1
BeatDivisor: 4
GridSize: 4
TimelineZoom: 1.3

[Metadata]
Title:I Stuck A Drill Into My Arm In 2008
TitleUnicode:I Stuck A Drill Into My Arm In 2008
Artist:Distress
ArtistUnicode:Distress
Creator:Knhesyy
Version:Niva's Hard
Source:
Tags:breakcore instrumental melancholic kelowna knhesyy faito niva bielsuu electronic bielsyy
BeatmapID:4007674
BeatmapSetID:1918646

[Difficulty]
HPDrainRate:6
CircleSize:3
OverallDifficulty:7
ApproachRate:8
SliderMultiplier:1.4
SliderTickRate:1

[Events]
//Background and Video events
0,0,"tumblr_fa1c093234029c119dd063582eb182de_ee45cfe5_1280.jpg",0,0
//Break Periods
2,38589,42439
//Storyboard Layer 0 (Background)
//Storyboard Layer 1 (Fail)
//Storyboard Layer 2 (Pass)
//Storyboard Layer 3 (Foreground)
//Storyboard Layer 4 (Overlay)
//Storyboard Sound Samples

[TimingPoints]
9589,300,4,2,0,50,1,0
9589,-125,4,2,0,50,0,0
10039,-142.857142857143,4,2,0,50,0,0
10789,-117.647058823529,4,2,0,50,0,0
11239,-142.857142857143,4,2,0,50,0,0
11839,-125,4,2,0,50,0,0
12439,-142.857142857143,4,2,0,50,0,0
13189,-117.647058823529,4,2,0,50,0,0
14389,-133.333333333333,4,2,0,50,0,0
14839,-142.857142857143,4,2,0,50,0,0
15589,-125,4,2,0,50,0,0
16039,-142.857142857143,4,2,0,50,0,0
16789,-125,4,2,0,50,0,0
17239,-117.647058823529,4,2,0,50,0,0
17989,-142.857142857143,4,2,0,50,0,0
19189,-100,4,2,0,70,0,0
19639,-111.111111111111,4,2,0,70,0,0
22489,-133.333333333333,4,2,0,70,0,0
22789,-100,4,2,0,70,0,0
23989,-117.647058823529,4,2,0,70,0,0
24439,-117.647058823529,4,2,0,70,0,0
24889,-125,4,2,0,70,0,0
25189,-111.111111111111,4,2,0,70,0,0
25639,-125,4,2,0,70,0,0
26089,-111.111111111111,4,2,0,70,0,0
26389,-117.647058823529,4,2,0,70,0,0
26839,-111.111111111111,4,2,0,70,0,0
27289,-125,4,2,0,70,0,0
27589,-100,4,2,0,70,0,0
28789,-125,4,2,0,70,0,0
29239,-111.111111111111,4,2,0,70,0,0
31639,-117.647058823529,4,2,0,70,0,0
32089,-142.857142857143,4,2,0,70,0,0
32389,-95.2380952380952,4,2,0,70,0,0
33589,-125,4,2,0,70,0,0
34039,-117.647058823529,4,2,0,70,0,0
34489,-125,4,2,0,70,0,0
35239,-111.111111111111,4,2,0,70,0,0
36439,-111.111111111111,4,2,0,70,0,0
36889,-133.333333333333,4,2,0,70,0,0
37189,-100,4,2,0,70,0,0
38389,-100,4,2,0,50,0,0
43189,-125,4,2,0,50,0,0
43639,-142.857142857143,4,2,0,50,0,0
44389,-125,4,2,0,50,0,0
44839,-142.857142857143,4,2,0,50,0,0
45589,-125,4,2,0,50,0,0
46039,-142.857142857143,4,2,0,50,0,0
46789,-111.111111111111,4,2,0,50,0,0
47989,-125,4,2,0,70,0,0
48439,-111.111111111111,4,2,0,70,0,0
49639,-105.263157894737,4,2,0,70,0,0
50089,-111.111111111111,4,2,0,70,0,0
51289,-142.857142857143,4,2,0,70,0,0
51589,-100,4,2,0,70,0,0
52789,-111.111111111111,4,2,0,70,0,0
53689,-125,4,2,0,70,0,0
53989,-111.111111111111,4,2,0,70,0,0
54439,-105.263157894737,4,2,0,70,0,0
54889,-100,4,2,0,70,0,0
55639,-111.111111111111,4,2,0,70,0,0
56089,-125,4,2,0,70,0,0
56389,-95.2380952380952,4,2,0,70,0,0
57589,-125,4,2,0,30,0,0
61189,-142.857142857143,4,2,0,30,0,0
61489,-125,4,2,0,30,0,0
61789,-111.111111111111,4,2,0,30,0,0
62389,-105.263157894737,4,2,0,30,0,0
62839,-125,4,2,0,30,0,0
65689,-142.857142857143,4,2,0,30,0,0
65989,-95.2380952380954,4,2,0,30,0,0
67189,-153.846153846154,4,2,0,20,0,0
67264,-153.846153846154,4,2,0,15,0,0
71989,-222.222222222222,4,2,0,20,0,0
73189,-200,4,2,0,20,0,0
74389,-166.666666666667,4,2,0,20,0,0
75589,-166.666666666667,4,2,0,30,0,0
76189,-166.666666666667,4,2,0,15,0,0
76339,-166.666666666667,4,2,0,20,0,0
76489,-166.666666666667,4,2,0,25,0,0
76639,-166.666666666667,4,2,0,30,0,0
76789,-166.666666666667,4,2,0,35,0,0

[Colours]
Combo1 : 96,63,47
Combo2 : 255,50,62
Combo3 : 83,66,36
Combo4 : 100,24,26
Combo5 : 214,12,60
SliderBorder : 51,0,102
SliderTrackOverride : 0,0,0

[HitObjects]
76,46,9589,6,0,B|90:83|90:83|168:96,1,112,2|2,0:3|0:3,0:0:0:0:
256,80,10039,2,0,B|281:164|202:205,1,146.999995513916,2|2,0:3|0:3,0:0:0:0:
204,203,10639,1,2,0:3:0:0:
149,303,10789,6,0,B|188:251|256:277,1,119.000002269745,0|2,0:0|0:3,0:0:0:0:
338,326,11239,2,0,B|385:307|385:307|398:212,1,146.999995513916,2|2,0:3|0:3,0:0:0:0:
327,100,11839,1,2,0:3:0:0:
326,111,11914,1,0,0:0:0:0:
324,122,11989,6,0,B|289:112|284:86|284:86|289:112|261:133,1,112,2|2,0:3|0:3,0:0:0:0:
193,200,12439,2,0,B|137:191|137:191|125:158|125:158|71:148,1,146.999995513916,2|2,0:3|0:3,0:0:0:0:
327,100,13189,6,0,B|327:60|327:60|382:46|437:78|457:144|445:208|398:246|328:244,1,357.000006809235,0|2,0:0|0:3,0:0:0:0:
483,384,14389,6,0,B|505:337|505:337|479:291,1,105.000004005432,2|2,0:3|0:3,0:0:0:0:
387,317,14839,2,0,B|330:250|256:292,1,146.999995513916,2|2,0:3|0:3,0:0:0:0:
256,291,15439,1,2,0:3:0:0:
151,229,15589,6,0,B|99:195|114:131,1,112,0|2,0:0|0:3,0:0:0:0:
179,58,16039,2,0,B|220:70|220:70|230:103|230:103|296:121,1,146.999995513916,2|2,0:3|0:3,0:0:0:0:
372,213,16639,1,2,0:3:0:0:
382,209,16714,1,0,0:0:0:0:
393,204,16789,6,0,B|455:218|490:164,1,112,2|2,0:3|0:3,0:0:0:0:
414,115,17239,2,0,L|406:295,1,178.500003404617,2|2,0:3|0:3,0:0:0:0:
256,352,17989,6,0,B|198:408|124:390|84:323|105:239|153:223|193:242|188:274|168:274,1,293.999991027832,0|2,0:0|0:3,0:0:0:0:
404,71,19189,6,0,B|385:58|388:42|388:42|385:58|361:63,1,70,8|8,0:3|0:3,0:0:0:0:
301,126,19489,1,8,0:1:0:0:
404,211,19639,6,0,B|476:223|504:154,2,125.999996154785,2|8|8,0:3|0:1|0:1,0:0:0:0:
313,163,20389,5,8,0:3:0:0:
358,257,20539,1,8,0:3:0:0:
377,154,20689,1,8,0:1:0:0:
256,256,20839,6,0,B|219:195|148:209,1,125.999996154785,8|8,0:3|0:3,0:0:0:0:
68,146,21289,2,0,B|55:117|55:117|69:86,1,62.9999980773926,8|8,0:1|0:3,0:0:0:0:
79,90,21514,1,8,0:1:0:0:
90,90,21589,5,8,0:3:0:0:
148,22,21739,1,8,0:3:0:0:
232,55,21889,1,8,0:1:0:0:
194,176,22039,6,0,B|188:249|255:274,1,125.999996154785,2|8,0:3|0:1,0:0:0:0:
381,321,22489,6,0,B|365:316|365:303|365:303|365:316|349:321,1,52.5000020027161,2|8,0:3|0:1,0:0:0:0:
274,384,22789,6,0,B|308:353|308:353|261:52|261:52|266:84|301:105,1,420,8|8,0:3|0:1,0:0:0:0:
433,111,23839,5,8,0:3:0:0:
433,111,23914,1,8,0:1:0:0:
433,111,23989,2,0,B|445:83|445:83|430:53,1,59.5000011348725,8|8,0:3|0:3,0:0:0:0:
494,174,24289,1,8,0:1:0:0:
397,234,24439,6,0,B|328:218|298:277,1,119.000002269745,2|8,0:3|0:1,0:0:0:0:
297,277,24889,2,0,L|246:255,1,56,2|8,0:3|0:1,0:0:0:0:
102,181,25189,5,8,0:3:0:0:
147,271,25339,1,8,0:3:0:0:
166,171,25489,1,8,0:1:0:0:
92,242,25639,6,0,B|-16:276,1,112,8|8,0:3|0:3,0:0:0:0:
166,171,26089,2,0,B|226:192,1,62.9999980773926,8|8,0:1|0:3,0:0:0:0:
225,191,26314,1,8,0:1:0:0:
225,191,26389,5,8,0:3:0:0:
214,286,26539,1,8,0:3:0:0:
293,327,26689,1,8,0:1:0:0:
398,266,26839,6,0,B|441:211|397:150,1,125.999996154785,2|8,0:3|0:1,0:0:0:0:
325,37,27289,6,0,B|314:63|314:63|326:89,1,56,2|8,0:3|0:1,0:0:0:0:
468,65,27589,6,0,B|449:101|449:101|219:168,1,280,8|8,0:3|0:3,0:0:0:0:
135,193,28339,5,8,0:3:0:0:
84,272,28489,5,8,0:1:0:0:
106,371,28639,5,8,0:3:0:0:
106,371,28714,1,8,0:1:0:0:
106,371,28789,2,0,B|162:355,1,56,8|8,0:3|0:3,0:0:0:0:
193,277,29089,1,8,0:1:0:0:
70,234,29239,6,0,B|23:177|68:115,2,125.999996154785,2|8|8,0:3|0:1|0:1,0:0:0:0:
108,328,29989,5,8,0:3:0:0:
130,227,30139,1,8,0:3:0:0:
56,292,30289,1,8,0:1:0:0:
195,309,30439,6,0,B|246:318|246:318|263:355|305:354,1,125.999996154785,8|8,0:3|0:3,0:0:0:0:
397,315,30889,2,0,B|408:287|408:287|395:257,1,62.9999980773926,8|8,0:1|0:3,0:0:0:0:
395,248,31114,1,8,0:1:0:0:
395,239,31189,5,8,0:3:0:0:
342,166,31339,1,8,0:3:0:0:
427,114,31489,1,8,0:1:0:0:
358,32,31639,6,0,B|325:88|256:74,1,119.000002269745,2|8,0:3|0:1,0:0:0:0:
121,86,32089,6,0,B|98:77|98:77|121:67,1,48.9999985046387,2|8,0:3|0:1,0:0:0:0:
193,14,32389,6,0,B|202:18|211:26|221:34|228:44|231:55|238:66|238:80|238:91|239:103|232:117|231:127|223:137|214:145|205:152|194:158|183:164|169:166|156:166|145:166|130:165|120:165|107:167|94:172|85:175|75:182|67:192|60:206|53:215|49:227|47:238|50:249|53:263|54:276|62:285|70:296|77:304|88:311|100:316,1,440.999986541749,8|8,0:3|0:1,0:0:0:0:
208,381,33439,5,8,0:3:0:0:
208,381,33514,1,8,0:1:0:0:
208,381,33589,2,0,B|228:362|228:362|256:370,1,56,8|8,0:3|0:3,0:0:0:0:
309,298,33889,1,8,0:1:0:0:
209,244,34039,6,0,L|93:218,1,119.000002269745,2|8,0:3|0:1,0:0:0:0:
94,218,34489,2,0,P|86:192|93:164,1,56,2|8,0:3|0:1,0:0:0:0:
137,29,34789,5,8,0:3:0:0:
179,106,34939,1,8,0:3:0:0:
192,19,35089,1,8,0:1:0:0:
128,84,35239,2,0,B|87:141|17:116,1,125.999996154785,8|8,0:3|0:3,0:0:0:0:
0,236,35689,6,0,L|66:226,1,62.9999980773926,8|8,0:1|0:3,0:0:0:0:
62,226,35914,1,8,0:1:0:0:
62,226,35989,5,8,0:3:0:0:
91,321,36139,1,8,0:3:0:0:
179,301,36289,1,8,0:1:0:0:
196,173,36439,6,0,B|212:206|212:206|301:221,1,125.999996154785,2|8,0:3|0:1,0:0:0:0:
382,277,36889,6,0,B|394:302|382:331,1,52.5000020027161,2|8,0:3|0:1,0:0:0:0:
268,365,37189,6,0,B|308:348|308:348|388:121,1,280,8|8,0:3|0:3,0:0:0:0:
353,34,37939,5,8,0:3:0:0:
256,7,38089,5,8,0:1:0:0:
164,53,38239,5,8,0:3:0:0:
164,53,38314,1,8,0:1:0:0:
164,53,38389,1,4,0:0:0:0:
467,313,43189,6,0,B|436:313|436:313|416:325|416:325|395:313|395:313|362:313,1,112,2|2,0:3|0:3,0:0:0:0:
275,368,43639,2,0,B|186:374|176:278,1,146.999995513916,2|2,0:3|0:3,0:0:0:0:
176,282,44239,1,2,0:3:0:0:
72,219,44389,6,0,B|108:204|108:204|123:133,1,112,0|2,0:3|0:3,0:0:0:0:
140,33,44839,2,0,B|96:22|90:-13|90:-13|96:21|61:51,1,146.999995513916,2|2,0:3|0:3,0:0:0:0:
142,166,45439,1,2,0:3:0:0:
154,166,45514,1,0,0:0:0:0:
165,166,45589,6,0,B|217:166|217:166|235:194|269:193,1,112,2|2,0:3|0:3,0:0:0:0:
347,250,46039,2,0,B|433:249|443:160,1,146.999995513916,2|2,0:3|0:3,0:0:0:0:
161,40,46789,6,0,B|103:55|56:3|56:3|132:201|132:201|166:164,1,377.999988464356,0|2,0:0|0:3,0:0:0:0:
337,107,47989,6,0,L|281:107,1,56,8|8,0:3|0:3,0:0:0:0:
391,39,48289,1,8,0:1:0:0:
483,148,48439,6,0,B|546:105|517:35,2,125.999996154785,2|8|8,0:3|0:1|0:1,0:0:0:0:
373,123,49189,5,8,0:3:0:0:
484,163,49339,1,8,0:3:0:0:
393,224,49489,1,8,0:1:0:0:
444,300,49639,6,0,B|387:249|321:279,1,132.999996448517,8|8,0:3|0:3,0:0:0:0:
189,207,50089,2,0,B|217:221|217:221|247:205,1,62.9999980773926,8|8,0:1|0:3,0:0:0:0:
245,196,50314,1,8,0:1:0:0:
245,185,50389,5,8,0:3:0:0:
312,125,50539,1,8,0:3:0:0:
395,165,50689,1,8,0:1:0:0:
494,89,50839,6,0,B|422:75|417:0,1,125.999996154785,2|8,0:3|0:1,0:0:0:0:
297,39,51289,6,0,B|312:34|312:22|312:22|312:34|327:39,1,48.9999985046387,2|8,0:3|0:1,0:0:0:0:
512,0,51589,6,0,B|357:65|357:65|350:146|350:146|189:208,1,420,8|8,0:3|0:1,0:0:0:0:
115,100,52639,5,8,0:3:0:0:
115,100,52714,1,8,0:1:0:0:
115,100,52789,2,0,B|101:127|101:127|114:157,1,62.9999980773926,8|8,0:3|0:3,0:0:0:0:
191,207,53089,1,8,0:1:0:0:
110,310,53239,6,0,B|178:286|223:342,1,125.999996154785,2|8,0:3|0:1,0:0:0:0:
222,341,53689,2,0,L|279:341,1,56,2|8,0:3|0:1,0:0:0:0:
399,294,53989,5,8,0:3:0:0:
356,384,54139,1,8,0:3:0:0:
309,294,54289,1,8,0:1:0:0:
437,341,54439,6,0,B|483:283|435:218,1,132.999996448517,8|8,0:3|0:3,0:0:0:0:
475,127,54889,2,0,B|456:111|462:96|462:96|456:111|434:112,1,70,8|8,0:1|0:3,0:0:0:0:
434,112,55114,1,8,0:1:0:0:
434,112,55189,5,8,0:3:0:0:
359,73,55339,1,8,0:3:0:0:
310,150,55489,1,8,0:1:0:0:
213,114,55639,6,0,B|175:120|152:89|152:89|94:89,1,125.999996154785,2|8,0:3|0:1,0:0:0:0:
24,166,56089,6,0,B|3:147|3:147|-22:160,1,56,2|8,0:3|0:1,0:0:0:0:
14,20,56389,6,0,B|50:42|50:42|87:245|87:245|128:263,1,293.999991027832,8|8,0:3|0:3,0:0:0:0:
160,351,57139,5,8,0:3:0:0:
256,366,57289,5,8,0:1:0:0:
346,314,57439,5,8,0:3:0:0:
346,306,57514,1,8,0:1:0:0:
347,297,57589,6,0,L|403:277,2,56,2|2|2,0:0|0:0|3:2,0:0:0:0:
274,247,58039,2,0,B|213:265|174:216,2,112,2|2|2,0:0|3:2|3:2,0:0:0:0:
399,278,58789,5,2,0:0:0:0:
466,330,58939,1,2,0:0:0:0:
512,258,59089,1,2,3:2:0:0:
444,205,59239,1,2,0:0:0:0:
444,205,59539,5,2,0:0:0:0:
380,310,59689,2,0,L|326:297,1,56,2|2,3:2|3:2,0:0:0:0:
324,288,59914,1,2,3:2:0:0:
322,278,59989,5,2,3:2:0:0:
238,278,60139,1,2,0:0:0:0:
154,278,60289,1,2,3:2:0:0:
61,211,60439,6,0,B|23:162|58:106,2,112,2|2|2,0:0|3:2|3:2,0:0:0:0:
66,311,61189,6,0,L|115:298,1,48.9999985046387,2|2,0:0|0:0,0:0:0:0:
200,239,61489,6,0,L|147:254,1,56,2|2,3:2|0:0,0:0:0:0:
256,351,61789,6,0,L|316:332,1,62.9999980773926,2|2,0:0|0:0,0:0:0:0:
398,379,62089,5,2,3:2:0:0:
406,255,62239,1,2,3:2:0:0:
406,255,62314,1,2,3:2:0:0:
406,255,62389,6,0,B|470:235,2,66.4999982242585,2|2|2,3:2|0:0|3:2,0:0:0:0:
320,210,62839,2,0,B|267:246|216:213,2,112,2|2|2,0:0|3:2|3:2,0:0:0:0:
397,105,63589,5,2,0:0:0:0:
480,125,63739,1,2,0:0:0:0:
499,42,63889,1,2,3:2:0:0:
417,23,64039,1,2,0:0:0:0:
417,23,64339,5,2,0:0:0:0:
480,125,64489,2,0,B|492:150|492:150|479:178,1,56,2|2,3:2|3:2,0:0:0:0:
469,175,64714,1,2,3:2:0:0:
458,175,64789,5,2,3:2:0:0:
375,192,64939,1,2,0:0:0:0:
333,266,65089,1,2,3:2:0:0:
345,367,65239,6,0,B|387:324|447:342,1,112,2|2,0:0|3:2,0:0:0:0:
447,342,65689,2,0,L|454:291,1,48.9999985046387,2|2,0:0|3:2,0:0:0:0:
375,192,65989,6,0,B|312:197|282:246|282:246|320:184|298:74|222:41|222:41|263:76|255:122,1,440.999986541749,2|2,0:0|3:2,0:0:0:0:
159,192,67039,1,2,3:2:0:0:
159,192,67114,1,2,3:2:0:0:
159,192,67189,5,4,0:0:0:0:
256,192,67264,12,0,71689,0:0:0:0:
48,117,71989,6,0,B|86:80|71:32|71:32|86:80|142:85,1,188.999994232178,2|0,0:0|0:0,0:0:0:0:
293,48,73189,6,0,B|339:169|239:231,1,210,2|0,0:0|0:0,0:0:0:0:
107,265,74389,6,0,B|252:219|306:366,1,251.999992309571,2|0,0:0|0:0,0:0:0:0:
467,190,75589,5,4,0:0:0:0:
256,103,75889,5,4,0:0:0:0:
430,4,76189,5,4,0:0:0:0:
400,97,76339,5,4,0:0:0:0:
369,4,76489,5,4,0:0:0:0:
448,63,76639,5,4,0:0:0:0:
351,63,76789,5,4,0:0:0:0:
