osu file format v14

[General]
AudioFilename: audio.mp3
AudioLeadIn: 0
PreviewTime: 67189
Countdown: 0
SampleSet: Soft
StackLeniency: 0.3
Mode: 0
LetterboxInBreaks: 0
WidescreenStoryboard: 1

[Editor]
DistanceSpacing: 1
BeatDivisor: 4
GridSize: 4
TimelineZoom: 3.699998

[Metadata]
Title:I Stuck A Drill Into My Arm In 2008
TitleUnicode:I Stuck A Drill Into My Arm In 2008
Artist:Distress
ArtistUnicode:Distress
Creator:Knhesyy
Version:Faito's Insane
Source:
Tags:breakcore instrumental melancholic kelowna knhesyy faito niva bielsuu electronic bielsyy
BeatmapID:4057091
BeatmapSetID:1918646

[Difficulty]
HPDrainRate:5
CircleSize:4
OverallDifficulty:8.5
ApproachRate:9
SliderMultiplier:1.8
SliderTickRate:1

[Events]
//Background and Video events
0,0,"tumblr_fa1c093234029c119dd063582eb182de_ee45cfe5_1280.jpg",0,0
//Break Periods
//Storyboard Layer 0 (Background)
//Storyboard Layer 1 (Fail)
//Storyboard Layer 2 (Pass)
//Storyboard Layer 3 (Foreground)
//Storyboard Layer 4 (Overlay)
//Storyboard Sound Samples

[TimingPoints]
9589,300,4,2,0,50,1,0
9589,-133.333333333333,4,2,0,50,0,0
19189,-100,4,2,0,70,0,0
38389,-100,4,2,0,40,0,0
39289,-200,4,2,0,40,0,0
39589,-100,4,2,0,45,0,0
40489,-200,4,2,0,45,0,0
40789,-100,4,2,0,50,0,0
41689,-200,4,2,0,50,0,0
41989,-100,4,2,0,55,0,0
42889,-200,4,2,0,55,0,0
43189,-100,4,2,0,50,0,0
47989,-100,4,2,0,70,0,0
57589,-83.3333333333333,4,2,0,30,0,0
57736,-90.9090909090909,4,2,0,30,0,0
57889,-100,4,2,0,30,0,0
58039,-111.111111111111,4,2,0,30,0,0
58189,-125,4,2,0,30,0,0
58339,-142.857142857143,4,2,0,30,0,0
58489,-166.666666666667,4,2,0,30,0,0
58639,-200,4,2,0,30,0,0
58789,-166.666666666667,4,2,0,30,0,0
58939,-142.857142857143,4,2,0,30,0,0
59089,-125,4,2,0,30,0,0
59239,-111.111111111111,4,2,0,30,0,0
59389,-100,4,2,0,30,0,0
59539,-90.9090909090909,4,2,0,30,0,0
59689,-83.3333333333333,4,2,0,30,0,0
59839,-76.9230769230769,4,2,0,30,0,0
59989,-83.3333333333333,4,2,0,30,0,0
60139,-90.9090909090909,4,2,0,30,0,0
60289,-100,4,2,0,30,0,0
60439,-111.111111111111,4,2,0,30,0,0
60589,-125,4,2,0,30,0,0
60739,-142.857142857143,4,2,0,30,0,0
60889,-166.666666666667,4,2,0,30,0,0
61039,-200,4,2,0,30,0,0
61189,-166.666666666667,4,2,0,30,0,0
61339,-142.857142857143,4,2,0,30,0,0
61489,-125,4,2,0,30,0,0
61639,-111.111111111111,4,2,0,30,0,0
61789,-100,4,2,0,30,0,0
61939,-90.9090909090909,4,2,0,30,0,0
62089,-83.3333333333333,4,2,0,30,0,0
62239,-76.9230769230769,4,2,0,30,0,0
62389,-83.3333333333333,4,2,0,30,0,0
62539,-90.9090909090909,4,2,0,30,0,0
62689,-100,4,2,0,30,0,0
62839,-111.111111111111,4,2,0,30,0,0
62989,-125,4,2,0,30,0,0
63139,-142.857142857143,4,2,0,30,0,0
63289,-166.666666666667,4,2,0,30,0,0
63439,-200,4,2,0,30,0,0
63589,-166.666666666667,4,2,0,30,0,0
63739,-142.857142857143,4,2,0,30,0,0
63889,-125,4,2,0,30,0,0
64039,-111.111111111111,4,2,0,30,0,0
64189,-100,4,2,0,30,0,0
64339,-90.9090909090909,4,2,0,30,0,0
64489,-83.3333333333333,4,2,0,30,0,0
64639,-76.9230769230769,4,2,0,30,0,0
64789,-83.3333333333333,4,2,0,30,0,0
64939,-90.9090909090909,4,2,0,30,0,0
65089,-100,4,2,0,30,0,0
65239,-111.111111111111,4,2,0,30,0,0
65389,-125,4,2,0,30,0,0
65539,-142.857142857143,4,2,0,30,0,0
65689,-166.666666666667,4,2,0,30,0,0
65839,-200,4,2,0,30,0,0
65989,-166.666666666667,4,2,0,30,0,0
66139,-142.857142857143,4,2,0,30,0,0
66289,-125,4,2,0,30,0,0
66439,-111.111111111111,4,2,0,30,0,0
66589,-100,4,2,0,30,0,0
66739,-90.9090909090909,4,2,0,30,0,0
66889,-83.3333333333333,4,2,0,30,0,0
67039,-76.9230769230769,4,2,0,30,0,0
67189,-76.9230769230769,4,2,0,20,0,0
69589,-100,4,2,0,20,0,0
72589,-142.857142857143,4,2,0,20,0,0
74989,-250,4,2,0,20,0,0
76789,-1000,4,2,0,50,0,0
77389,-1000,4,2,0,30,0,0

[Colours]
Combo1 : 96,63,47
Combo2 : 255,50,62
Combo3 : 83,66,36
Combo4 : 100,24,26
Combo5 : 214,12,60
SliderBorder : 51,0,102
SliderTrackOverride : 0,0,0

[HitObjects]
433,333,9589,6,0,L|483:348,3,33.7500012874604,2|0|0|0,0:3|0:0|0:0|0:0,0:0:0:0:
469,334,9889,2,0,L|419:319,1,33.7500012874604,2|0,0:3|0:0,0:0:0:0:
326,368,10039,6,0,L|376:383,5,33.7500012874604,2|0|0|0|0|0,0:3|0:0|0:0|0:0|0:0|0:0,0:0:0:0:
362,369,10489,2,0,L|312:354,1,33.7500012874604,2|0,0:3|0:0,0:0:0:0:
253,328,10639,6,0,L|220:318,5,33.7500012874604,2|0|0|0|0|0,0:3|0:0|0:0|0:0|0:0|0:0,0:0:0:0:
224,309,11089,2,0,L|256:318,1,33.7500012874604,2|0,0:3|0:0,0:0:0:0:
145,360,11239,6,0,L|112:350,5,33.7500012874604,2|0|0|0|0|0,0:3|0:0|0:0|0:0|0:0|0:0,0:0:0:0:
116,341,11689,2,0,L|148:350,1,33.7500012874604,2|0,0:3|0:0,0:0:0:0:
151,340,11839,2,0,L|119:331,1,33.7500012874604,2|0,0:3|0:0,0:0:0:0:
52,267,11989,6,0,P|77:241|79:240,3,33.7500012874604,2|0|0|0,0:3|0:0|0:0|0:0,0:0:0:0:
59,275,12289,2,0,P|84:249|86:248,1,33.7500012874604,2|0,0:3|0:0,0:0:0:0:
142,207,12439,6,0,P|174:191|176:190,5,33.7500012874604,2|0|0|0|0|0,0:3|0:0|0:0|0:0|0:0|0:0,0:0:0:0:
145,216,12889,2,0,P|177:200|179:199,1,33.7500012874604,2|0,0:3|0:0,0:0:0:0:
245,183,13039,6,0,P|280:179|283:179,5,33.7500012874604,2|0|0|0|0|0,0:3|0:0|0:0|0:0|0:0|0:0,0:0:0:0:
244,192,13489,2,0,P|279:188|282:188,1,33.7500012874604,2|0,0:3|0:0,0:0:0:0:
355,190,13639,6,0,P|390:198|391:199,5,33.7500012874604,2|0|0|0|0|0,0:3|0:0|0:0|0:0|0:0|0:0,0:0:0:0:
351,198,14089,2,0,P|386:206|387:207,1,33.7500012874604,2|0,0:3|0:0,0:0:0:0:
379,213,14239,2,0,P|363:207|347:206,1,33.7500012874604,2|0,0:3|0:0,0:0:0:0:
358,88,14389,6,0,L|354:44,3,33.7500012874604,2|0|0|0,0:3|0:0|0:0|0:0,0:0:0:0:
344,43,14689,2,0,L|388:39,1,33.7500012874604,2|0,0:3|0:0,0:0:0:0:
278,78,14839,6,0,L|246:46,5,33.7500012874604,2|0|0|0|0|0,0:3|0:0|0:0|0:0|0:0|0:0,0:0:0:0:
238,52,15289,2,0,L|269:20,1,33.7500012874604,2|0,0:3|0:0,0:0:0:0:
216,127,15439,6,0,L|171:123,5,33.7500012874604,2|0|0|0|0|0,0:3|0:0|0:0|0:0|0:0|0:0,0:0:0:0:
168,132,15889,2,0,L|171:87,1,33.7500012874604,2|0,0:3|0:0,0:0:0:0:
191,208,16039,6,0,L|154:233,5,33.7500012874604,2|0|0|0|0|0,0:3|0:0|0:0|0:0|0:0|0:0,0:0:0:0:
157,242,16489,2,0,L|131:205,1,33.7500012874604,2|0,0:3|0:0,0:0:0:0:
123,223,16639,2,0,L|148:259,1,33.7500012874604,2|0,0:3|0:0,0:0:0:0:
194,324,16789,6,0,P|155:340|148:345,3,33.7500012874604,2|0|0|0,0:3|0:0|0:0|0:0,0:0:0:0:
220,332,17089,2,0,P|204:336|189:343,1,33.7500012874604,2|0,0:3|0:0,0:0:0:0:
299,264,17239,6,0,P|260:280|253:285,5,33.7500012874604,2|0|0|0|0|0,0:3|0:0|0:0|0:0|0:0|0:0,0:0:0:0:
325,272,17689,2,0,P|309:276|294:283,1,33.7500012874604,2|0,0:3|0:0,0:0:0:0:
412,207,17839,6,0,P|373:223|366:228,5,33.7500012874604,2|0|0|0|0|0,0:3|0:0|0:0|0:0|0:0|0:0,0:0:0:0:
438,215,18289,2,0,P|422:219|407:226,1,33.7500012874604,2|0,0:3|0:0,0:0:0:0:
327,162,18439,5,2,0:3:0:0:
330,155,18514,1,0,0:0:0:0:
333,149,18589,1,0,0:0:0:0:
336,143,18664,1,0,0:0:0:0:
339,137,18739,1,0,0:0:0:0:
342,131,18814,1,0,0:0:0:0:
348,128,18889,2,0,L|424:114,1,67.5000025749208,2|2,0:3|0:3,0:0:0:0:
312,47,19189,5,8,0:3:0:0:
237,118,19339,1,8,0:3:0:0:
135,81,19489,1,8,0:1:0:0:
196,25,19639,1,2,0:3:0:0:
195,33,19714,1,0,0:0:0:0:
60,22,19864,1,0,0:0:0:0:
61,30,19939,2,0,L|41:133,1,90,8|2,0:1|0:3,0:0:0:0:
104,163,20239,1,8,0:1:0:0:
57,224,20389,5,8,0:3:0:0:
176,180,20539,1,8,0:3:0:0:
295,224,20689,1,8,0:1:0:0:
201,327,20839,2,0,L|223:226,1,90,8|0,0:3|0:0,0:0:0:0:
274,357,21139,1,8,0:3:0:0:
221,234,21289,1,8,0:1:0:0:
325,300,21439,5,8,0:3:0:0:
342,305,21514,1,8,0:1:0:0:
359,310,21589,2,0,L|468:287,2,90,8|8|8,0:3|0:3|0:1,0:0:0:0:
368,207,22039,1,2,0:3:0:0:
378,224,22114,1,0,0:0:0:0:
464,208,22264,1,0,0:0:0:0:
454,220,22339,2,0,L|455:113,1,90,8|2,0:1|0:3,0:0:0:0:
483,59,22639,1,8,0:1:0:0:
339,105,22789,5,8,0:3:0:0:
407,67,22939,1,8,0:3:0:0:
192,137,23089,1,8,0:1:0:0:
268,99,23239,2,0,L|251:216,1,90,8|0,0:3|0:0,0:0:0:0:
330,212,23539,1,8,0:3:0:0:
259,89,23689,1,8,0:1:0:0:
155,218,23839,5,8,0:3:0:0:
170,229,23914,1,8,0:1:0:0:
184,239,23989,2,0,L|201:356,2,90,8|8|8,0:3|0:3|0:1,0:0:0:0:
82,169,24439,1,2,0:3:0:0:
84,152,24514,1,0,0:0:0:0:
30,59,24664,1,0,0:0:0:0:
28,76,24739,2,0,P|71:71|156:90,1,90,8|2,0:1|0:3,0:0:0:0:
178,31,25039,1,8,0:1:0:0:
245,115,25189,5,8,0:3:0:0:
262,39,25339,1,8,0:3:0:0:
382,60,25489,1,8,0:1:0:0:
358,167,25639,2,0,L|477:152,1,90,8|0,0:3|0:0,0:0:0:0:
289,201,25939,1,8,0:3:0:0:
453,148,26089,1,8,0:1:0:0:
468,283,26239,5,8,0:3:0:0:
454,271,26314,1,8,0:1:0:0:
440,259,26389,2,0,L|321:274,1,90,8|8,0:3|0:3,0:0:0:0:
321,346,26689,1,8,0:1:0:0:
213,339,26839,1,2,0:3:0:0:
189,330,26914,1,0,0:0:0:0:
251,263,27064,1,0,0:0:0:0:
275,254,27139,2,0,L|288:137,1,90,8|2,0:1|0:3,0:0:0:0:
346,114,27439,1,8,0:1:0:0:
193,166,27589,5,8,0:3:0:0:
222,96,27739,1,8,0:3:0:0:
40,60,27889,1,8,0:1:0:0:
133,98,28039,2,0,L|251:82,1,90,8|0,0:3|0:0,0:0:0:0:
271,28,28339,1,8,0:3:0:0:
120,100,28489,1,8,0:1:0:0:
196,202,28639,5,8,0:3:0:0:
205,217,28714,1,8,0:1:0:0:
213,231,28789,2,0,L|124:244,1,90,8|8,0:3|0:3,0:0:0:0:
12,288,29089,1,8,0:1:0:0:
115,325,29239,1,2,0:3:0:0:
131,318,29314,1,0,0:0:0:0:
224,351,29464,1,0,0:0:0:0:
240,344,29539,2,0,P|326:361|369:359,1,90,8|2,0:1|0:3,0:0:0:0:
377,286,29839,1,8,0:1:0:0:
421,366,29989,5,8,0:3:0:0:
455,275,30139,1,8,0:3:0:0:
297,281,30289,1,8,0:1:0:0:
341,162,30439,2,0,L|371:267,1,90,8|0,0:3|0:0,0:0:0:0:
437,137,30739,1,8,0:3:0:0:
328,177,30889,1,8,0:1:0:0:
239,88,31039,5,8,0:3:0:0:
256,90,31114,1,8,0:1:0:0:
273,93,31189,2,0,L|373:62,2,90,8|8|8,0:3|0:3|0:1,0:0:0:0:
171,45,31639,1,2,0:3:0:0:
166,26,31714,1,0,0:0:0:0:
61,124,31864,1,0,0:0:0:0:
66,105,31939,2,0,L|183:125,1,90,8|2,0:1|0:3,0:0:0:0:
197,183,32239,1,8,0:1:0:0:
266,129,32389,5,8,0:3:0:0:
368,146,32539,1,8,0:3:0:0:
470,163,32689,1,8,0:1:0:0:
306,204,32839,2,0,L|295:316,1,90,8|0,0:3|0:0,0:0:0:0:
392,230,33139,1,8,0:3:0:0:
294,305,33289,1,8,0:1:0:0:
477,359,33439,5,8,0:3:0:0:
464,345,33514,1,8,0:1:0:0:
451,331,33589,2,0,L|325:356,1,90,8|8,0:3|0:3,0:0:0:0:
278,378,33889,1,8,0:1:0:0:
221,299,34039,1,2,0:3:0:0:
215,287,34114,1,0,0:0:0:0:
160,367,34264,1,0,0:0:0:0:
154,379,34339,2,0,L|137:255,1,90,8|2,0:1|0:3,0:0:0:0:
70,264,34639,1,8,0:1:0:0:
25,158,34789,5,8,0:3:0:0:
118,151,34939,1,8,0:3:0:0:
214,146,35089,1,8,0:1:0:0:
338,176,35239,2,0,L|358:65,1,90,8|0,0:3|0:0,0:0:0:0:
466,39,35539,1,8,0:3:0:0:
344,89,35689,1,8,0:1:0:0:
236,33,35839,5,8,0:3:0:0:
218,28,35914,1,8,0:1:0:0:
200,23,35989,2,0,L|90:41,1,90,8|8,0:3|0:3,0:0:0:0:
42,13,36289,1,8,0:1:0:0:
80,124,36439,1,2,0:3:0:0:
70,107,36514,1,0,0:0:0:0:
156,198,36664,1,0,0:0:0:0:
146,181,36739,2,0,L|251:192,1,90,8|2,0:1|0:3,0:0:0:0:
273,254,37039,1,8,0:1:0:0:
191,360,37189,5,8,0:3:0:0:
202,269,37339,1,8,0:3:0:0:
343,236,37489,1,8,0:1:0:0:
357,114,37639,2,0,L|465:86,1,90,8|0,0:3|0:0,0:0:0:0:
447,173,37939,1,8,0:3:0:0:
345,112,38089,1,8,0:1:0:0:
400,8,38239,5,8,0:3:0:0:
382,11,38314,1,8,0:1:0:0:
364,16,38389,6,0,L|300:32,11,45,2|0|0|0|2|0|0|0|2|0|0|0,0:0|0:0|0:0|0:0|0:0|0:0|0:0|0:0|0:0|0:0|0:0|0:0,0:0:0:0:
320,27,39289,2,0,L|250:44,1,67.5,10|0,0:0|0:0,0:0:0:0:
141,65,39589,6,0,L|124:128,11,45,2|0|0|0|2|0|0|0|2|0|0|0,0:0|0:0|0:0|0:0|0:0|0:0|0:0|0:0|0:0|0:0|0:0|0:0,0:0:0:0:
129,108,40489,2,0,L|199:125,1,67.5,10|0,0:0|0:0,0:0:0:0:
267,140,40789,6,0,L|330:123,11,45,2|0|0|0|2|0|0|0|2|0|0|0,0:0|0:0|0:0|0:0|0:0|0:0|0:0|0:0|0:0|0:0|0:0|0:0,0:0:0:0:
311,129,41689,2,0,L|381:112,1,67.5,10|0,0:0|0:0,0:0:0:0:
452,159,41989,6,0,P|431:212|439:234,11,45,2|0|0|0|2|0|0|0|2|0|0|0,0:0|0:0|0:0|0:0|0:0|0:0|0:0|0:0|0:0|0:0|0:0|0:0,0:0:0:0:
430,197,42889,2,0,L|461:272,1,67.5,10|0,0:0|0:0,0:0:0:0:
363,317,43189,6,0,L|311:329,3,45,2|0|0|0,0:3|0:0|0:0|0:0,0:0:0:0:
353,329,43489,2,0,L|301:341,1,45,2|0,0:3|0:0,0:0:0:0:
239,357,43639,1,2,0:3:0:0:
230,354,43714,1,0,0:0:0:0:
221,351,43789,1,0,0:0:0:0:
212,348,43864,1,0,0:0:0:0:
203,345,43939,2,0,L|151:357,1,45
82,375,44089,1,2,0:3:0:0:
82,375,44239,1,2,0:3:0:0:
51,267,44389,6,0,L|121:253,3,45
60,253,44689,2,0,L|130:239,1,45,2|0,0:3|0:0,0:0:0:0:
200,220,44839,1,2,0:3:0:0:
198,211,44914,1,0,0:0:0:0:
193,203,44989,1,0,0:0:0:0:
187,196,45064,1,0,0:0:0:0:
181,190,45139,2,0,L|111:176,1,45
70,143,45289,1,2,0:3:0:0:
70,143,45439,1,2,0:3:0:0:
137,46,45589,6,0,L|147:111,3,45,2|0|0|0,0:3|0:0|0:0|0:0,0:0:0:0:
149,57,45889,2,0,L|159:122,1,45,2|0,0:3|0:0,0:0:0:0:
236,88,46039,1,2,0:3:0:0:
235,80,46114,1,0,0:0:0:0:
234,72,46189,1,0,0:0:0:0:
233,64,46264,1,0,0:0:0:0:
232,56,46339,2,0,L|222:-9,1,45
304,4,46489,1,2,0:3:0:0:
304,4,46639,1,2,0:3:0:0:
414,82,46789,6,0,L|376:122,3,45
426,97,47089,2,0,L|388:137,1,45,2|0,0:3|0:0,0:0:0:0:
456,210,47239,1,2,0:3:0:0:
447,209,47314,1,0,0:0:0:0:
438,208,47389,1,0,0:0:0:0:
429,207,47464,1,0,0:0:0:0:
420,206,47539,1,0,0:0:0:0:
411,205,47614,1,0,0:0:0:0:
402,204,47689,1,2,0:3:0:0:
356,266,47839,1,2,0:3:0:0:
294,209,47989,5,8,0:3:0:0:
201,271,48139,1,8,0:3:0:0:
267,364,48289,1,8,0:1:0:0:
173,364,48439,1,2,0:3:0:0:
183,350,48514,1,0,0:0:0:0:
109,317,48664,1,0,0:0:0:0:
97,305,48739,2,0,L|3:324,2,90,8|2|8,0:1|0:3|0:1,0:0:0:0:
104,221,49189,5,8,0:3:0:0:
215,180,49339,1,8,0:3:0:0:
0,184,49489,1,8,0:1:0:0:
113,224,49639,2,0,L|135:111,1,90,8|0,0:3|0:0,0:0:0:0:
233,94,49939,1,8,0:3:0:0:
57,97,50089,1,8,0:1:0:0:
154,11,50239,5,8,0:3:0:0:
155,19,50314,1,8,0:1:0:0:
156,27,50389,2,0,L|259:10,1,90,8|8,0:3|0:3,0:0:0:0:
315,38,50689,1,8,0:1:0:0:
421,34,50839,1,2,0:3:0:0:
415,49,50914,1,0,0:0:0:0:
354,101,51064,1,0,0:0:0:0:
360,116,51139,2,0,P|376:164|382:229,1,90,8|2,0:1|0:3,0:0:0:0:
441,252,51439,1,8,0:1:0:0:
299,259,51589,5,8,0:3:0:0:
428,276,51739,1,8,0:3:0:0:
400,384,51889,1,8,0:1:0:0:
271,367,52039,2,0,L|267:261,1,90,8|0,0:3|0:0,0:0:0:0:
201,212,52339,5,8,0:3:0:0:
330,229,52489,1,8,0:1:0:0:
191,347,52639,5,8,0:3:0:0:
191,347,52714,1,8,0:1:0:0:
191,347,52789,1,8,0:3:0:0:
124,283,52939,1,8,0:3:0:0:
104,364,53089,1,8,0:1:0:0:
46,273,53239,1,2,0:3:0:0:
40,260,53314,1,0,0:0:0:0:
111,179,53464,1,0,0:0:0:0:
117,192,53539,2,0,L|-3:180,2,90,8|2|8,0:1|0:3|0:1,0:0:0:0:
180,137,53989,5,8,0:3:0:0:
209,227,54139,1,8,0:3:0:0:
260,113,54289,1,8,0:1:0:0:
231,23,54439,2,0,L|225:131,1,90,8|0,0:3|0:0,0:0:0:0:
306,41,54739,1,8,0:3:0:0:
154,9,54889,1,8,0:1:0:0:
375,4,55039,5,8,0:3:0:0:
382,8,55114,1,8,0:1:0:0:
390,10,55189,2,0,L|396:118,1,90,8|8,0:3|0:3,0:0:0:0:
467,123,55489,1,8,0:1:0:0:
427,212,55639,1,2,0:3:0:0:
418,195,55714,1,0,0:0:0:0:
334,250,55864,1,0,0:0:0:0:
343,267,55939,2,0,L|216:256,1,90,8|2,0:1|0:3,0:0:0:0:
205,314,56239,1,8,0:1:0:0:
276,359,56389,5,8,0:3:0:0:
180,317,56539,1,8,0:3:0:0:
96,379,56689,1,8,0:1:0:0:
0,337,56839,2,0,L|102:350,1,90,8|0,0:3|0:0,0:0:0:0:
44,264,57139,1,8,0:3:0:0:
123,203,57289,1,8,0:1:0:0:
256,192,57439,5,8,0:3:0:0:
256,192,57514,1,8,0:1:0:0:
256,192,57589,6,0,L|256:128,1,53.9999983520508,2|0,0:0|0:0,0:0:0:0:
256,192,57739,2,0,L|311:160,1,49.5000015106202
256,192,57889,2,0,L|311:224,1,45,0|0,3:2|0:0,0:0:0:0:
256,192,58039,2,0,L|256:256,1,40.4999987640381
256,192,58189,2,0,L|200:224,1,36
256,192,58339,2,0,L|218:170,1,31.4999990386963,0|0,3:2|0:0,0:0:0:0:
256,192,58489,2,0,L|256:140,1,26.9999991760254
256,192,58639,2,0,L|278:179,1,22.5,0|0,3:2|0:0,0:0:0:0:
256,192,58789,6,0,L|286:209,1,26.9999991760254,2|0,0:0|0:0,0:0:0:0:
256,192,58939,2,0,L|256:224,1,31.4999990386963
256,192,59089,2,0,L|219:212,1,36,0|0,3:2|0:0,0:0:0:0:
256,192,59239,2,0,L|214:167,1,40.4999987640381
256,192,59389,2,0,L|255:143,1,45
256,192,59539,2,0,L|306:162,1,49.5000015106202
256,192,59689,2,0,L|315:226,1,53.9999983520508,0|0,3:2|0:0,0:0:0:0:
256,192,59839,2,0,L|256:255,1,58.4999973220826,0|0,3:2|3:2,0:0:0:0:
256,192,59989,6,0,L|200:223,1,53.9999983520508,2|0,0:0|0:0,0:0:0:0:
256,192,60139,2,0,L|200:160,1,49.5000015106202
256,192,60289,2,0,L|255:128,1,45,0|0,3:2|0:0,0:0:0:0:
256,192,60439,2,0,L|311:160,1,40.4999987640381
256,192,60589,2,0,L|311:223,1,36
256,192,60739,2,0,L|256:249,1,31.4999990386963,0|0,3:2|0:0,0:0:0:0:
256,192,60889,2,0,L|218:213,1,26.9999991760254
256,192,61039,2,0,L|218:170,1,22.5,0|0,3:2|0:0,0:0:0:0:
256,192,61189,6,0,L|256:148,1,26.9999991760254,2|0,0:0|0:0,0:0:0:0:
256,192,61339,2,0,L|294:170,1,31.4999990386963
256,192,61489,2,0,L|294:214,1,36,0|0,3:2|0:0,0:0:0:0:
256,192,61639,2,0,L|255:235,1,40.4999987640381
256,192,61789,2,0,L|194:227,1,45
256,192,61939,2,0,L|178:147,1,49.5000015106202
256,192,62089,2,0,L|256:119,1,53.9999983520508,0|0,3:2|0:0,0:0:0:0:
256,192,62239,2,0,L|317:156,1,58.4999973220826,0|0,3:2|3:2,0:0:0:0:
256,192,62389,6,0,L|256:120,1,53.9999983520508,2|0,0:0|0:0,0:0:0:0:
256,192,62539,2,0,L|194:156,1,49.5000015106202
256,192,62689,2,0,L|194:227,1,45,0|0,3:2|0:0,0:0:0:0:
256,192,62839,2,0,L|255:263,1,40.4999987640381
256,192,62989,2,0,L|307:221,1,36
256,192,63139,2,0,L|307:162,1,31.4999990386963,0|0,3:2|0:0,0:0:0:0:
256,192,63289,2,0,L|256:148,1,26.9999991760254
256,192,63439,2,0,L|218:170,1,22.5,0|0,3:2|0:0,0:0:0:0:
256,192,63589,6,0,L|218:213,1,26.9999991760254,2|0,0:0|0:0,0:0:0:0:
256,192,63739,2,0,L|255:235,1,31.4999990386963
256,192,63889,2,0,L|293:213,1,36,0|0,3:2|0:0,0:0:0:0:
256,192,64039,2,0,L|293:170,1,40.4999987640381
256,192,64189,2,0,L|256:132,1,45
256,192,64339,2,0,L|194:156,1,49.5000015106202
256,192,64489,2,0,L|178:236,1,53.9999983520508,0|0,3:2|0:0,0:0:0:0:
256,192,64639,2,0,L|255:270,1,58.4999973220826,0|0,3:2|3:2,0:0:0:0:
256,192,64789,6,0,L|324:231,1,53.9999983520508,2|0,0:0|0:0,0:0:0:0:
256,192,64939,2,0,L|324:152,1,49.5000015106202
256,192,65089,2,0,L|256:113,1,45,0|0,3:2|0:0,0:0:0:0:
256,192,65239,2,0,L|187:152,1,40.4999987640381
256,192,65389,2,0,L|213:216,1,36
256,192,65539,2,0,L|255:231,1,31.4999990386963,0|0,3:2|0:0,0:0:0:0:
256,192,65689,2,0,L|290:211,1,26.9999991760254
256,192,65839,2,0,L|290:172,1,22.5,0|0,3:2|0:0,0:0:0:0:
256,192,65989,6,0,L|256:152,1,26.9999991760254,2|0,0:0|0:0,0:0:0:0:
256,192,66139,2,0,L|221:172,1,31.4999990386963
256,192,66289,2,0,L|221:211,1,36,0|0,3:2|0:0,0:0:0:0:
256,192,66439,2,0,L|255:243,1,40.4999987640381
256,192,66589,2,0,L|311:224,1,45
256,192,66739,2,0,L|319:155,1,49.5000015106202
256,192,66889,2,0,L|256:120,1,53.9999983520508,0|0,3:2|0:0,0:0:0:0:
256,192,67039,2,0,L|194:156,1,58.4999973220826,0|0,3:2|0:0,0:0:0:0:
256,192,67189,6,0,L|194:227,31,58.4999973220826,2|0|0|0|0|0|0|0|0|0|0|0|0|0|0|0|0|0|0|0|0|0|0|0|0|0|0|0|0|0|0|0,0:0|0:0|0:0|0:0|0:0|0:0|0:0|0:0|0:0|0:0|0:0|0:0|0:0|0:0|0:0|0:0|0:0|0:0|0:0|0:0|0:0|0:0|0:0|0:0|0:0|0:0|0:0|0:0|0:0|0:0|0:0|0:0,0:0:0:0:
256,192,69589,6,0,L|255:245,39,45,2|0|0|0|0|0|0|0|0|0|0|0|0|0|0|0|0|0|0|0|0|0|0|0|0|0|0|0|0|0|0|0|0|0|0|0|0|0|0|0,0:0|0:0|0:0|0:0|0:0|0:0|0:0|0:0|0:0|0:0|0:0|0:0|0:0|0:0|0:0|0:0|0:0|0:0|0:0|0:0|0:0|0:0|0:0|0:0|0:0|0:0|0:0|0:0|0:0|0:0|0:0|0:0|0:0|0:0|0:0|0:0|0:0|0:0|0:0|0:0,0:0:0:0:
256,192,72589,6,0,L|302:219,31,31.4999990386963,2|0|0|0|0|0|0|0|0|0|0|0|0|0|0|0|0|0|0|0|0|0|0|0|0|0|0|0|0|0|0|0,0:0|0:0|0:0|0:0|0:0|0:0|0:0|0:0|0:0|0:0|0:0|0:0|0:0|0:0|0:0|0:0|0:0|0:0|0:0|0:0|0:0|0:0|0:0|0:0|0:0|0:0|0:0|0:0|0:0|0:0|0:0|0:0,0:0:0:0:
256,192,74989,6,0,L|279:178,23,18,2|0|0|0|0|0|0|0|0|0|0|0|0|0|0|0|0|0|0|0|0|0|0|0,0:0|0:0|0:0|0:0|0:0|0:0|0:0|0:0|0:0|0:0|0:0|0:0|0:0|0:0|0:0|0:0|0:0|0:0|0:0|0:0|0:0|0:0|0:0|0:0,0:0:0:0:
256,192,76789,6,0,L|256:156,1,36,6|0,0:0|0:0,0:0:0:0:
