osu file format v14

[General]
AudioFilename: audio.mp3
AudioLeadIn: 0
PreviewTime: 63517
Countdown: 1
SampleSet: Normal
StackLeniency: 0.7
Mode: 0
LetterboxInBreaks: 0
WidescreenStoryboard: 0

[Editor]
DistanceSpacing: 1.1
BeatDivisor: 4
GridSize: 4
TimelineZoom: 1

[Metadata]
Title:Energy
TitleUnicode:Energy
Artist:Disphonia
ArtistUnicode:Disphonia
Creator:FlusiFurioso
Version:Extra
Source:
Tags:
BeatmapID:1424656
BeatmapSetID:673124

[Difficulty]
HPDrainRate:5
CircleSize:4
OverallDifficulty:9
ApproachRate:9.6
SliderMultiplier:1.99999990463257
SliderTickRate:2

[Events]
//Background and Video events
0,0,"NQT6U.jpg",0,0
//Break Periods
2,44406,46111
2,47509,49042
2,49923,54732
//Storyboard Layer 0 (Background)
//Storyboard Layer 1 (Fail)
//Storyboard Layer 2 (Pass)
//Storyboard Layer 3 (Foreground)
//Storyboard Sound Samples

[TimingPoints]
69,344.827586206897,4,1,0,100,1,0
46620,-133.333333333333,4,1,0,100,0,0
47310,-100,4,1,0,100,0,0

[HitObjects]
120,128,69,5,0,0:0:0:0:
256,48,413,1,0,0:0:0:0:
352,80,586,2,0,L|440:128,1,99.9999952316285
320,216,1103,6,0,P|272:200|224:216,1,99.9999952316285
368,144,1448,1,0,0:0:0:0:
216,144,1620,1,0,0:0:0:0:
256,80,1793,2,0,P|304:96|352:80,1,99.9999952316285
400,128,2482,6,0,P|384:176|400:224,1,99.9999952316285
328,80,2827,1,0,0:0:0:0:
328,232,2999,1,0,0:0:0:0:
264,192,3172,2,0,P|280:144|264:96,1,99.9999952316285
192,104,3862,6,0,P|176:152|192:200,1,99.9999952316285
120,56,4207,1,0,0:0:0:0:
120,208,4379,1,0,0:0:0:0:
56,168,4552,2,0,P|72:120|56:72,1,99.9999952316285
224,104,5241,6,0,B|240:152|240:152|256:88|256:88|272:136|272:136|296:120|304:112|304:96|312:104,1,199.999990463257
96,88,6103,2,0,P|144:104|200:80,1,99.9999952316285
184,240,6620,2,0,P|232:256|280:240,1,99.9999952316285
320,280,6965,6,0,P|336:232|320:184,1,99.9999952316285
360,120,7310,6,0,P|408:136|456:120,2,99.9999952316285
216,96,8000,6,0,P|160:80|104:96,1,99.9999952316285
160,152,8344,2,0,P|128:200|168:232,1,99.9999952316285
208,264,8689,2,0,P|160:296|88:256,1,99.9999952316285
248,96,9379,5,0,0:0:0:0:
256,192,9724,12,0,10931,0:0:0:0:
456,176,11103,6,0,P|424:136|360:112,1,99.9999952316285
272,96,11448,1,0,0:0:0:0:
128,168,11620,1,0,0:0:0:0:
136,176,11706,1,0,0:0:0:0:
136,176,11793,1,0,0:0:0:0:
136,176,11879,1,0,0:0:0:0:
312,256,12137,6,0,B|384:240|376:168|400:152,1,99.9999952316285
360,160,12482,1,0,0:0:0:0:
352,104,12655,6,0,B|280:120|288:192|264:208,1,99.9999952316285
144,184,13000,5,0,0:0:0:0:
152,192,13086,1,0,0:0:0:0:
152,192,13173,1,0,0:0:0:0:
152,192,13259,1,0,0:0:0:0:
192,56,13517,6,0,B|264:88|264:88|336:88|392:104|392:104,2,199.999990463257
168,208,14379,5,0,0:0:0:0:
176,216,14465,1,0,0:0:0:0:
176,216,14552,1,0,0:0:0:0:
176,216,14638,1,0,0:0:0:0:
224,136,14896,2,0,B|280:144|352:104|352:40|352:40|384:136|424:160|496:144,1,349.9999833107
184,224,15758,5,0,0:0:0:0:
192,232,15844,1,0,0:0:0:0:
192,232,15931,1,0,0:0:0:0:
192,232,16017,1,0,0:0:0:0:
424,144,16448,6,0,L|424:184,3,33.3333317438762
344,232,16793,2,0,P|304:144|288:128,1,99.9999952316285
248,88,17137,1,0,0:0:0:0:
216,80,17224,1,0,0:0:0:0:
184,80,17310,1,0,0:0:0:0:
152,96,17396,1,0,0:0:0:0:
320,184,17827,5,0,0:0:0:0:
288,176,17914,1,0,0:0:0:0:
248,176,18000,2,0,P|192:176|152:200,1,99.9999952316285
144,292,18344,1,0,0:0:0:0:
264,296,18517,5,0,0:0:0:0:
296,304,18604,1,0,0:0:0:0:
328,304,18690,1,0,0:0:0:0:
360,288,18776,1,0,0:0:0:0:
424,168,19206,5,0,0:0:0:0:
432,136,19293,1,0,0:0:0:0:
432,104,19379,1,0,0:0:0:0:
416,72,19465,1,0,0:0:0:0:
256,192,19724,12,0,21448,0:0:0:0:
304,96,21965,5,0,0:0:0:0:
304,96,22051,1,0,0:0:0:0:
304,96,22137,1,0,0:0:0:0:
304,96,22224,1,0,0:0:0:0:
160,192,22827,5,0,0:0:0:0:
256,288,23000,1,0,0:0:0:0:
344,136,23172,2,0,P|360:80|312:48,1,99.9999952316285
208,48,23517,1,0,0:0:0:0:
416,136,24206,5,0,0:0:0:0:
256,40,24379,1,0,0:0:0:0:
296,152,24551,2,0,B|304:208|256:224|272:248,1,99.9999952316285
128,184,24896,1,0,0:0:0:0:
400,208,25586,5,0,0:0:0:0:
208,144,25758,1,0,0:0:0:0:
224,272,25931,1,0,0:0:0:0:
312,96,26103,1,0,0:0:0:0:
336,320,26275,1,0,0:0:0:0:
176,80,26965,5,0,0:0:0:0:
224,80,27137,1,0,0:0:0:0:
296,192,27310,1,0,0:0:0:0:
176,80,27482,1,0,0:0:0:0:
224,80,27655,1,0,0:0:0:0:
128,272,28344,5,0,0:0:0:0:
264,40,28517,1,0,0:0:0:0:
128,272,28689,1,0,0:0:0:0:
264,40,28862,1,0,0:0:0:0:
208,168,29034,1,0,0:0:0:0:
408,192,29724,5,0,0:0:0:0:
352,88,29896,1,0,0:0:0:0:
264,176,30069,2,0,P|272:104|248:80,1,99.9999952316285
136,144,30413,2,0,P|136:216|184:216,1,99.9999952316285
256,192,30758,12,0,33000,0:0:0:0:
432,128,33172,5,0,0:0:0:0:
256,120,33862,2,0,P|184:104|144:104,1,99.9999952316285
112,192,34206,1,0,0:0:0:0:
376,192,34379,1,0,0:0:0:0:
192,192,34551,1,0,0:0:0:0:
448,192,34724,1,0,0:0:0:0:
368,112,35241,6,0,P|352:48|288:40,1,99.9999952316285
344,240,35586,1,0,0:0:0:0:
240,72,35758,1,0,0:0:0:0:
352,312,35931,1,0,0:0:0:0:
240,144,36103,1,0,0:0:0:0:
168,272,36448,5,0,0:0:0:0:
128,264,36534,1,0,0:0:0:0:
104,232,36620,1,0,0:0:0:0:
120,128,36965,2,0,P|152:80|232:64,1,99.9999952316285
192,136,37310,2,0,P|224:88|304:72,1,99.9999952316285
400,160,38000,5,0,0:0:0:0:
328,48,38172,1,0,0:0:0:0:
424,56,38344,1,0,0:0:0:0:
312,136,38517,1,0,0:0:0:0:
400,160,38689,2,0,P|440:208|440:248,1,99.9999952316285
96,240,39379,5,0,0:0:0:0:
88,104,39551,1,0,0:0:0:0:
256,104,39724,1,0,0:0:0:0:
256,240,39896,1,0,0:0:0:0:
96,240,40069,1,0,0:0:0:0:
96,240,40758,5,0,0:0:0:0:
256,240,40931,1,0,0:0:0:0:
256,96,41103,1,0,0:0:0:0:
88,104,41275,1,0,0:0:0:0:
256,96,41448,1,0,0:0:0:0:
256,248,41965,5,0,0:0:0:0:
280,216,42051,1,0,0:0:0:0:
312,200,42137,1,0,0:0:0:0:
168,168,42827,5,0,0:0:0:0:
202,132,42913,1,0,0:0:0:0:
246,109,42999,1,0,0:0:0:0:
296,101,43085,1,0,0:0:0:0:
344,104,43172,2,0,L|392:120,3,49.9999976158143
416,136,43517,5,0,0:0:0:0:
380,169,43603,1,0,0:0:0:0:
333,187,43689,1,0,0:0:0:0:
286,203,43775,1,0,0:0:0:0:
241,224,43861,1,0,0:0:0:0:
200,240,43948,1,0,0:0:0:0:
150,240,44034,1,0,0:0:0:0:
117,207,44120,1,0,0:0:0:0:
135,162,44206,1,0,0:0:0:0:
204,240,46620,6,0,B|288:116|288:116|264:152|264:152|272:140|272:140|212:228|212:228,1,299.999997138977
208,192,49551,6,0,B|208:152|232:136|256:152|264:184|216:192,1,99.9999952316285
344,184,55241,5,0,0:0:0:0:
176,304,55586,1,0,0:0:0:0:
128,112,55931,5,0,0:0:0:0:
160,120,56275,1,0,0:0:0:0:
192,136,56620,1,0,0:0:0:0:
224,152,56965,1,0,0:0:0:0:
256,176,57310,1,0,0:0:0:0:
224,152,57655,5,0,0:0:0:0:
192,128,58000,1,0,0:0:0:0:
168,96,58344,1,0,0:0:0:0:
144,64,58689,1,0,0:0:0:0:
128,32,59034,1,0,0:0:0:0:
288,56,59379,5,0,0:0:0:0:
288,56,59724,1,0,0:0:0:0:
176,176,60069,1,0,0:0:0:0:
176,176,60413,1,0,0:0:0:0:
295,313,60758,5,0,0:0:0:0:
152,267,60931,1,0,0:0:0:0:
152,116,61103,1,0,0:0:0:0:
295,70,61275,1,0,0:0:0:0:
383,192,61448,1,0,0:0:0:0:
247,319,61620,5,0,0:0:0:0:
132,222,61793,1,0,0:0:0:0:
188,83,61965,1,0,0:0:0:0:
338,94,62137,1,0,0:0:0:0:
374,239,62310,1,0,0:0:0:0:
200,306,62482,5,0,0:0:0:0:
129,174,62655,1,0,0:0:0:0:
233,66,62827,1,0,0:0:0:0:
368,132,63000,1,0,0:0:0:0:
348,280,63172,1,0,0:0:0:0:
200,306,63344,1,0,0:0:0:0:
112,192,63517,5,0,0:0:0:0:
114,143,63603,1,0,0:0:0:0:
156,127,63689,1,0,0:0:0:0:
192,161,63775,1,0,0:0:0:0:
219,203,63861,1,0,0:0:0:0:
242,185,63948,1,0,0:0:0:0:
264,141,64034,1,0,0:0:0:0:
297,104,64120,1,0,0:0:0:0:
342,84,64206,1,0,0:0:0:0:
391,90,64292,1,0,0:0:0:0:
431,119,64379,1,0,0:0:0:0:
457,162,64465,1,0,0:0:0:0:
472,224,64551,5,0,0:0:0:0:
416,280,64637,1,0,0:0:0:0:
344,304,64723,1,0,0:0:0:0:
272,320,64810,1,0,0:0:0:0:
216,304,64896,2,0,B|492:48|12:96|36:240|96:304|392:252|76:64|96:52|8:44|24:280,1,699.999966621399
64,320,66275,6,0,P|136:288|168:256,1,99.9999952316285
184,152,66620,1,0,0:0:0:0:
312,88,66793,5,0,0:0:0:0:
352,96,66879,1,0,0:0:0:0:
384,120,66965,1,0,0:0:0:0:
400,152,67051,1,0,0:0:0:0:
408,184,67137,1,0,0:0:0:0:
272,272,67310,1,0,0:0:0:0:
152,240,67482,5,0,0:0:0:0:
112,208,67568,1,0,0:0:0:0:
88,168,67655,1,0,0:0:0:0:
132,60,67827,2,0,P|184:48|236:52,1,99.9999952316285
344,72,68172,5,0,0:0:0:0:
371,112,68258,1,0,0:0:0:0:
373,162,68344,1,0,0:0:0:0:
350,206,68430,1,0,0:0:0:0:
312,238,68516,1,0,0:0:0:0:
224,244,68689,2,0,B|168:208|220:152|172:56,1,199.999990463257
248,40,69206,2,0,P|316:52|352:80,1,99.9999952316285
340,212,69551,5,0,0:0:0:0:
326,259,69637,1,0,0:0:0:0:
296,299,69723,1,0,0:0:0:0:
253,323,69809,1,0,0:0:0:0:
204,334,69895,1,0,0:0:0:0:
236,212,70069,1,0,0:0:0:0:
152,136,70241,5,0,0:0:0:0:
160,96,70327,1,0,0:0:0:0:
184,64,70413,1,0,0:0:0:0:
300,48,70586,2,0,P|364:60|408:96,1,99.9999952316285
424,200,70931,5,0,0:0:0:0:
416,240,71017,1,0,0:0:0:0:
392,272,71103,1,0,0:0:0:0:
360,288,71189,1,0,0:0:0:0:
320,288,71275,1,0,0:0:0:0:
168,184,71448,1,0,0:0:0:0:
284,56,71620,5,0,0:0:0:0:
284,56,71706,1,0,0:0:0:0:
284,56,71793,1,0,0:0:0:0:
340,188,71965,2,0,P|284:228|256:188,1,99.9999952316285
144,120,72310,5,0,0:0:0:0:
112,144,72396,1,0,0:0:0:0:
96,184,72482,1,0,0:0:0:0:
104,224,72569,1,0,0:0:0:0:
136,248,72655,1,0,0:0:0:0:
256,192,72827,1,0,0:0:0:0:
376,128,73000,5,0,0:0:0:0:
368,88,73086,1,0,0:0:0:0:
328,56,73172,1,0,0:0:0:0:
176,84,73344,2,0,P|132:144|144:168,1,99.9999952316285
208,272,73689,5,0,0:0:0:0:
248,304,73775,1,0,0:0:0:0:
288,304,73862,1,0,0:0:0:0:
336,288,73948,1,0,0:0:0:0:
360,248,74034,1,0,0:0:0:0:
272,156,74206,1,0,0:0:0:0:
80,208,74379,5,0,0:0:0:0:
80,248,74465,1,0,0:0:0:0:
112,280,74551,1,0,0:0:0:0:
256,244,74724,2,0,L|280:128,1,99.9999952316285
304,48,75069,5,0,0:0:0:0:
344,48,75155,1,0,0:0:0:0:
384,56,75241,1,0,0:0:0:0:
416,80,75327,1,0,0:0:0:0:
432,112,75413,1,0,0:0:0:0:
344,136,75586,1,0,0:0:0:0:
132,212,75758,5,0,0:0:0:0:
132,212,75844,1,0,0:0:0:0:
132,212,75931,1,0,0:0:0:0:
304,280,76103,6,0,L|352:232,1,49.9999976158143
272,224,76275,2,0,L|320:184,1,49.9999976158143
256,152,76448,2,0,L|304:112,1,49.9999976158143
344,88,76620,2,0,L|392:104,1,49.9999976158143
360,152,76793,2,0,L|416:168,1,49.9999976158143
368,216,76965,2,0,L|432:232,2,49.9999976158143
268,232,77310,5,0,0:0:0:0:
160,252,77482,2,0,P|84:236|76:180,1,99.9999952316285
112,104,77827,5,0,0:0:0:0:
144,68,77913,1,0,0:0:0:0:
192,56,78000,1,0,0:0:0:0:
240,64,78086,1,0,0:0:0:0:
268,104,78172,1,0,0:0:0:0:
192,148,78344,1,0,0:0:0:0:
208,280,78517,5,0,0:0:0:0:
248,304,78603,1,0,0:0:0:0:
288,296,78689,1,0,0:0:0:0:
376,196,78862,2,0,P|384:136|324:112,1,99.9999952316285
168,104,79206,5,0,0:0:0:0:
128,136,79293,1,0,0:0:0:0:
112,176,79379,1,0,0:0:0:0:
112,224,79465,1,0,0:0:0:0:
144,256,79551,1,0,0:0:0:0:
256,272,79724,2,0,B|304:236|276:168|324:104|348:80,1,199.999990463257
204,56,80241,2,0,P|160:104|164:136,1,99.9999952316285
204,256,80586,5,0,0:0:0:0:
240,280,80672,1,0,0:0:0:0:
288,272,80758,1,0,0:0:0:0:
320,240,80844,1,0,0:0:0:0:
308,192,80931,1,0,0:0:0:0:
240,60,81103,1,0,0:0:0:0:
132,140,81275,5,0,0:0:0:0:
136,144,81362,1,0,0:0:0:0:
136,144,81448,1,0,0:0:0:0:
168,308,81620,1,0,0:0:0:0:
240,204,81793,1,0,0:0:0:0:
352,60,81965,5,0,0:0:0:0:
392,68,82051,1,0,0:0:0:0:
424,92,82137,1,0,0:0:0:0:
440,124,82223,1,0,0:0:0:0:
448,156,82309,1,0,0:0:0:0:
336,176,82482,1,0,0:0:0:0:
280,296,82654,5,0,0:0:0:0:
244,328,82740,1,0,0:0:0:0:
196,340,82827,1,0,0:0:0:0:
104,204,83000,2,0,P|120:108|144:80,1,99.9999952316285
312,88,83344,5,0,0:0:0:0:
352,96,83430,1,0,0:0:0:0:
384,120,83516,1,0,0:0:0:0:
400,152,83602,1,0,0:0:0:0:
408,184,83688,1,0,0:0:0:0:
272,272,83861,1,0,0:0:0:0:
152,240,84033,5,0,0:0:0:0:
112,208,84119,1,0,0:0:0:0:
88,168,84206,1,0,0:0:0:0:
216,64,84379,2,0,P|288:80|312:120,1,99.9999952316285
360,248,84724,5,0,0:0:0:0:
352,288,84810,1,0,0:0:0:0:
328,320,84896,1,0,0:0:0:0:
296,336,84982,1,0,0:0:0:0:
264,344,85068,1,0,0:0:0:0:
176,208,85241,1,0,0:0:0:0:
208,88,85413,5,0,0:0:0:0:
240,48,85499,1,0,0:0:0:0:
280,24,85586,1,0,0:0:0:0:
416,128,85758,2,0,P|396:192|356:228,1,99.9999952316285
200,296,86103,5,0,0:0:0:0:
160,288,86189,1,0,0:0:0:0:
128,264,86275,1,0,0:0:0:0:
112,232,86361,1,0,0:0:0:0:
104,200,86447,1,0,0:0:0:0:
240,112,86620,1,0,0:0:0:0:
360,144,86792,5,0,0:0:0:0:
400,176,86878,1,0,0:0:0:0:
424,216,86965,1,0,0:0:0:0:
416,320,87137,1,0,0:0:0:0:
296,292,87310,2,0,L|248:252,1,49.9999976158143
184,208,87655,1,0,0:0:0:0:
368,80,88000,1,0,0:0:0:0:
128,56,88344,5,0,0:0:0:0:
192,116,88517,1,0,0:0:0:0:
264,172,88689,1,0,0:0:0:0:
324,216,88862,1,0,0:0:0:0:
368,232,88948,1,0,0:0:0:0:
420,216,89034,1,0,0:0:0:0:
432,164,89120,1,0,0:0:0:0:
432,120,89206,2,0,B|388:72|332:52|328:52,1,99.9999952316285
184,76,89551,5,0,0:0:0:0:
159,119,89637,1,0,0:0:0:0:
147,167,89723,1,0,0:0:0:0:
164,213,89809,1,0,0:0:0:0:
206,238,89895,1,0,0:0:0:0:
252,152,90068,1,0,0:0:0:0:
356,156,90240,5,0,0:0:0:0:
396,188,90326,1,0,0:0:0:0:
420,228,90413,1,0,0:0:0:0:
408,272,90500,1,0,0:0:0:0:
372,300,90585,1,0,0:0:0:0:
236,312,90758,2,0,B|176:280|184:256|216:240|152:228|132:160,1,174.99999165535
264,44,91275,1,0,0:0:0:0:
328,152,91448,1,0,0:0:0:0:
264,252,91620,5,0,0:0:0:0:
232,292,91706,1,0,0:0:0:0:
192,316,91793,1,0,0:0:0:0:
148,304,91880,1,0,0:0:0:0:
120,268,91965,1,0,0:0:0:0:
188,180,92138,1,0,0:0:0:0:
328,136,92310,5,0,0:0:0:0:
368,168,92396,1,0,0:0:0:0:
392,208,92483,1,0,0:0:0:0:
384,312,92655,1,0,0:0:0:0:
256,336,92828,1,0,0:0:0:0:
120,128,93000,5,0,0:0:0:0:
128,88,93086,1,0,0:0:0:0:
152,56,93172,1,0,0:0:0:0:
184,40,93258,1,0,0:0:0:0:
216,32,93344,1,0,0:0:0:0:
304,168,93517,1,0,0:0:0:0:
252,272,93689,5,0,0:0:0:0:
220,312,93775,1,0,0:0:0:0:
180,336,93862,1,0,0:0:0:0:
72,232,94034,2,0,P|112:160|144:128,1,99.9999952316285
260,64,94379,5,0,0:0:0:0:
300,72,94465,1,0,0:0:0:0:
332,96,94551,1,0,0:0:0:0:
348,128,94637,1,0,0:0:0:0:
356,160,94723,1,0,0:0:0:0:
220,248,94896,1,0,0:0:0:0:
120,240,95069,5,0,0:0:0:0:
80,208,95155,1,0,0:0:0:0:
56,168,95242,1,0,0:0:0:0:
132,48,95413,2,0,P|204:48|256:64,1,99.9999952316285
328,248,95759,5,0,0:0:0:0:
320,288,95845,1,0,0:0:0:0:
296,320,95931,1,0,0:0:0:0:
264,336,96017,1,0,0:0:0:0:
232,344,96103,1,0,0:0:0:0:
144,208,96276,1,0,0:0:0:0:
208,124,96448,5,0,0:0:0:0:
240,84,96534,1,0,0:0:0:0:
280,60,96621,1,0,0:0:0:0:
408,160,96793,2,0,P|408:228|380:260,1,99.9999952316285
200,332,97138,5,0,0:0:0:0:
160,324,97224,1,0,0:0:0:0:
128,300,97310,1,0,0:0:0:0:
112,268,97396,1,0,0:0:0:0:
104,236,97482,1,0,0:0:0:0:
240,148,97655,1,0,0:0:0:0:
416,60,98000,5,0,0:0:0:0:
452,188,98172,1,0,0:0:0:0:
352,196,98344,2,0,L|320:240,1,49.9999976158143
300,172,98517,2,0,L|260:220,1,49.9999976158143
240,148,98689,2,0,L|200:196,1,49.9999976158143
184,124,98862,2,0,L|140:176,1,49.9999976158143
172,220,99034,2,0,L|204:264,1,49.9999976158143
268,248,99206,2,0,L|300:292,1,49.9999976158143
336,332,99379,1,0,0:0:0:0:
376,312,99465,6,0,P|416:256|396:144,1,149.999992847443
324,136,99896,5,0,0:0:0:0:
316,96,99982,1,0,0:0:0:0:
292,64,100068,1,0,0:0:0:0:
260,48,100154,1,0,0:0:0:0:
228,40,100240,1,0,0:0:0:0:
140,176,100413,1,0,0:0:0:0:
172,296,100585,5,0,0:0:0:0:
204,336,100671,1,0,0:0:0:0:
244,360,100758,1,0,0:0:0:0:
380,256,100930,2,0,P|360:192|320:156,1,99.9999952316285
164,88,101275,5,0,0:0:0:0:
124,96,101361,1,0,0:0:0:0:
92,120,101447,1,0,0:0:0:0:
76,152,101533,1,0,0:0:0:0:
68,184,101619,1,0,0:0:0:0:
116,304,101793,2,0,B|208:280|228:220|308:208,1,199.999990463257
300,144,102310,2,0,P|244:104|216:144,1,99.9999952316285
104,212,102655,5,0,0:0:0:0:
72,188,102741,1,0,0:0:0:0:
56,148,102827,1,0,0:0:0:0:
64,108,102914,1,0,0:0:0:0:
96,84,103000,1,0,0:0:0:0:
216,140,103172,1,0,0:0:0:0:
336,204,103345,5,0,0:0:0:0:
328,244,103431,1,0,0:0:0:0:
288,276,103517,1,0,0:0:0:0:
136,248,103689,2,0,P|92:188|104:164,1,99.9999952316285
168,60,104034,5,0,0:0:0:0:
208,28,104120,1,0,0:0:0:0:
248,28,104207,1,0,0:0:0:0:
296,44,104293,1,0,0:0:0:0:
320,84,104379,1,0,0:0:0:0:
256,248,104551,1,0,0:0:0:0:
136,252,104724,2,0,B|80:212|80:212|144:192|136:168,1,99.9999952316285
216,88,105069,2,0,L|240:204,1,99.9999952316285
264,284,105414,5,0,0:0:0:0:
304,284,105500,1,0,0:0:0:0:
344,276,105586,1,0,0:0:0:0:
376,252,105672,1,0,0:0:0:0:
392,220,105758,1,0,0:0:0:0:
284,156,105931,1,0,0:0:0:0:
92,120,106103,5,0,0:0:0:0:
92,120,106189,1,0,0:0:0:0:
92,120,106276,1,0,0:0:0:0:
344,76,106448,1,0,0:0:0:0:
272,180,106621,1,0,0:0:0:0:
160,324,106793,5,0,0:0:0:0:
120,316,106879,1,0,0:0:0:0:
88,292,106965,1,0,0:0:0:0:
72,260,107051,1,0,0:0:0:0:
64,228,107137,1,0,0:0:0:0:
176,208,107310,1,0,0:0:0:0:
232,88,107482,5,0,0:0:0:0:
268,56,107568,1,0,0:0:0:0:
316,44,107655,1,0,0:0:0:0:
408,180,107828,2,0,P|392:276|368:304,1,99.9999952316285
200,296,108172,5,0,0:0:0:0:
160,288,108258,1,0,0:0:0:0:
128,264,108344,1,0,0:0:0:0:
112,232,108430,1,0,0:0:0:0:
104,200,108516,1,0,0:0:0:0:
240,112,108689,1,0,0:0:0:0:
360,144,108861,5,0,0:0:0:0:
400,176,108947,1,0,0:0:0:0:
424,216,109034,1,0,0:0:0:0:
304,220,109206,6,0,L|256:268,1,49.9999976158143
248,188,109378,2,0,L|208:236,1,49.9999976158143
176,172,109551,2,0,L|136:220,1,49.9999976158143
112,260,109723,2,0,L|128:308,1,49.9999976158143
176,276,109896,2,0,L|192:332,1,49.9999976158143
240,284,110068,2,0,L|256:348,2,49.9999976158143
248,160,110413,1,0,0:0:0:0:
296,40,110586,6,0,P|360:60|396:100,1,99.9999952316285
464,256,110931,5,0,0:0:0:0:
456,296,111017,1,0,0:0:0:0:
432,328,111103,1,0,0:0:0:0:
400,344,111189,1,0,0:0:0:0:
368,352,111275,1,0,0:0:0:0:
280,216,111448,1,0,0:0:0:0:
312,96,111620,5,0,0:0:0:0:
344,56,111706,1,0,0:0:0:0:
384,32,111793,1,0,0:0:0:0:
