osu file format v14

[General]
AudioFilename: audio.mp3
AudioLeadIn: 0
PreviewTime: 81594
Countdown: 0
SampleSet: Soft
StackLeniency: 0.7
Mode: 3
LetterboxInBreaks: 0
SpecialStyle: 0
WidescreenStoryboard: 0

[Editor]
DistanceSpacing: 1.15
BeatDivisor: 4
GridSize: 4
TimelineZoom: 1.7

[Metadata]
Title:Funkotism
TitleUnicode:Funkotism
Artist:Dispel vs. Rakakun-
ArtistUnicode:Dispel vs. Rakakun-
Creator:Stelar
Version:Funkotsu Sacrament
Source:
Tags:luminoz genesis ep extended play kanon matsubara funkot funky kota gothic indonesia electronic instrumental
BeatmapID:4455422
BeatmapSetID:2120597

[Difficulty]
HPDrainRate:8.5
CircleSize:4
OverallDifficulty:8.5
ApproachRate:5
SliderMultiplier:1.4
SliderTickRate:1

[Events]
//Background and Video events
0,0,"wp5758354-dancing-couple-anime-wallpapers.jpg",0,0
//Break Periods
//Storyboard Layer 0 (Background)
//Storyboard Layer 1 (Fail)
//Storyboard Layer 2 (Pass)
//Storyboard Layer 3 (Foreground)
//Storyboard Layer 4 (Overlay)
//Storyboard Sound Samples
Sample,188994,0,"Snare2.wav",40

[TimingPoints]
2394,300,4,2,1,30,1,0
38394,-100,4,2,1,40,0,0
76794,-100,4,2,1,20,0,0
79194,-100,4,2,1,30,0,0
81594,-100,4,2,1,45,0,0
100794,-100,4,2,1,35,0,0
111594,-100,4,2,1,45,0,0
129594,-100,4,2,1,30,0,0
148794,-100,4,2,1,35,0,0
149994,-100,4,2,1,45,0,0
160794,-100,4,2,1,25,0,0
169194,-100,4,2,1,35,0,0
171594,-100,4,2,1,45,0,0
189594,-100,4,2,1,40,0,0

[HitObjects]
64,192,2394,128,0,4719:0:0:0:60:LoncengKematian.wav
448,192,2394,128,0,4719:0:0:0:0:
64,192,4794,128,0,5619:0:0:0:0:
448,192,4794,128,0,5994:0:0:0:0:
320,192,5094,128,0,5994:0:0:0:0:
192,192,5394,128,0,5919:0:0:0:0:
64,192,5694,128,0,5919:0:0:0:0:
64,192,5994,128,0,6519:0:0:0:0:
192,192,5994,128,0,7194:0:0:0:0:
320,192,6294,128,0,7119:0:0:0:0:
64,192,6594,128,0,7194:0:0:0:0:
448,192,6894,128,0,7119:0:0:0:0:
320,192,7194,128,0,8394:0:0:0:0:
448,192,7194,128,0,7719:0:0:0:0:
64,192,7494,128,0,8319:0:0:0:0:
448,192,7794,128,0,8394:0:0:0:0:
192,192,8094,128,0,8319:0:0:0:0:
64,192,8394,128,0,9594:0:0:0:0:
192,192,8394,128,0,8919:0:0:0:0:
448,192,8694,128,0,9519:0:0:0:0:
192,192,8994,128,0,9594:0:0:0:0:
320,192,9294,128,0,9519:0:0:0:0:
320,192,9594,128,0,10419:0:0:0:0:
448,192,9594,128,0,10794:0:0:0:0:
192,192,9894,128,0,10719:0:0:0:0:
64,192,10194,128,0,10719:0:0:0:0:
320,192,10494,128,0,10794:0:0:0:0:
64,192,10794,128,0,11019:0:0:0:0:
192,192,10794,128,0,11994:0:0:0:0:
64,192,11094,128,0,11994:0:0:0:0:
320,192,11394,128,0,11919:0:0:0:0:
448,192,11694,128,0,11919:0:0:0:0:
320,192,11994,128,0,13194:0:0:0:0:
448,192,11994,128,0,13119:0:0:0:0:
192,192,12594,128,0,13194:0:0:0:0:
64,192,13194,128,0,14394:0:0:0:0:
448,192,13194,128,0,14319:0:0:0:0:
192,192,13794,128,0,14394:0:0:0:0:
320,192,14394,128,0,15219:0:0:0:0:
448,192,14394,128,0,15594:0:0:0:0:
64,192,14694,128,0,15519:0:0:0:0:
192,192,14994,128,0,15519:0:0:0:0:
320,192,15294,128,0,15594:0:0:0:0:
64,192,15594,128,0,16119:0:0:0:0:
192,192,15594,128,0,16794:0:0:0:0:
64,192,16194,128,0,16794:0:0:0:0:
320,192,16794,128,0,17994:0:0:0:0:
448,192,16794,128,0,17319:0:0:0:0:
64,192,17094,128,0,17919:0:0:0:0:
448,192,17394,128,0,17994:0:0:0:0:
192,192,17694,128,0,17919:0:0:0:0:
64,192,17994,128,0,19194:0:0:0:0:
192,192,17994,128,0,18819:0:0:0:0:
448,192,18594,128,0,19119:0:0:0:0:
192,192,18894,128,0,19194:0:0:0:0:
320,192,19194,128,0,20019:0:0:0:0:
448,192,19194,128,0,20394:0:0:0:0:
192,192,19494,128,0,20319:0:0:0:0:
64,192,19794,128,0,20319:0:0:0:0:
320,192,20094,128,0,20394:0:0:0:0:
64,192,20394,128,0,20919:0:0:0:0:
192,192,20394,128,0,21594:0:0:0:0:
448,192,20694,128,0,21519:0:0:0:0:
64,192,20994,128,0,21594:0:0:0:0:
320,192,21594,128,0,22794:0:0:0:0:
448,192,21594,128,0,22719:0:0:0:0:
192,192,22194,128,0,22794:0:0:0:0:
64,192,22794,128,0,23919:0:0:0:0:
448,192,22794,128,0,23919:0:0:0:0:
192,192,23394,128,0,23919:0:0:0:0:
320,192,23994,1,0,0:0:0:10:Snare1.wav
448,192,23994,1,0,0:0:0:0:
64,192,24294,1,0,0:0:0:10:Snare1.wav
192,192,24294,1,0,0:0:0:0:
192,192,24594,1,0,0:0:0:15:Snare1.wav
448,192,24594,1,0,0:0:0:0:
64,192,24894,1,0,0:0:0:15:Snare1.wav
320,192,24894,1,0,0:0:0:0:
192,192,25194,1,0,0:0:0:20:Snare1.wav
320,192,25194,1,0,0:0:0:0:
64,192,25494,1,0,0:0:0:20:Snare1.wav
448,192,25494,1,0,0:0:0:0:
320,192,25794,1,0,0:0:0:25:Snare1.wav
448,192,25794,1,0,0:0:0:0:
64,192,26094,1,0,0:0:0:25:Snare1.wav
192,192,26094,1,0,0:0:0:0:
320,192,26394,1,0,0:0:0:30:Snare1.wav
448,192,26394,1,0,0:0:0:0:
64,192,26544,1,0,0:0:0:30:Snare1.wav
448,192,26544,1,0,0:0:0:0:
64,192,26694,1,0,0:0:0:30:Snare1.wav
192,192,26694,1,0,0:0:0:0:
320,192,26844,1,0,0:0:0:30:Snare1.wav
448,192,26844,1,0,0:0:0:0:
192,192,26994,1,0,0:0:0:35:Snare1.wav
320,192,26994,1,0,0:0:0:0:
64,192,27144,1,0,0:0:0:35:Snare1.wav
448,192,27144,1,0,0:0:0:0:
64,192,27294,1,0,0:0:0:35:Snare1.wav
320,192,27294,1,0,0:0:0:0:
192,192,27444,1,0,0:0:0:35:Snare1.wav
448,192,27444,1,0,0:0:0:0:
320,192,27594,1,0,0:0:0:40:Snare1.wav
448,192,27594,1,0,0:0:0:0:
64,192,27669,1,0,0:0:0:40:Snare1.wav
192,192,27669,1,0,0:0:0:0:
320,192,27744,1,0,0:0:0:40:Snare1.wav
448,192,27744,1,0,0:0:0:0:
64,192,27819,1,0,0:0:0:40:Snare1.wav
192,192,27819,1,0,0:0:0:0:
320,192,27894,1,0,0:0:0:40:Snare1.wav
448,192,27894,1,0,0:0:0:0:
64,192,27969,1,0,0:0:0:40:Snare1.wav
192,192,27969,1,0,0:0:0:0:
320,192,28044,1,0,0:0:0:40:Snare1.wav
448,192,28044,1,0,0:0:0:0:
64,192,28119,1,0,0:0:0:40:Snare1.wav
192,192,28119,1,0,0:0:0:0:
448,192,28194,1,0,0:0:0:45:Snare1.wav
320,192,28231,1,0,0:0:0:0:
64,192,28269,1,0,0:0:0:45:Snare1.wav
192,192,28306,1,0,0:0:0:0:
448,192,28344,1,0,0:0:0:45:Snare1.wav
320,192,28381,1,0,0:0:0:0:
64,192,28419,1,0,0:0:0:45:Snare1.wav
192,192,28456,1,0,0:0:0:0:
448,192,28494,1,0,0:0:0:45:Snare1.wav
320,192,28531,1,0,0:0:0:0:
64,192,28569,1,0,0:0:0:45:Snare1.wav
192,192,28606,1,0,0:0:0:0:
448,192,28644,1,0,0:0:0:45:Snare1.wav
320,192,28681,1,0,0:0:0:0:
64,192,28719,1,0,0:0:0:45:Snare1.wav
192,192,28756,1,0,0:0:0:0:
320,192,28794,1,4,0:0:0:0:
448,192,28794,128,0,29094:0:0:0:0:
64,192,29094,1,0,0:0:0:0:
448,192,29244,128,0,29394:0:0:0:0:
64,192,29394,1,0,0:0:0:0:
448,192,29544,128,0,29694:0:0:0:0:
64,192,29694,128,0,29994:0:0:0:0:
320,192,29994,128,0,30294:0:0:0:0:
64,192,30294,1,0,0:0:0:0:
320,192,30444,128,0,30594:0:0:0:0:
64,192,30594,1,0,0:0:0:0:
320,192,30744,128,0,30894:0:0:0:0:
192,192,30894,128,0,31194:0:0:0:0:
64,192,31194,128,0,31494:0:0:0:0:
448,192,31494,1,0,0:0:0:0:
64,192,31644,128,0,31794:0:0:0:0:
448,192,31794,1,0,0:0:0:0:
64,192,31944,128,0,32094:0:0:0:0:
448,192,32094,128,0,32394:0:0:0:0:
192,192,32394,128,0,32694:0:0:0:0:
448,192,32694,1,0,0:0:0:0:
192,192,32844,128,0,32994:0:0:0:0:
448,192,32994,1,0,0:0:0:0:
192,192,33144,128,0,33294:0:0:0:0:
320,192,33294,128,0,33594:0:0:0:0:
192,192,33594,1,0,0:0:0:0:
448,192,33594,128,0,33894:0:0:0:0:
64,192,33894,1,0,0:0:0:0:
448,192,34044,128,0,34194:0:0:0:0:
64,192,34194,1,0,0:0:0:0:
192,192,34194,1,0,0:0:0:0:
448,192,34344,128,0,34494:0:0:0:0:
64,192,34494,128,0,34794:0:0:0:0:
192,192,34794,1,0,0:0:0:0:
320,192,34794,128,0,35094:0:0:0:0:
64,192,35094,1,0,0:0:0:0:
320,192,35244,128,0,35394:0:0:0:0:
64,192,35394,1,0,0:0:0:0:
192,192,35394,1,0,0:0:0:0:
320,192,35544,128,0,35694:0:0:0:0:
192,192,35694,128,0,35994:0:0:0:0:
64,192,35994,128,0,36294:0:0:0:0:
320,192,35994,1,0,0:0:0:0:
448,192,36294,1,0,0:0:0:0:
64,192,36444,128,0,36594:0:0:0:0:
320,192,36594,1,0,0:0:0:0:
448,192,36594,1,0,0:0:0:0:
64,192,36744,128,0,36894:0:0:0:0:
448,192,36894,128,0,37194:0:0:0:0:
64,192,37194,1,2,0:0:0:0:
192,192,37194,1,0,0:0:0:0:
320,192,37344,1,0,0:0:0:15:Snare1.wav
448,192,37344,1,0,0:0:0:0:
64,192,37419,1,0,0:0:0:15:Snare1.wav
192,192,37419,1,0,0:0:0:0:
320,192,37494,1,0,0:0:0:15:Snare1.wav
448,192,37494,1,0,0:0:0:0:
192,192,37569,1,0,0:0:0:15:Snare1.wav
64,192,37644,1,0,0:0:0:15:Snare1.wav
448,192,37644,1,0,0:0:0:0:
320,192,37719,1,0,0:0:0:15:Snare1.wav
64,192,37794,1,0,0:0:0:20:Snare1.wav
192,192,37794,1,0,0:0:0:0:
320,192,37869,1,0,0:0:0:20:Snare1.wav
64,192,37944,1,0,0:0:0:20:Snare1.wav
448,192,37944,1,0,0:0:0:35:Tom.wav
192,192,38019,1,0,0:0:0:20:Snare1.wav
320,192,38094,1,0,0:0:0:25:Snare1.wav
448,192,38094,1,0,0:0:0:35:Tom.wav
192,192,38169,1,0,0:0:0:25:Snare1.wav
64,192,38244,1,0,0:0:0:25:Snare1.wav
448,192,38244,1,0,0:0:0:0:
320,192,38319,1,0,0:0:0:25:Snare1.wav
64,192,38394,1,2,0:0:0:0:
192,192,38394,1,4,0:0:0:0:
448,192,38394,1,0,0:0:0:0:
320,192,38544,1,0,0:0:0:0:
64,192,38694,1,8,0:0:0:0:
320,192,38694,1,0,0:0:0:0:
192,192,38694,1,0,0:0:0:0:
192,192,38844,1,2,0:0:0:0:
448,192,38844,1,0,0:0:0:0:
64,192,38994,1,0,0:0:0:0:
64,192,39144,1,2,0:0:0:0:
320,192,39144,1,0,0:0:0:0:
192,192,39294,1,8,0:0:0:0:
320,192,39294,1,2,0:0:0:0:
448,192,39294,1,0,0:0:0:0:
448,192,39444,1,0,0:0:0:0:
64,192,39594,1,2,0:0:0:0:
320,192,39594,1,0,0:0:0:0:
320,192,39744,1,0,0:0:0:0:
64,192,39894,1,8,0:0:0:0:
192,192,39894,1,0,0:0:0:0:
448,192,39894,1,0,0:0:0:0:
192,192,40044,1,2,0:0:0:0:
320,192,40044,1,0,0:0:0:0:
448,192,40194,1,0,0:0:0:0:
64,192,40344,1,2,0:0:0:0:
192,192,40344,1,0,0:0:0:0:
192,192,40494,1,8,0:0:0:0:
320,192,40494,1,2,0:0:0:0:
448,192,40494,1,0,0:0:0:0:
320,192,40644,1,0,0:0:0:0:
64,192,40794,1,2,0:0:0:0:
192,192,40794,1,0,0:0:0:0:
192,192,40944,1,0,0:0:0:0:
64,192,41094,1,8,0:0:0:0:
320,192,41094,1,0,0:0:0:0:
448,192,41094,1,0,0:0:0:0:
192,192,41244,1,2,0:0:0:0:
448,192,41244,1,0,0:0:0:0:
64,192,41394,1,0,0:0:0:0:
320,192,41544,1,2,0:0:0:0:
448,192,41544,1,0,0:0:0:0:
64,192,41694,1,8,0:0:0:0:
192,192,41694,1,2,0:0:0:0:
448,192,41694,1,0,0:0:0:0:
64,192,41844,1,0,0:0:0:0:
192,192,41994,1,2,0:0:0:0:
320,192,41994,1,0,0:0:0:0:
192,192,42144,1,0,0:0:0:0:
64,192,42294,1,8,0:0:0:0:
320,192,42294,1,0,0:0:0:0:
448,192,42294,1,0,0:0:0:0:
192,192,42444,1,2,0:0:0:0:
320,192,42444,1,0,0:0:0:0:
64,192,42594,1,0,0:0:0:0:
320,192,42744,1,2,0:0:0:0:
448,192,42744,1,0,0:0:0:0:
64,192,42894,1,8,0:0:0:0:
192,192,42894,1,2,0:0:0:0:
320,192,42894,1,0,0:0:0:0:
192,192,43044,1,0,0:0:0:0:
320,192,43194,1,2,0:0:0:0:
448,192,43194,1,0,0:0:0:0:
320,192,43344,1,0,0:0:0:0:
64,192,43494,1,8,0:0:0:0:
192,192,43494,1,0,0:0:0:0:
448,192,43494,1,0,0:0:0:0:
64,192,43644,1,2,0:0:0:0:
320,192,43644,1,0,0:0:0:0:
448,192,43794,1,0,0:0:0:0:
64,192,43944,1,2,0:0:0:0:
192,192,43944,1,0,0:0:0:0:
64,192,44094,1,8,0:0:0:0:
320,192,44094,1,2,0:0:0:0:
448,192,44094,1,0,0:0:0:0:
448,192,44244,1,0,0:0:0:0:
64,192,44394,1,2,0:0:0:0:
320,192,44394,1,0,0:0:0:0:
320,192,44544,1,0,0:0:0:0:
64,192,44694,1,8,0:0:0:0:
192,192,44694,1,0,0:0:0:0:
448,192,44694,1,0,0:0:0:0:
192,192,44844,1,2,0:0:0:0:
320,192,44844,1,0,0:0:0:0:
448,192,44994,1,0,0:0:0:0:
64,192,45144,1,2,0:0:0:0:
192,192,45144,1,0,0:0:0:0:
192,192,45294,1,8,0:0:0:0:
320,192,45294,1,2,0:0:0:0:
448,192,45294,1,0,0:0:0:0:
320,192,45444,1,0,0:0:0:0:
64,192,45594,1,2,0:0:0:0:
192,192,45594,1,4,0:0:0:0:
448,192,45594,1,0,0:0:0:0:
192,192,45744,1,0,0:0:0:0:
64,192,45894,1,8,0:0:0:0:
320,192,45894,1,0,0:0:0:0:
448,192,45894,1,0,0:0:0:0:
192,192,46044,1,2,0:0:0:0:
448,192,46044,1,0,0:0:0:0:
64,192,46194,1,2,0:0:0:0:
192,192,46194,1,4,0:0:0:0:
320,192,46194,1,0,0:0:0:0:
320,192,46344,1,0,0:0:0:0:
64,192,46494,1,8,0:0:0:0:
192,192,46494,1,0,0:0:0:0:
448,192,46494,1,0,0:0:0:0:
64,192,46644,1,2,0:0:0:0:
320,192,46644,1,0,0:0:0:0:
192,192,46794,1,2,0:0:0:0:
320,192,46794,1,4,0:0:0:0:
448,192,46794,1,0,0:0:0:0:
64,192,46944,1,0,0:0:0:25:Snare2.wav
448,192,46944,1,0,0:0:0:0:
192,192,47094,1,0,0:0:0:25:Snare2.wav
320,192,47094,1,0,0:0:0:0:
64,192,47244,1,0,0:0:0:30:Snare2.wav
192,192,47244,1,0,0:0:0:0:
320,192,47394,1,0,0:0:0:30:Snare2.wav
448,192,47394,1,0,0:0:0:0:
64,192,47544,1,0,0:0:0:40:Snare2.wav
448,192,47544,1,0,0:0:0:0:
192,192,47694,1,0,0:0:0:40:Snare2.wav
320,192,47694,1,0,0:0:0:0:
64,192,47844,1,0,0:0:0:45:Snare2.wav
192,192,47844,1,0,0:0:0:0:
64,192,47994,1,4,0:0:0:0:
320,192,47994,1,2,0:0:0:0:
448,192,47994,1,0,0:0:0:0:
320,192,48144,1,0,0:0:0:0:
64,192,48294,1,8,0:0:0:0:
192,192,48294,1,0,0:0:0:0:
448,192,48294,1,0,0:0:0:0:
64,192,48444,1,2,0:0:0:0:
320,192,48444,1,0,0:0:0:0:
192,192,48594,1,0,0:0:0:0:
320,192,48744,1,2,0:0:0:0:
448,192,48744,1,0,0:0:0:0:
64,192,48894,1,8,0:0:0:0:
192,192,48894,1,2,0:0:0:0:
320,192,48894,1,0,0:0:0:0:
64,192,49044,1,0,0:0:0:0:
192,192,49194,1,2,0:0:0:0:
448,192,49194,1,0,0:0:0:0:
192,192,49344,1,0,0:0:0:0:
64,192,49494,1,8,0:0:0:0:
320,192,49494,1,0,0:0:0:0:
448,192,49494,1,0,0:0:0:0:
192,192,49644,1,2,0:0:0:0:
320,192,49644,1,0,0:0:0:0:
64,192,49794,1,0,0:0:0:0:
320,192,49944,1,2,0:0:0:0:
448,192,49944,1,0,0:0:0:0:
64,192,50094,1,8,0:0:0:0:
192,192,50094,1,2,0:0:0:0:
320,192,50094,1,0,0:0:0:0:
192,192,50244,1,0,0:0:0:0:
320,192,50394,1,2,0:0:0:0:
448,192,50394,1,0,0:0:0:0:
320,192,50544,1,0,0:0:0:0:
64,192,50694,1,8,0:0:0:0:
192,192,50694,1,0,0:0:0:0:
448,192,50694,1,0,0:0:0:0:
64,192,50844,1,2,0:0:0:0:
320,192,50844,1,0,0:0:0:0:
448,192,50994,1,0,0:0:0:0:
64,192,51144,1,2,0:0:0:0:
192,192,51144,1,0,0:0:0:0:
64,192,51294,1,8,0:0:0:0:
320,192,51294,1,2,0:0:0:0:
448,192,51294,1,0,0:0:0:0:
448,192,51444,1,0,0:0:0:0:
192,192,51594,1,2,0:0:0:0:
320,192,51594,1,0,0:0:0:0:
320,192,51744,1,0,0:0:0:0:
64,192,51894,1,8,0:0:0:0:
192,192,51894,1,0,0:0:0:0:
448,192,51894,1,0,0:0:0:0:
192,192,52044,1,2,0:0:0:0:
320,192,52044,1,0,0:0:0:0:
448,192,52194,1,0,0:0:0:0:
64,192,52344,1,2,0:0:0:0:
192,192,52344,1,0,0:0:0:0:
192,192,52494,1,8,0:0:0:0:
320,192,52494,1,2,0:0:0:0:
448,192,52494,1,0,0:0:0:0:
320,192,52644,1,0,0:0:0:0:
64,192,52794,1,2,0:0:0:0:
192,192,52794,1,4,0:0:0:0:
448,192,52794,1,0,0:0:0:0:
192,192,52944,1,0,0:0:0:0:
64,192,53094,1,8,0:0:0:0:
320,192,53094,1,0,0:0:0:0:
448,192,53094,1,0,0:0:0:0:
192,192,53244,1,2,0:0:0:0:
448,192,53244,1,0,0:0:0:0:
64,192,53394,1,0,0:0:0:0:
320,192,53544,1,2,0:0:0:0:
448,192,53544,1,0,0:0:0:0:
64,192,53694,1,8,0:0:0:0:
192,192,53694,1,2,0:0:0:0:
448,192,53694,1,0,0:0:0:0:
64,192,53844,1,0,0:0:0:0:
192,192,53994,1,2,0:0:0:0:
448,192,53994,1,4,0:0:0:0:
192,192,54144,1,0,0:0:0:0:
64,192,54294,1,8,0:0:0:0:
320,192,54294,1,0,0:0:0:0:
448,192,54294,1,0,0:0:0:0:
192,192,54444,1,2,0:0:0:0:
320,192,54444,1,0,0:0:0:0:
64,192,54594,1,0,0:0:0:0:
320,192,54744,1,2,0:0:0:0:
448,192,54744,1,0,0:0:0:0:
64,192,54894,1,8,0:0:0:0:
192,192,54894,1,2,0:0:0:0:
320,192,54894,1,0,0:0:0:0:
192,192,55044,1,0,0:0:0:0:
64,192,55194,1,2,0:0:0:0:
320,192,55194,1,4,0:0:0:0:
448,192,55194,1,0,0:0:0:0:
320,192,55344,1,0,0:0:0:0:
64,192,55494,1,8,0:0:0:0:
192,192,55494,1,0,0:0:0:0:
448,192,55494,1,0,0:0:0:0:
64,192,55644,1,2,0:0:0:0:
320,192,55644,1,0,0:0:0:0:
192,192,55794,1,2,0:0:0:0:
320,192,55794,1,4,0:0:0:0:
448,192,55794,1,0,0:0:0:0:
192,192,55944,1,0,0:0:0:0:
64,192,56094,1,8,0:0:0:0:
320,192,56094,1,0,0:0:0:0:
448,192,56094,1,0,0:0:0:0:
192,192,56244,1,2,0:0:0:0:
448,192,56244,1,0,0:0:0:0:
64,192,56394,1,2,0:0:0:0:
192,192,56394,1,4,0:0:0:0:
320,192,56394,1,0,0:0:0:0:
64,192,56544,1,2,0:0:0:0:
448,192,56544,1,0,0:0:0:0:
192,192,56694,1,2,0:0:0:0:
320,192,56694,1,0,0:0:0:0:
320,192,56844,1,2,0:0:0:0:
448,192,56844,1,0,0:0:0:0:
64,192,56994,1,2,0:0:0:0:
192,192,56994,1,4,0:0:0:0:
320,192,57069,1,2,0:0:0:0:
448,192,57069,1,0,0:0:0:0:
64,192,57144,1,2,0:0:0:0:
192,192,57144,1,0,0:0:0:0:
320,192,57219,1,2,0:0:0:0:
448,192,57219,1,0,0:0:0:0:
64,192,57294,1,6,0:0:0:0:
192,192,57331,1,2,0:0:0:0:
320,192,57369,1,2,0:0:0:0:
448,192,57406,1,2,0:0:0:0:
64,192,57444,1,2,0:0:0:0:
192,192,57444,1,0,0:0:0:0:
320,192,57519,1,2,0:0:0:0:
64,192,57594,1,2,0:0:0:0:
192,192,57594,1,4,0:0:0:0:
448,192,57594,1,0,0:0:0:0:
320,192,57744,1,0,0:0:0:0:
192,192,57819,1,0,0:0:0:0:
64,192,57894,1,8,0:0:0:0:
320,192,57894,1,0,0:0:0:0:
448,192,57894,1,0,0:0:0:0:
64,192,58044,1,2,0:0:0:0:
192,192,58044,1,0,0:0:0:0:
320,192,58194,1,0,0:0:0:0:
64,192,58344,1,2,0:0:0:0:
448,192,58344,1,0,0:0:0:0:
192,192,58494,1,8,0:0:0:0:
320,192,58494,1,2,0:0:0:0:
448,192,58494,1,0,0:0:0:0:
64,192,58644,1,0,0:0:0:0:
192,192,58794,1,2,0:0:0:0:
320,192,58794,1,0,0:0:0:0:
448,192,58944,1,0,0:0:0:0:
64,192,59094,1,8,0:0:0:0:
192,192,59094,1,0,0:0:0:0:
320,192,59094,1,0,0:0:0:0:
64,192,59244,1,2,0:0:0:0:
448,192,59244,1,0,0:0:0:0:
192,192,59319,1,0,0:0:0:0:
320,192,59394,1,0,0:0:0:0:
64,192,59544,1,2,0:0:0:0:
192,192,59544,1,0,0:0:0:0:
64,192,59694,1,8,0:0:0:0:
320,192,59694,1,2,0:0:0:0:
448,192,59694,1,0,0:0:0:0:
192,192,59844,1,0,0:0:0:0:
320,192,59994,1,2,0:0:0:0:
448,192,59994,1,0,0:0:0:0:
64,192,60144,1,0,0:0:0:0:
192,192,60219,1,0,0:0:0:0:
64,192,60294,1,8,0:0:0:0:
320,192,60294,1,0,0:0:0:0:
448,192,60294,1,0,0:0:0:0:
192,192,60444,1,2,0:0:0:0:
448,192,60444,1,0,0:0:0:0:
320,192,60594,1,0,0:0:0:0:
64,192,60744,1,2,0:0:0:0:
192,192,60744,1,0,0:0:0:0:
64,192,60894,1,8,0:0:0:0:
320,192,60894,1,2,0:0:0:0:
448,192,60894,1,0,0:0:0:0:
192,192,61044,1,0,0:0:0:0:
64,192,61194,1,2,0:0:0:0:
448,192,61194,1,0,0:0:0:0:
320,192,61344,1,0,0:0:0:0:
64,192,61494,1,8,0:0:0:0:
192,192,61494,1,0,0:0:0:0:
448,192,61494,1,0,0:0:0:0:
320,192,61644,1,2,0:0:0:0:
448,192,61644,1,0,0:0:0:0:
192,192,61719,1,0,0:0:0:0:
64,192,61794,1,0,0:0:0:0:
320,192,61944,1,2,0:0:0:0:
448,192,61944,1,0,0:0:0:0:
64,192,62094,1,8,0:0:0:0:
192,192,62094,1,2,0:0:0:0:
320,192,62094,1,0,0:0:0:0:
448,192,62244,1,0,0:0:0:0:
64,192,62394,1,2,0:0:0:0:
320,192,62394,1,0,0:0:0:0:
192,192,62544,1,0,0:0:0:0:
320,192,62619,1,0,0:0:0:0:
64,192,62694,1,8,0:0:0:0:
192,192,62694,1,0,0:0:0:0:
448,192,62694,1,0,0:0:0:0:
320,192,62844,1,2,0:0:0:0:
448,192,62844,1,0,0:0:0:0:
192,192,62994,1,0,0:0:0:0:
64,192,63144,1,2,0:0:0:0:
448,192,63144,1,0,0:0:0:0:
64,192,63294,1,8,0:0:0:0:
192,192,63294,1,2,0:0:0:0:
320,192,63294,1,0,0:0:0:0:
448,192,63444,1,0,0:0:0:0:
192,192,63594,1,2,0:0:0:0:
320,192,63594,1,0,0:0:0:0:
64,192,63744,1,0,0:0:0:0:
192,192,63894,1,8,0:0:0:0:
320,192,63894,1,0,0:0:0:0:
448,192,63894,1,0,0:0:0:0:
64,192,64044,1,2,0:0:0:0:
448,192,64044,1,0,0:0:0:0:
320,192,64119,1,0,0:0:0:0:
192,192,64194,1,0,0:0:0:0:
320,192,64344,1,2,0:0:0:0:
448,192,64344,1,0,0:0:0:0:
64,192,64494,1,8,0:0:0:0:
192,192,64494,1,2,0:0:0:0:
448,192,64494,1,0,0:0:0:0:
320,192,64644,1,0,0:0:0:0:
64,192,64794,1,2,0:0:0:0:
192,192,64794,1,0,0:0:0:0:
448,192,64944,1,0,0:0:0:0:
320,192,65019,1,0,0:0:0:0:
64,192,65094,1,8,0:0:0:0:
192,192,65094,1,0,0:0:0:0:
448,192,65094,1,0,0:0:0:0:
64,192,65244,1,2,0:0:0:0:
320,192,65244,1,0,0:0:0:0:
192,192,65394,1,0,0:0:0:0:
320,192,65544,1,2,0:0:0:0:
448,192,65544,1,0,0:0:0:0:
64,192,65694,1,8,0:0:0:0:
192,192,65694,1,2,0:0:0:0:
448,192,65694,1,0,0:0:0:0:
320,192,65844,1,0,0:0:0:0:
64,192,65994,1,2,0:0:0:0:
192,192,65994,1,4,0:0:0:0:
320,192,66144,1,2,0:0:0:0:
448,192,66144,1,0,0:0:0:0:
64,192,66294,1,2,0:0:0:0:
448,192,66294,1,0,0:0:0:0:
192,192,66444,1,2,0:0:0:0:
320,192,66444,1,0,0:0:0:0:
64,192,66519,1,0,0:0:0:0:
320,192,66594,1,2,0:0:0:0:
448,192,66594,1,4,0:0:0:0:
64,192,66669,1,2,0:0:0:0:
192,192,66669,1,0,0:0:0:0:
320,192,66744,1,2,0:0:0:0:
448,192,66744,1,0,0:0:0:0:
64,192,66894,1,2,0:0:0:0:
448,192,66894,1,4,0:0:0:0:
192,192,67044,1,2,0:0:0:0:
320,192,67044,1,0,0:0:0:0:
64,192,67194,1,2,0:0:0:0:
320,192,67194,1,4,0:0:0:0:
448,192,67194,1,0,0:0:0:0:
192,192,67344,1,0,0:0:0:0:
320,192,67419,1,0,0:0:0:0:
64,192,67494,1,8,0:0:0:0:
192,192,67494,1,0,0:0:0:0:
448,192,67494,1,0,0:0:0:0:
320,192,67644,1,2,0:0:0:0:
448,192,67644,1,0,0:0:0:0:
192,192,67794,1,0,0:0:0:0:
64,192,67944,1,2,0:0:0:0:
448,192,67944,1,0,0:0:0:0:
64,192,68094,1,8,0:0:0:0:
192,192,68094,1,2,0:0:0:0:
320,192,68094,1,0,0:0:0:0:
448,192,68244,1,0,0:0:0:0:
192,192,68394,1,2,0:0:0:0:
320,192,68394,1,0,0:0:0:0:
64,192,68544,1,0,0:0:0:0:
192,192,68694,1,8,0:0:0:0:
320,192,68694,1,0,0:0:0:0:
448,192,68694,1,0,0:0:0:0:
64,192,68844,1,2,0:0:0:0:
448,192,68844,1,0,0:0:0:0:
320,192,68919,1,0,0:0:0:0:
192,192,68994,1,0,0:0:0:0:
320,192,69144,1,2,0:0:0:0:
448,192,69144,1,0,0:0:0:0:
64,192,69294,1,8,0:0:0:0:
192,192,69294,1,2,0:0:0:0:
448,192,69294,1,0,0:0:0:0:
320,192,69444,1,0,0:0:0:0:
64,192,69594,1,2,0:0:0:0:
192,192,69594,1,0,0:0:0:0:
448,192,69744,1,0,0:0:0:0:
320,192,69819,1,0,0:0:0:0:
64,192,69894,1,8,0:0:0:0:
192,192,69894,1,0,0:0:0:0:
448,192,69894,1,0,0:0:0:0:
64,192,70044,1,2,0:0:0:0:
320,192,70044,1,0,0:0:0:0:
192,192,70194,1,0,0:0:0:0:
320,192,70344,1,2,0:0:0:0:
448,192,70344,1,0,0:0:0:0:
64,192,70494,1,8,0:0:0:0:
192,192,70494,1,2,0:0:0:0:
448,192,70494,1,0,0:0:0:0:
320,192,70644,1,0,0:0:0:0:
64,192,70794,1,2,0:0:0:0:
448,192,70794,1,0,0:0:0:0:
192,192,70944,1,0,0:0:0:0:
64,192,71094,1,8,0:0:0:0:
320,192,71094,1,0,0:0:0:0:
448,192,71094,1,0,0:0:0:0:
64,192,71244,1,2,0:0:0:0:
192,192,71244,1,0,0:0:0:0:
320,192,71319,1,0,0:0:0:0:
448,192,71394,1,0,0:0:0:0:
64,192,71544,1,2,0:0:0:0:
192,192,71544,1,0,0:0:0:0:
192,192,71694,1,8,0:0:0:0:
320,192,71694,1,2,0:0:0:0:
448,192,71694,1,0,0:0:0:0:
64,192,71844,1,0,0:0:0:0:
192,192,71994,1,2,0:0:0:0:
448,192,71994,1,4,0:0:0:0:
320,192,72144,1,0,0:0:0:0:
192,192,72219,1,0,0:0:0:0:
64,192,72294,1,8,0:0:0:0:
320,192,72294,1,0,0:0:0:0:
448,192,72294,1,0,0:0:0:0:
64,192,72444,1,2,0:0:0:0:
192,192,72444,1,0,0:0:0:0:
320,192,72594,1,0,0:0:0:0:
64,192,72744,1,2,0:0:0:0:
448,192,72744,1,0,0:0:0:0:
192,192,72894,1,8,0:0:0:0:
320,192,72894,1,2,0:0:0:0:
448,192,72894,1,0,0:0:0:0:
64,192,73044,1,0,0:0:0:0:
192,192,73194,1,2,0:0:0:0:
320,192,73194,1,4,0:0:0:0:
448,192,73344,1,0,0:0:0:0:
64,192,73494,1,8,0:0:0:0:
192,192,73494,1,0,0:0:0:0:
320,192,73494,1,0,0:0:0:0:
64,192,73644,1,2,0:0:0:0:
448,192,73644,1,0,0:0:0:0:
192,192,73719,1,0,0:0:0:0:
320,192,73794,1,0,0:0:0:0:
64,192,73944,1,2,0:0:0:0:
192,192,73944,1,0,0:0:0:0:
64,192,74094,1,8,0:0:0:0:
320,192,74094,1,2,0:0:0:0:
448,192,74094,1,0,0:0:0:0:
192,192,74244,1,0,0:0:0:0:
320,192,74394,1,2,0:0:0:0:
448,192,74394,1,4,0:0:0:0:
64,192,74544,1,0,0:0:0:0:
192,192,74619,1,0,0:0:0:0:
64,192,74694,1,8,0:0:0:0:
320,192,74694,1,0,0:0:0:0:
448,192,74694,1,0,0:0:0:0:
192,192,74844,1,2,0:0:0:0:
448,192,74844,1,0,0:0:0:0:
64,192,74994,1,2,0:0:0:0:
320,192,74994,1,4,0:0:0:0:
192,192,75144,1,0,0:0:0:0:
64,192,75294,1,8,0:0:0:0:
320,192,75294,1,0,0:0:0:0:
448,192,75294,1,0,0:0:0:0:
64,192,75444,1,2,0:0:0:0:
192,192,75444,1,0,0:0:0:0:
320,192,75594,1,2,0:0:0:0:
448,192,75594,1,4,0:0:0:0:
64,192,75744,1,2,0:0:0:0:
448,192,75744,1,0,0:0:0:0:
192,192,75894,1,8,0:0:0:0:
320,192,75894,1,0,0:0:0:0:
64,192,76044,1,2,0:0:0:0:
192,192,76044,1,0,0:0:0:0:
320,192,76119,1,2,0:0:0:0:
448,192,76119,1,0,0:0:0:0:
64,192,76194,1,2,0:0:0:0:
192,192,76194,1,4,0:0:0:0:
64,192,76344,1,2,0:0:0:0:
448,192,76344,1,0,0:0:0:0:
320,192,76494,128,8,76719:0:0:0:0:
448,192,76494,128,0,76644:0:0:0:0:
192,192,76644,128,8,76719:0:0:0:0:
64,192,76794,128,2,76869:0:0:0:0:
192,192,76794,1,4,0:0:0:0:
320,192,76794,1,0,0:0:0:0:
64,192,77094,128,0,77169:0:0:0:0:
64,192,77394,128,0,77469:0:0:0:0:
64,192,77694,128,0,77769:0:0:0:0:
64,192,77994,128,0,78069:0:0:0:0:
64,192,78294,128,0,78369:0:0:0:0:
64,192,78594,128,0,78669:0:0:0:0:
64,192,78894,128,0,78969:0:0:0:0:
320,192,79194,1,2,0:0:0:0:
448,192,79194,1,0,0:0:0:0:
320,192,79644,1,2,0:0:0:0:
448,192,79644,1,0,0:0:0:0:
320,192,79794,1,2,0:0:0:0:
448,192,79794,1,0,0:0:0:0:
320,192,80094,1,2,0:0:0:0:
448,192,80094,1,0,0:0:0:0:
64,192,80394,1,0,0:0:0:35:Snare2.wav
448,192,80394,1,0,0:0:0:0:
192,192,80544,1,0,0:0:0:35:Snare2.wav
320,192,80544,1,0,0:0:0:0:
320,192,80769,1,0,0:0:0:35:Snare2.wav
448,192,80769,1,0,0:0:0:0:
64,192,80844,1,0,0:0:0:35:Snare2.wav
192,192,80844,1,0,0:0:0:0:
64,192,80994,1,0,0:0:0:35:Snare2.wav
320,192,80994,1,0,0:0:0:0:
192,192,81144,1,0,0:0:0:35:Snare2.wav
448,192,81144,1,0,0:0:0:0:
320,192,81294,1,0,0:0:0:35:Snare2.wav
448,192,81294,1,0,0:0:0:0:
64,192,81369,1,0,0:0:0:35:Snare2.wav
192,192,81369,1,0,0:0:0:0:
320,192,81444,1,0,0:0:0:35:Snare2.wav
448,192,81444,1,0,0:0:0:0:
192,192,81519,1,0,0:0:0:0:
64,192,81594,1,2,0:0:0:0:
320,192,81594,1,4,0:0:0:0:
448,192,81594,1,0,0:0:0:0:
320,192,81744,1,0,0:0:0:0:
64,192,81894,1,8,0:0:0:0:
192,192,81894,1,0,0:0:0:0:
448,192,81894,1,0,0:0:0:0:
64,192,82044,1,2,0:0:0:0:
320,192,82044,1,0,0:0:0:0:
192,192,82194,1,0,0:0:0:0:
320,192,82344,1,2,0:0:0:0:
448,192,82344,1,0,0:0:0:0:
64,192,82494,1,8,0:0:0:0:
192,192,82494,1,2,0:0:0:0:
320,192,82494,1,0,0:0:0:0:
64,192,82644,1,0,0:0:0:0:
192,192,82794,1,2,0:0:0:0:
448,192,82794,1,0,0:0:0:0:
192,192,82944,1,0,0:0:0:0:
64,192,83094,1,8,0:0:0:0:
320,192,83094,1,0,0:0:0:0:
448,192,83094,1,0,0:0:0:0:
192,192,83244,1,2,0:0:0:0:
320,192,83244,1,0,0:0:0:0:
64,192,83394,1,0,0:0:0:0:
320,192,83544,1,2,0:0:0:0:
448,192,83544,1,0,0:0:0:0:
64,192,83694,1,8,0:0:0:0:
192,192,83694,1,2,0:0:0:0:
320,192,83694,1,0,0:0:0:0:
192,192,83844,1,0,0:0:0:0:
320,192,83994,1,2,0:0:0:0:
448,192,83994,1,0,0:0:0:0:
320,192,84144,1,0,0:0:0:0:
64,192,84294,1,8,0:0:0:0:
192,192,84294,1,0,0:0:0:0:
448,192,84294,1,0,0:0:0:0:
64,192,84444,1,2,0:0:0:0:
320,192,84444,1,0,0:0:0:0:
448,192,84594,1,0,0:0:0:0:
64,192,84744,1,2,0:0:0:0:
192,192,84744,1,0,0:0:0:0:
64,192,84894,1,8,0:0:0:0:
320,192,84894,1,2,0:0:0:0:
448,192,84894,1,0,0:0:0:0:
448,192,85044,1,0,0:0:0:0:
192,192,85194,1,2,0:0:0:0:
320,192,85194,1,0,0:0:0:0:
320,192,85344,1,0,0:0:0:0:
64,192,85494,1,8,0:0:0:0:
192,192,85494,1,0,0:0:0:0:
448,192,85494,1,0,0:0:0:0:
192,192,85644,1,2,0:0:0:0:
320,192,85644,1,0,0:0:0:0:
448,192,85794,1,0,0:0:0:0:
64,192,85944,1,2,0:0:0:0:
192,192,85944,1,0,0:0:0:0:
192,192,86094,1,8,0:0:0:0:
320,192,86094,1,2,0:0:0:0:
448,192,86094,1,0,0:0:0:0:
320,192,86244,1,0,0:0:0:0:
64,192,86394,1,2,0:0:0:0:
192,192,86394,1,0,0:0:0:0:
192,192,86544,1,0,0:0:0:0:
64,192,86694,1,8,0:0:0:0:
320,192,86694,1,0,0:0:0:0:
448,192,86694,1,0,0:0:0:0:
192,192,86844,1,2,0:0:0:0:
448,192,86844,1,0,0:0:0:0:
64,192,86994,1,0,0:0:0:0:
320,192,87144,1,2,0:0:0:0:
448,192,87144,1,0,0:0:0:0:
64,192,87294,1,8,0:0:0:0:
192,192,87294,1,2,0:0:0:0:
448,192,87294,1,0,0:0:0:0:
64,192,87444,1,0,0:0:0:0:
192,192,87594,1,2,0:0:0:0:
448,192,87594,1,0,0:0:0:0:
192,192,87744,1,0,0:0:0:0:
64,192,87894,1,8,0:0:0:0:
320,192,87894,1,0,0:0:0:0:
448,192,87894,1,0,0:0:0:0:
192,192,88044,1,2,0:0:0:0:
320,192,88044,1,0,0:0:0:0:
64,192,88194,1,0,0:0:0:0:
320,192,88344,1,2,0:0:0:0:
448,192,88344,1,0,0:0:0:0:
64,192,88494,1,8,0:0:0:0:
192,192,88494,1,2,0:0:0:0:
320,192,88494,1,0,0:0:0:0:
192,192,88644,1,0,0:0:0:0:
64,192,88794,1,2,0:0:0:0:
320,192,88794,1,4,0:0:0:0:
448,192,88794,1,0,0:0:0:0:
320,192,88944,1,0,0:0:0:0:
64,192,89094,1,8,0:0:0:0:
192,192,89094,1,0,0:0:0:0:
448,192,89094,1,0,0:0:0:0:
64,192,89244,1,2,0:0:0:0:
320,192,89244,1,0,0:0:0:0:
192,192,89394,1,2,0:0:0:0:
320,192,89394,1,4,0:0:0:0:
448,192,89394,1,0,0:0:0:0:
192,192,89544,1,0,0:0:0:0:
64,192,89694,1,8,0:0:0:0:
320,192,89694,1,0,0:0:0:0:
448,192,89694,1,0,0:0:0:0:
192,192,89844,1,2,0:0:0:0:
448,192,89844,1,0,0:0:0:0:
64,192,89994,1,2,0:0:0:0:
192,192,89994,1,4,0:0:0:0:
320,192,89994,1,0,0:0:0:0:
448,192,90144,1,0,0:0:0:40:Snare1.wav
320,192,90144,1,0,0:0:0:0:
192,192,90219,1,0,0:0:0:40:Snare1.wav
64,192,90219,1,0,0:0:0:0:
320,192,90294,1,0,0:0:0:40:Snare1.wav
448,192,90294,1,0,0:0:0:0:
64,192,90444,1,0,0:0:0:40:Snare1.wav
448,192,90444,1,0,0:0:0:0:
192,192,90594,1,0,0:0:0:40:Snare1.wav
320,192,90594,1,0,0:0:0:0:
64,192,90744,1,0,0:0:0:30:Tom.wav
192,192,90744,1,0,0:0:0:0:
320,192,90894,128,0,91194:0:0:0:30:Tom.wav
448,192,90894,1,0,0:0:0:0:
64,192,91194,1,2,0:0:0:0:
192,192,91194,1,4,0:0:0:0:
448,192,91194,1,0,0:0:0:0:
192,192,91344,1,0,0:0:0:0:
64,192,91494,1,8,0:0:0:0:
320,192,91494,1,0,0:0:0:0:
448,192,91494,1,0,0:0:0:0:
192,192,91644,1,2,0:0:0:0:
448,192,91644,1,0,0:0:0:0:
320,192,91794,1,0,0:0:0:0:
64,192,91944,1,2,0:0:0:0:
192,192,91944,1,0,0:0:0:0:
192,192,92094,1,8,0:0:0:0:
320,192,92094,1,2,0:0:0:0:
448,192,92094,1,0,0:0:0:0:
448,192,92244,1,0,0:0:0:0:
64,192,92394,1,2,0:0:0:0:
320,192,92394,1,0,0:0:0:0:
320,192,92544,1,0,0:0:0:0:
64,192,92694,1,8,0:0:0:0:
192,192,92694,1,0,0:0:0:0:
448,192,92694,1,0,0:0:0:0:
192,192,92844,1,2,0:0:0:0:
320,192,92844,1,0,0:0:0:0:
448,192,92994,1,0,0:0:0:0:
64,192,93144,1,2,0:0:0:0:
192,192,93144,1,0,0:0:0:0:
192,192,93294,1,8,0:0:0:0:
320,192,93294,1,2,0:0:0:0:
448,192,93294,1,0,0:0:0:0:
320,192,93444,1,0,0:0:0:0:
64,192,93594,1,2,0:0:0:0:
192,192,93594,1,0,0:0:0:0:
192,192,93744,1,0,0:0:0:0:
64,192,93894,1,8,0:0:0:0:
320,192,93894,1,0,0:0:0:0:
448,192,93894,1,0,0:0:0:0:
192,192,94044,1,2,0:0:0:0:
448,192,94044,1,0,0:0:0:0:
192,192,94194,1,0,0:0:0:0:
320,192,94344,1,2,0:0:0:0:
448,192,94344,1,0,0:0:0:0:
64,192,94494,1,8,0:0:0:0:
192,192,94494,1,2,0:0:0:0:
448,192,94494,1,0,0:0:0:0:
64,192,94644,1,0,0:0:0:0:
192,192,94794,1,2,0:0:0:0:
320,192,94794,1,0,0:0:0:0:
192,192,94944,1,0,0:0:0:0:
64,192,95094,1,8,0:0:0:0:
320,192,95094,1,0,0:0:0:0:
448,192,95094,1,0,0:0:0:0:
192,192,95244,1,2,0:0:0:0:
320,192,95244,1,0,0:0:0:0:
64,192,95394,1,0,0:0:0:0:
320,192,95544,1,2,0:0:0:0:
448,192,95544,1,0,0:0:0:0:
64,192,95694,1,8,0:0:0:0:
192,192,95694,1,2,0:0:0:0:
320,192,95694,1,0,0:0:0:0:
192,192,95844,1,0,0:0:0:0:
320,192,95994,1,2,0:0:0:0:
448,192,95994,1,4,0:0:0:0:
64,192,95994,1,0,0:0:0:0:
320,192,96144,1,0,0:0:0:0:
64,192,96294,1,8,0:0:0:0:
192,192,96294,1,0,0:0:0:0:
448,192,96294,1,0,0:0:0:0:
64,192,96444,1,2,0:0:0:0:
320,192,96444,1,0,0:0:0:0:
448,192,96594,1,0,0:0:0:0:
64,192,96744,1,2,0:0:0:0:
192,192,96744,1,0,0:0:0:0:
64,192,96894,1,8,0:0:0:0:
320,192,96894,1,2,0:0:0:0:
448,192,96894,1,0,0:0:0:0:
448,192,97044,1,0,0:0:0:0:
64,192,97194,1,2,0:0:0:0:
320,192,97194,1,4,0:0:0:0:
320,192,97344,1,0,0:0:0:0:
64,192,97494,1,8,0:0:0:0:
192,192,97494,1,0,0:0:0:0:
448,192,97494,1,0,0:0:0:0:
192,192,97644,1,2,0:0:0:0:
320,192,97644,1,0,0:0:0:0:
448,192,97794,1,0,0:0:0:0:
64,192,97944,1,2,0:0:0:0:
192,192,97944,1,0,0:0:0:0:
192,192,98094,1,2,0:0:0:0:
320,192,98094,1,8,0:0:0:0:
448,192,98094,1,0,0:0:0:0:
320,192,98244,1,0,0:0:0:0:
64,192,98394,1,2,0:0:0:0:
192,192,98394,1,4,0:0:0:0:
448,192,98394,1,0,0:0:0:0:
192,192,98544,1,0,0:0:0:0:
64,192,98694,1,8,0:0:0:0:
320,192,98694,1,0,0:0:0:0:
448,192,98694,1,0,0:0:0:0:
192,192,98844,1,2,0:0:0:0:
448,192,98844,1,0,0:0:0:0:
64,192,98994,1,2,0:0:0:0:
192,192,98994,1,4,0:0:0:0:
320,192,98994,1,0,0:0:0:0:
320,192,99144,1,0,0:0:0:0:
64,192,99294,1,8,0:0:0:0:
192,192,99294,1,0,0:0:0:0:
448,192,99294,1,0,0:0:0:0:
64,192,99444,1,2,0:0:0:0:
320,192,99444,1,0,0:0:0:0:
192,192,99594,1,2,0:0:0:0:
320,192,99594,1,4,0:0:0:0:
448,192,99594,1,0,0:0:0:0:
64,192,99744,1,2,0:0:0:0:
448,192,99744,1,0,0:0:0:0:
192,192,99894,1,2,0:0:0:0:
320,192,99894,1,0,0:0:0:0:
64,192,100044,1,2,0:0:0:0:
192,192,100044,1,0,0:0:0:0:
448,192,100194,1,2,0:0:0:0:
320,192,100231,1,0,0:0:0:0:
192,192,100269,1,2,0:0:0:0:
64,192,100306,1,0,0:0:0:0:
320,192,100344,1,2,0:0:0:0:
448,192,100344,1,0,0:0:0:0:
64,192,100419,1,2,0:0:0:0:
192,192,100419,1,0,0:0:0:0:
320,192,100494,1,2,0:0:0:0:
448,192,100494,1,0,0:0:0:0:
64,192,100644,1,2,0:0:0:0:
192,192,100644,1,0,0:0:0:0:
64,192,100794,128,2,101094:0:0:0:0:
320,192,100794,1,4,0:0:0:0:
448,192,100794,1,0,0:0:0:30:Floor.wav
320,192,101094,128,0,101244:0:0:0:0:
64,192,101244,1,0,0:0:0:30:Floor.wav
192,192,101244,128,0,101394:0:0:0:0:
448,192,101394,128,0,101694:0:0:0:0:
64,192,101694,1,0,0:0:0:30:Floor.wav
320,192,101694,128,0,101844:0:0:0:0:
192,192,101844,128,0,101994:0:0:0:0:
64,192,101994,128,0,102294:0:0:0:30:Floor.wav
448,192,101994,1,0,0:0:0:0:
320,192,102294,128,0,102444:0:0:0:0:
64,192,102444,1,0,0:0:0:30:Floor.wav
192,192,102444,128,0,102594:0:0:0:0:
448,192,102594,128,0,102894:0:0:0:0:
64,192,102894,128,0,103194:0:0:0:30:Floor.wav
320,192,102894,1,0,0:0:0:0:
192,192,103194,1,0,0:0:0:30:Floor.wav
448,192,103194,128,0,103644:0:0:0:0:
320,192,103494,1,0,0:0:0:0:
64,192,103644,1,0,0:0:0:30:Floor.wav
192,192,103644,128,0,104094:0:0:0:0:
448,192,103794,1,0,0:0:0:0:
64,192,104094,1,0,0:0:0:30:Floor.wav
320,192,104094,128,0,104394:0:0:0:0:
64,192,104394,128,0,104844:0:0:0:30:Floor.wav
448,192,104394,1,0,0:0:0:0:
320,192,104694,1,0,0:0:0:0:
192,192,104844,128,0,105294:0:0:0:30:Floor.wav
448,192,104844,1,0,0:0:0:0:
64,192,104994,1,0,0:0:0:0:
320,192,105294,1,0,0:0:0:30:Floor.wav
448,192,105294,1,0,0:0:0:0:
64,192,105444,1,0,0:0:0:0:
192,192,105519,1,0,0:0:0:0:
320,192,105594,1,0,0:0:0:30:Floor.wav
448,192,105594,128,0,105894:0:0:0:0:
64,192,105744,1,0,0:0:0:0:
192,192,105819,1,0,0:0:0:0:
320,192,105894,1,0,0:0:0:0:
64,192,106044,1,0,0:0:0:30:Floor.wav
448,192,106044,1,0,0:0:0:0:
320,192,106119,1,0,0:0:0:0:
192,192,106194,1,0,0:0:0:0:
320,192,106344,1,0,0:0:0:0:
192,192,106419,1,0,0:0:0:0:
64,192,106494,1,0,0:0:0:30:Floor.wav
448,192,106494,1,0,0:0:0:0:
320,192,106644,1,0,0:0:0:0:
192,192,106719,1,0,0:0:0:0:
320,192,106794,1,0,0:0:0:30:Floor.wav
448,192,106794,1,0,0:0:0:0:
64,192,106944,1,0,0:0:0:0:
192,192,107019,1,0,0:0:0:0:
320,192,107094,1,0,0:0:0:0:
64,192,107244,1,0,0:0:0:30:Floor.wav
448,192,107244,1,0,0:0:0:0:
192,192,107319,1,0,0:0:0:0:
320,192,107394,1,0,0:0:0:0:
192,192,107544,1,0,0:0:0:0:
320,192,107619,1,0,0:0:0:0:
64,192,107694,1,0,0:0:0:30:Floor.wav
448,192,107694,1,0,0:0:0:0:
192,192,107844,1,0,0:0:0:0:
64,192,107994,1,0,0:0:0:30:Floor.wav
448,192,107994,1,0,0:0:0:0:
320,192,108069,1,0,0:0:0:0:
192,192,108144,1,0,0:0:0:0:
64,192,108219,1,0,0:0:0:0:
448,192,108294,1,0,0:0:0:0:
320,192,108369,1,0,0:0:0:0:
64,192,108444,1,0,0:0:0:30:Floor.wav
192,192,108444,1,0,0:0:0:0:
448,192,108519,1,0,0:0:0:0:
320,192,108594,1,0,0:0:0:0:
64,192,108669,1,0,0:0:0:0:
192,192,108744,1,0,0:0:0:0:
320,192,108819,1,0,0:0:0:0:
64,192,108894,1,0,0:0:0:30:Floor.wav
448,192,108894,1,0,0:0:0:0:
192,192,108969,1,0,0:0:0:0:
320,192,109044,1,0,0:0:0:0:
448,192,109119,1,0,0:0:0:0:
64,192,109194,1,0,0:0:0:30:Floor.wav
192,192,109231,1,0,0:0:0:0:
448,192,109269,1,0,0:0:0:0:
320,192,109306,1,0,0:0:0:0:
64,192,109344,1,0,0:0:0:0:
192,192,109381,1,0,0:0:0:0:
448,192,109419,1,0,0:0:0:0:
320,192,109456,1,0,0:0:0:0:
64,192,109494,1,0,0:0:0:0:
192,192,109531,1,0,0:0:0:0:
448,192,109569,1,0,0:0:0:0:
320,192,109606,1,0,0:0:0:0:
64,192,109644,1,0,0:0:0:30:Floor.wav
192,192,109681,1,0,0:0:0:0:
448,192,109719,1,0,0:0:0:0:
320,192,109756,1,0,0:0:0:0:
64,192,109794,1,0,0:0:0:0:
192,192,109831,1,0,0:0:0:0:
448,192,109869,1,0,0:0:0:0:
320,192,109906,1,0,0:0:0:0:
64,192,109944,1,0,0:0:0:0:
192,192,109981,1,0,0:0:0:0:
448,192,110019,1,0,0:0:0:0:
320,192,110056,1,0,0:0:0:0:
64,192,110094,1,0,0:0:0:30:Floor.wav
192,192,110131,1,0,0:0:0:0:
448,192,110169,1,0,0:0:0:0:
320,192,110206,1,0,0:0:0:0:
64,192,110244,1,0,0:0:0:0:
192,192,110281,1,0,0:0:0:0:
448,192,110319,1,0,0:0:0:0:
320,192,110356,1,0,0:0:0:0:
64,192,110394,1,2,0:0:0:0:
192,192,110394,1,0,0:0:0:50:CrashShort.wav
192,192,110694,1,2,0:0:0:0:
320,192,110694,1,0,0:0:0:50:CrashShort.wav
448,192,110694,1,0,0:0:0:0:
64,192,110994,1,2,0:0:0:0:
192,192,110994,1,0,0:0:0:35:CrashShort.wav
448,192,110994,1,0,0:0:0:0:
64,192,111144,1,2,0:0:0:0:
320,192,111144,1,0,0:0:0:35:CrashShort.wav
448,192,111144,1,0,0:0:0:0:
64,192,111294,1,2,0:0:0:0:
192,192,111294,1,0,0:0:0:35:CrashShort.wav
320,192,111294,1,0,0:0:0:0:
192,192,111444,1,2,0:0:0:0:
320,192,111444,1,0,0:0:0:35:CrashShort.wav
448,192,111444,1,0,0:0:0:0:
64,192,111594,1,2,0:0:0:0:
192,192,111594,1,4,0:0:0:0:
448,192,111594,1,0,0:0:0:0:
320,192,111744,1,0,0:0:0:0:
64,192,111894,1,8,0:0:0:0:
192,192,111894,1,0,0:0:0:0:
448,192,111894,1,0,0:0:0:0:
64,192,112044,1,2,0:0:0:0:
320,192,112044,1,0,0:0:0:0:
192,192,112194,1,0,0:0:0:0:
320,192,112344,1,2,0:0:0:0:
448,192,112344,1,0,0:0:0:0:
64,192,112494,1,8,0:0:0:0:
192,192,112494,1,2,0:0:0:0:
320,192,112494,1,0,0:0:0:0:
64,192,112644,1,0,0:0:0:0:
192,192,112794,1,2,0:0:0:0:
448,192,112794,1,0,0:0:0:0:
192,192,112944,1,0,0:0:0:0:
64,192,113094,1,8,0:0:0:0:
320,192,113094,1,0,0:0:0:0:
448,192,113094,1,0,0:0:0:0:
192,192,113244,1,2,0:0:0:0:
320,192,113244,1,0,0:0:0:0:
64,192,113394,1,0,0:0:0:0:
320,192,113544,1,2,0:0:0:0:
448,192,113544,1,0,0:0:0:0:
64,192,113694,1,8,0:0:0:0:
192,192,113694,1,2,0:0:0:0:
320,192,113694,1,0,0:0:0:0:
192,192,113844,1,0,0:0:0:0:
320,192,113994,1,2,0:0:0:0:
448,192,113994,1,0,0:0:0:0:
320,192,114144,1,0,0:0:0:0:
64,192,114294,1,8,0:0:0:0:
192,192,114294,1,0,0:0:0:0:
448,192,114294,1,0,0:0:0:0:
64,192,114444,1,2,0:0:0:0:
320,192,114444,1,0,0:0:0:0:
448,192,114594,1,0,0:0:0:0:
64,192,114744,1,2,0:0:0:0:
192,192,114744,1,0,0:0:0:0:
64,192,114894,1,2,0:0:0:0:
320,192,114894,1,8,0:0:0:0:
448,192,114894,1,0,0:0:0:0:
448,192,115044,1,0,0:0:0:0:
192,192,115194,1,2,0:0:0:0:
320,192,115194,1,0,0:0:0:0:
320,192,115344,1,0,0:0:0:0:
64,192,115494,1,8,0:0:0:0:
192,192,115494,1,0,0:0:0:0:
448,192,115494,1,0,0:0:0:0:
448,192,115644,1,2,0:0:0:0:
320,192,115644,1,0,0:0:0:0:
64,192,115794,1,2,0:0:0:0:
192,192,115794,1,0,0:0:0:0:
64,192,115944,1,2,0:0:0:0:
192,192,115944,1,0,0:0:0:0:
320,192,116094,1,2,0:0:0:0:
448,192,116094,1,0,0:0:0:0:
320,192,116244,1,2,0:0:0:0:
448,192,116244,1,0,0:0:0:0:
192,192,116394,1,2,0:0:0:0:
64,192,116394,1,0,0:0:0:0:
192,192,116544,1,0,0:0:0:0:
64,192,116694,1,8,0:0:0:0:
320,192,116694,1,0,0:0:0:0:
448,192,116694,1,0,0:0:0:0:
192,192,116844,1,2,0:0:0:0:
448,192,116844,1,0,0:0:0:0:
64,192,116994,1,0,0:0:0:0:
320,192,117144,1,2,0:0:0:0:
448,192,117144,1,0,0:0:0:0:
64,192,117294,1,8,0:0:0:0:
192,192,117294,1,2,0:0:0:0:
448,192,117294,1,0,0:0:0:0:
64,192,117444,1,0,0:0:0:0:
192,192,117594,1,2,0:0:0:0:
448,192,117594,1,4,0:0:0:0:
320,192,117594,1,0,0:0:0:0:
192,192,117744,1,0,0:0:0:0:
64,192,117894,1,8,0:0:0:0:
320,192,117894,1,0,0:0:0:0:
448,192,117894,1,0,0:0:0:0:
192,192,118044,1,2,0:0:0:0:
320,192,118044,1,0,0:0:0:0:
64,192,118194,1,2,0:0:0:0:
192,192,118194,1,4,0:0:0:0:
448,192,118194,1,0,0:0:0:0:
448,192,118344,1,0,0:0:0:0:
64,192,118494,1,8,0:0:0:0:
192,192,118494,1,0,0:0:0:0:
320,192,118494,1,0,0:0:0:0:
192,192,118644,1,2,0:0:0:0:
448,192,118644,1,0,0:0:0:0:
64,192,118794,1,2,0:0:0:0:
320,192,118794,1,4,0:0:0:0:
448,192,118794,1,0,0:0:0:0:
64,192,118944,1,2,0:0:0:0:
192,192,118944,1,0,0:0:0:0:
320,192,119094,1,2,0:0:0:0:
448,192,119094,1,0,0:0:0:0:
64,192,119244,1,2,0:0:0:0:
192,192,119244,1,0,0:0:0:0:
320,192,119394,1,2,0:0:0:0:
448,192,119394,1,4,0:0:0:0:
64,192,119469,1,2,0:0:0:0:
192,192,119469,1,0,0:0:0:0:
320,192,119544,1,2,0:0:0:0:
448,192,119544,1,0,0:0:0:0:
64,192,119619,1,2,0:0:0:0:
192,192,119619,1,0,0:0:0:0:
448,192,119694,1,6,0:0:0:0:
320,192,119731,1,2,0:0:0:0:
192,192,119769,1,2,0:0:0:0:
64,192,119806,1,2,0:0:0:0:
320,192,119844,1,2,0:0:0:0:
448,192,119844,1,0,0:0:0:0:
192,192,119919,1,2,0:0:0:0:
64,192,119994,1,4,0:0:0:0:
320,192,119994,1,2,0:0:0:0:
448,192,119994,1,0,0:0:0:0:
192,192,120144,1,0,0:0:0:0:
64,192,120294,1,8,0:0:0:0:
320,192,120294,1,0,0:0:0:0:
448,192,120294,1,0,0:0:0:0:
192,192,120444,1,2,0:0:0:0:
448,192,120444,1,0,0:0:0:0:
320,192,120594,1,0,0:0:0:0:
64,192,120744,1,2,0:0:0:0:
192,192,120744,1,0,0:0:0:0:
192,192,120894,1,8,0:0:0:0:
320,192,120894,1,2,0:0:0:0:
448,192,120894,1,0,0:0:0:0:
448,192,121044,1,0,0:0:0:0:
64,192,121194,1,2,0:0:0:0:
320,192,121194,1,0,0:0:0:0:
320,192,121344,1,0,0:0:0:0:
64,192,121494,1,8,0:0:0:0:
192,192,121494,1,0,0:0:0:0:
448,192,121494,1,0,0:0:0:0:
192,192,121644,1,2,0:0:0:0:
320,192,121644,1,0,0:0:0:0:
448,192,121794,1,0,0:0:0:0:
64,192,121944,1,2,0:0:0:0:
192,192,121944,1,0,0:0:0:0:
192,192,122094,1,8,0:0:0:0:
320,192,122094,1,2,0:0:0:0:
448,192,122094,1,0,0:0:0:0:
320,192,122244,1,0,0:0:0:0:
64,192,122394,1,2,0:0:0:0:
192,192,122394,1,0,0:0:0:0:
192,192,122544,1,0,0:0:0:0:
64,192,122694,1,8,0:0:0:0:
320,192,122694,1,0,0:0:0:0:
448,192,122694,1,0,0:0:0:0:
192,192,122844,1,2,0:0:0:0:
448,192,122844,1,0,0:0:0:0:
64,192,122994,1,0,0:0:0:0:
320,192,123144,1,2,0:0:0:0:
448,192,123144,1,0,0:0:0:0:
64,192,123294,1,8,0:0:0:0:
192,192,123294,1,2,0:0:0:0:
448,192,123294,1,0,0:0:0:0:
64,192,123444,1,0,0:0:0:0:
192,192,123594,1,2,0:0:0:0:
320,192,123594,1,0,0:0:0:0:
192,192,123744,1,0,0:0:0:0:
64,192,123894,1,8,0:0:0:0:
320,192,123894,1,0,0:0:0:0:
448,192,123894,1,0,0:0:0:0:
192,192,124044,1,2,0:0:0:0:
320,192,124044,1,0,0:0:0:0:
64,192,124194,1,0,0:0:0:0:
320,192,124344,1,2,0:0:0:0:
448,192,124344,1,0,0:0:0:0:
64,192,124494,1,8,0:0:0:0:
192,192,124494,1,2,0:0:0:0:
320,192,124494,1,0,0:0:0:0:
192,192,124644,1,0,0:0:0:0:
320,192,124794,1,2,0:0:0:0:
448,192,124794,1,0,0:0:0:0:
320,192,124944,1,0,0:0:0:0:
64,192,125094,1,8,0:0:0:0:
192,192,125094,1,0,0:0:0:0:
448,192,125094,1,0,0:0:0:0:
64,192,125244,1,2,0:0:0:0:
320,192,125244,1,0,0:0:0:0:
448,192,125394,1,0,0:0:0:0:
64,192,125544,1,2,0:0:0:0:
192,192,125544,1,0,0:0:0:0:
64,192,125694,1,8,0:0:0:0:
320,192,125694,1,2,0:0:0:0:
448,192,125694,1,0,0:0:0:0:
448,192,125844,1,0,0:0:0:0:
64,192,125994,1,2,0:0:0:0:
320,192,125994,1,0,0:0:0:0:
320,192,126144,1,0,0:0:0:0:
64,192,126294,1,8,0:0:0:0:
192,192,126294,1,0,0:0:0:0:
448,192,126294,1,0,0:0:0:0:
192,192,126444,1,2,0:0:0:0:
320,192,126444,1,0,0:0:0:0:
448,192,126594,1,0,0:0:0:0:
64,192,126744,1,2,0:0:0:0:
192,192,126744,1,0,0:0:0:0:
192,192,126894,1,8,0:0:0:0:
320,192,126894,1,2,0:0:0:0:
448,192,126894,1,0,0:0:0:0:
320,192,127044,1,0,0:0:0:0:
64,192,127194,1,2,0:0:0:0:
192,192,127194,1,4,0:0:0:0:
448,192,127194,1,0,0:0:0:0:
192,192,127344,1,0,0:0:0:0:
64,192,127494,1,8,0:0:0:0:
320,192,127494,1,0,0:0:0:0:
448,192,127494,1,0,0:0:0:0:
192,192,127644,1,2,0:0:0:0:
448,192,127644,1,0,0:0:0:0:
64,192,127794,1,2,0:0:0:0:
192,192,127794,1,4,0:0:0:0:
320,192,127794,1,0,0:0:0:0:
320,192,127944,1,0,0:0:0:0:
64,192,128094,1,8,0:0:0:0:
192,192,128094,1,0,0:0:0:0:
448,192,128094,1,0,0:0:0:0:
64,192,128244,1,2,0:0:0:0:
320,192,128244,1,0,0:0:0:0:
192,192,128394,1,2,0:0:0:0:
320,192,128394,1,4,0:0:0:0:
448,192,128394,1,0,0:0:0:30:Snare2.wav
64,192,128544,1,0,0:0:0:30:Snare2.wav
448,192,128694,1,0,0:0:0:0:
320,192,128769,1,0,0:0:0:0:
64,192,128844,1,2,0:0:0:0:
192,192,128844,1,0,0:0:0:30:Snare2.wav
448,192,128994,1,0,0:0:0:30:Snare2.wav
64,192,129144,1,2,0:0:0:0:
320,192,129144,1,0,0:0:0:0:
192,192,129219,1,0,0:0:0:0:
448,192,129294,1,0,0:0:0:30:Snare2.wav
320,192,129369,1,0,0:0:0:30:Snare2.wav
64,192,129444,1,0,0:0:0:30:Snare2.wav
192,192,129519,1,0,0:0:0:30:Snare2.wav
64,192,129594,128,2,130419:0:0:0:0:
320,192,129594,128,4,129819:0:0:0:0:
448,192,129594,128,0,130794:0:0:0:0:
320,192,129894,128,0,130794:0:0:0:0:
192,192,130194,128,0,130719:0:0:0:0:
64,192,130494,128,0,130719:0:0:0:0:
64,192,130794,128,0,131319:0:0:0:0:
192,192,130794,128,0,131994:0:0:0:0:
320,192,131094,128,0,131919:0:0:0:0:
64,192,131394,128,0,131994:0:0:0:0:
448,192,131694,128,0,131919:0:0:0:0:
320,192,131994,128,0,133194:0:0:0:0:
448,192,131994,128,0,132519:0:0:0:0:
64,192,132294,128,0,133119:0:0:0:0:
448,192,132594,128,0,133194:0:0:0:0:
192,192,132894,128,0,133119:0:0:0:0:
64,192,133194,128,0,134394:0:0:0:0:
192,192,133194,128,0,133719:0:0:0:0:
448,192,133494,128,0,134319:0:0:0:0:
192,192,133794,128,0,134394:0:0:0:0:
320,192,134094,128,0,134319:0:0:0:0:
320,192,134394,128,0,135219:0:0:0:0:
448,192,134394,128,0,135594:0:0:0:0:
192,192,134694,128,0,135519:0:0:0:0:
64,192,134994,128,0,135519:0:0:0:0:
320,192,135294,128,0,135594:0:0:0:0:
64,192,135594,128,0,135819:0:0:0:0:
192,192,135594,128,0,136794:0:0:0:0:
64,192,135894,128,0,136794:0:0:0:0:
320,192,136194,128,0,136719:0:0:0:0:
448,192,136494,128,0,136719:0:0:0:0:
320,192,136794,128,0,137994:0:0:0:0:
448,192,136794,128,0,137619:0:0:0:0:
64,192,137094,128,0,137919:0:0:0:0:
192,192,137394,128,0,137994:0:0:0:0:
448,192,137694,128,0,137919:0:0:0:0:
64,192,137994,128,0,138819:0:0:0:0:
448,192,137994,128,0,138519:0:0:0:0:
192,192,138294,1,0,0:0:0:0:
320,192,138294,128,0,138369:0:0:0:0:
320,192,138444,1,0,0:0:0:0:
192,192,138594,128,0,139119:0:0:0:0:
320,192,138594,1,0,0:0:0:0:
448,192,138594,128,0,139119:0:0:0:0:
64,192,138894,128,0,139119:0:0:0:0:
64,192,139194,128,0,140019:0:0:0:0:
320,192,139194,128,0,139419:0:0:0:0:
448,192,139194,128,0,140394:0:0:0:0:
320,192,139494,128,0,140394:0:0:0:0:
192,192,139794,128,0,140319:0:0:0:0:
64,192,140094,128,0,140319:0:0:0:0:
64,192,140394,128,0,140919:0:0:0:0:
192,192,140394,128,0,141594:0:0:0:0:
320,192,140694,128,0,141519:0:0:0:0:
64,192,140994,128,0,141594:0:0:0:0:
448,192,141294,128,0,141519:0:0:0:0:
320,192,141594,128,0,142794:0:0:0:0:
448,192,141594,128,0,142119:0:0:0:0:
64,192,141894,128,0,142719:0:0:0:0:
448,192,142194,128,0,142794:0:0:0:0:
192,192,142494,128,0,142719:0:0:0:0:
64,192,142794,128,0,143994:0:0:0:0:
192,192,142794,128,0,143319:0:0:0:0:
448,192,143094,128,0,143919:0:0:0:0:
192,192,143394,128,0,143994:0:0:0:0:
320,192,143694,128,0,143919:0:0:0:0:
320,192,143994,128,0,144819:0:0:0:0:
448,192,143994,128,0,145194:0:0:0:0:
192,192,144294,128,0,145119:0:0:0:0:
64,192,144594,128,0,145119:0:0:0:0:
320,192,144894,128,0,145194:0:0:0:0:
64,192,145194,128,0,145419:0:0:0:0:
192,192,145194,128,0,146394:0:0:0:0:
64,192,145494,128,0,146394:0:0:0:0:
320,192,145794,128,0,146319:0:0:0:0:
448,192,146094,128,0,146319:0:0:0:0:
320,192,146394,128,0,147594:0:0:0:0:
448,192,146394,128,0,147519:0:0:0:0:
192,192,146994,128,0,147594:0:0:0:0:
64,192,147594,128,0,148719:0:0:0:0:
448,192,147594,128,0,148119:0:0:0:0:
192,192,148194,128,0,148719:0:0:0:0:
320,192,148194,1,0,0:0:0:0:
448,192,148194,1,0,0:0:0:0:
64,192,148794,1,2,0:0:0:0:
192,192,148794,1,0,0:0:0:40:CrashShort.wav
320,192,148794,1,0,0:0:0:0:
192,192,149094,1,2,0:0:0:0:
320,192,149094,1,0,0:0:0:40:CrashShort.wav
448,192,149094,1,0,0:0:0:0:
64,192,149394,1,2,0:0:0:0:
192,192,149394,1,0,0:0:0:30:CrashShort.wav
448,192,149394,1,0,0:0:0:0:
64,192,149544,1,2,0:0:0:0:
320,192,149544,1,0,0:0:0:30:CrashShort.wav
448,192,149544,1,0,0:0:0:0:
64,192,149694,1,2,0:0:0:0:
192,192,149694,1,0,0:0:0:30:CrashShort.wav
320,192,149694,1,0,0:0:0:0:
192,192,149844,1,2,0:0:0:0:
320,192,149844,1,0,0:0:0:30:CrashShort.wav
448,192,149844,1,0,0:0:0:0:
64,192,149994,1,2,0:0:0:0:
192,192,149994,1,4,0:0:0:0:
448,192,149994,1,0,0:0:0:0:
320,192,150144,1,0,0:0:0:0:
64,192,150294,1,8,0:0:0:0:
192,192,150294,1,0,0:0:0:0:
448,192,150294,1,0,0:0:0:0:
64,192,150444,1,2,0:0:0:0:
320,192,150444,1,0,0:0:0:0:
192,192,150594,1,0,0:0:0:0:
320,192,150744,1,2,0:0:0:0:
448,192,150744,1,0,0:0:0:0:
64,192,150894,1,8,0:0:0:0:
192,192,150894,1,2,0:0:0:0:
320,192,150894,1,0,0:0:0:0:
64,192,151044,1,0,0:0:0:0:
192,192,151194,1,2,0:0:0:0:
448,192,151194,1,0,0:0:0:0:
192,192,151344,1,0,0:0:0:0:
64,192,151494,1,8,0:0:0:0:
320,192,151494,1,0,0:0:0:0:
448,192,151494,1,0,0:0:0:0:
192,192,151644,1,2,0:0:0:0:
320,192,151644,1,0,0:0:0:0:
64,192,151794,1,0,0:0:0:0:
320,192,151944,1,2,0:0:0:0:
448,192,151944,1,0,0:0:0:0:
64,192,152094,1,8,0:0:0:0:
192,192,152094,1,2,0:0:0:0:
320,192,152094,1,0,0:0:0:0:
192,192,152244,1,0,0:0:0:0:
320,192,152394,1,2,0:0:0:0:
448,192,152394,1,0,0:0:0:0:
320,192,152544,1,0,0:0:0:0:
64,192,152694,1,8,0:0:0:0:
192,192,152694,1,0,0:0:0:0:
448,192,152694,1,0,0:0:0:0:
64,192,152844,1,2,0:0:0:0:
320,192,152844,1,0,0:0:0:0:
448,192,152994,1,0,0:0:0:0:
64,192,153144,1,2,0:0:0:0:
192,192,153144,1,0,0:0:0:0:
64,192,153294,1,8,0:0:0:0:
320,192,153294,1,2,0:0:0:0:
448,192,153294,1,0,0:0:0:0:
448,192,153444,1,0,0:0:0:0:
192,192,153594,1,2,0:0:0:0:
320,192,153594,1,0,0:0:0:0:
320,192,153744,1,0,0:0:0:0:
64,192,153894,1,8,0:0:0:0:
192,192,153894,1,0,0:0:0:0:
448,192,153894,1,0,0:0:0:0:
192,192,154044,1,2,0:0:0:0:
320,192,154044,1,0,0:0:0:0:
64,192,154194,1,2,0:0:0:0:
448,192,154194,1,0,0:0:0:0:
64,192,154344,1,2,0:0:0:0:
192,192,154344,1,0,0:0:0:0:
320,192,154494,1,2,0:0:0:0:
448,192,154494,1,0,0:0:0:0:
64,192,154644,1,2,0:0:0:0:
448,192,154644,1,0,0:0:0:0:
192,192,154794,1,2,0:0:0:0:
320,192,154794,1,0,0:0:0:0:
64,192,154944,1,0,0:0:0:0:
192,192,155019,1,0,0:0:0:0:
320,192,155094,1,0,0:0:0:0:
192,192,155244,1,0,0:0:0:0:
320,192,155319,1,0,0:0:0:0:
448,192,155394,1,0,0:0:0:0:
64,192,155544,1,0,0:0:0:0:
320,192,155694,1,0,0:0:0:0:
192,192,155844,1,0,0:0:0:0:
64,192,155994,1,2,0:0:0:0:
320,192,155994,1,4,0:0:0:0:
448,192,155994,1,0,0:0:0:0:
192,192,156144,1,0,0:0:0:0:
320,192,156294,1,2,0:0:0:0:
448,192,156294,1,4,0:0:0:0:
64,192,156369,1,2,0:0:0:0:
192,192,156369,1,4,0:0:0:0:
64,192,156519,1,2,0:0:0:0:
448,192,156519,1,4,0:0:0:0:
192,192,156744,1,2,0:0:0:0:
448,192,156744,1,4,0:0:0:0:
64,192,156819,1,2,0:0:0:0:
320,192,156819,1,4,0:0:0:0:
192,192,156894,1,2,0:0:0:0:
448,192,156894,1,4,0:0:0:0:
64,192,157044,1,2,0:0:0:0:
192,192,157044,1,4,0:0:0:0:
320,192,157194,1,0,0:0:0:0:
64,192,157269,1,2,0:0:0:0:
448,192,157269,1,4,0:0:0:0:
192,192,157381,1,2,0:0:0:0:
320,192,157381,1,0,0:0:0:0:
64,192,157456,1,2,0:0:0:0:
448,192,157456,1,4,0:0:0:0:
64,192,157644,1,2,0:0:0:0:
192,192,157644,1,4,0:0:0:0:
320,192,157794,1,0,0:0:0:0:
64,192,157869,1,2,0:0:0:0:
192,192,157869,1,4,0:0:0:0:
448,192,157944,1,0,0:0:0:0:
320,192,157981,1,0,0:0:0:0:
64,192,158056,1,0,0:0:0:0:
192,192,158131,1,0,0:0:0:0:
64,192,158244,1,0,0:0:0:0:
448,192,158281,1,0,0:0:0:0:
320,192,158356,1,0,0:0:0:0:
192,192,158394,1,0,0:0:0:0:
448,192,158469,1,0,0:0:0:0:
192,192,158544,1,0,0:0:0:0:
320,192,158581,1,0,0:0:0:0:
64,192,158694,1,0,0:0:0:0:
192,192,158731,1,0,0:0:0:0:
320,192,158769,1,0,0:0:0:0:
64,192,158844,1,0,0:0:0:0:
448,192,158919,1,0,0:0:0:0:
192,192,158994,1,0,0:0:0:0:
320,192,159069,1,0,0:0:0:0:
64,192,159144,1,0,0:0:0:0:
448,192,159144,1,0,0:0:0:0:
192,192,159219,1,0,0:0:0:0:
320,192,159294,1,0,0:0:0:0:
448,192,159331,1,0,0:0:0:0:
192,192,159369,1,0,0:0:0:0:
64,192,159406,1,0,0:0:0:0:
320,192,159444,1,0,0:0:0:0:
448,192,159481,1,0,0:0:0:0:
192,192,159519,1,0,0:0:0:0:
64,192,159556,1,0,0:0:0:0:
64,192,160794,1,0,0:0:0:0:
448,192,160869,1,0,0:0:0:0:
192,192,161094,1,0,0:0:0:0:
320,192,161169,1,0,0:0:0:0:
448,192,161394,1,0,0:0:0:0:
64,192,161469,1,0,0:0:0:0:
320,192,161694,1,0,0:0:0:0:
448,192,161769,1,0,0:0:0:0:
192,192,161994,1,0,0:0:0:0:
320,192,162069,1,0,0:0:0:0:
64,192,162444,1,0,0:0:0:0:
192,192,162519,1,0,0:0:0:0:
448,192,162894,1,0,0:0:0:0:
192,192,162969,1,0,0:0:0:0:
64,192,163194,1,0,0:0:0:0:
320,192,163269,1,0,0:0:0:0:
448,192,163569,1,0,0:0:0:0:
64,192,163644,1,0,0:0:0:0:
192,192,164094,1,0,0:0:0:0:
448,192,164169,1,0,0:0:0:0:
64,192,164394,1,0,0:0:0:0:
192,192,164469,1,0,0:0:0:0:
448,192,165594,1,0,0:0:0:0:
320,192,165669,1,0,0:0:0:0:
64,192,166794,1,0,0:0:0:0:
448,192,166869,1,0,0:0:0:0:
192,192,167994,1,0,0:0:0:0:
320,192,168069,128,0,169194:0:0:0:0:
64,192,169194,1,2,0:0:0:0:
192,192,169194,1,0,0:0:0:40:CrashShort.wav
448,192,169194,1,0,0:0:0:0:
64,192,169494,1,2,0:0:0:0:
320,192,169494,1,0,0:0:0:40:CrashShort.wav
448,192,169494,1,0,0:0:0:0:
64,192,169794,1,2,0:0:0:0:
192,192,169794,1,0,0:0:0:40:CrashShort.wav
448,192,169794,1,0,0:0:0:0:
64,192,170094,1,2,0:0:0:0:
320,192,170094,1,0,0:0:0:40:CrashShort.wav
448,192,170094,1,0,0:0:0:0:
64,192,170394,1,2,0:0:0:0:
192,192,170394,1,0,0:0:0:40:CrashShort.wav
320,192,170394,1,0,0:0:0:0:
192,192,170694,1,2,0:0:0:0:
320,192,170694,1,0,0:0:0:40:CrashShort.wav
448,192,170694,1,0,0:0:0:0:
64,192,170994,1,2,0:0:0:0:
192,192,170994,1,0,0:0:0:30:CrashShort.wav
448,192,170994,1,0,0:0:0:0:
64,192,171144,1,2,0:0:0:0:
320,192,171144,1,0,0:0:0:30:CrashShort.wav
448,192,171144,1,0,0:0:0:0:
64,192,171294,1,2,0:0:0:0:
192,192,171294,1,0,0:0:0:30:CrashShort.wav
320,192,171294,1,0,0:0:0:0:
192,192,171444,1,2,0:0:0:0:
320,192,171444,1,0,0:0:0:30:CrashShort.wav
448,192,171444,1,0,0:0:0:0:
64,192,171594,1,2,0:0:0:0:
192,192,171594,1,4,0:0:0:0:
448,192,171594,1,0,0:0:0:0:
320,192,171744,1,0,0:0:0:0:
64,192,171894,1,8,0:0:0:0:
192,192,171894,1,0,0:0:0:0:
448,192,171894,1,0,0:0:0:0:
64,192,172044,1,2,0:0:0:0:
320,192,172044,1,0,0:0:0:0:
192,192,172194,1,0,0:0:0:0:
320,192,172344,1,2,0:0:0:0:
448,192,172344,1,0,0:0:0:0:
64,192,172494,1,8,0:0:0:0:
192,192,172494,1,2,0:0:0:0:
320,192,172494,1,0,0:0:0:0:
64,192,172644,1,0,0:0:0:0:
192,192,172794,1,2,0:0:0:0:
448,192,172794,1,0,0:0:0:0:
192,192,172944,1,0,0:0:0:0:
64,192,173094,1,8,0:0:0:0:
320,192,173094,1,0,0:0:0:0:
448,192,173094,1,0,0:0:0:0:
192,192,173244,1,2,0:0:0:0:
320,192,173244,1,0,0:0:0:0:
64,192,173394,1,0,0:0:0:0:
320,192,173544,1,2,0:0:0:0:
448,192,173544,1,0,0:0:0:0:
64,192,173694,1,8,0:0:0:0:
192,192,173694,1,2,0:0:0:0:
320,192,173694,1,0,0:0:0:0:
192,192,173844,1,0,0:0:0:0:
320,192,173994,1,2,0:0:0:0:
448,192,173994,1,0,0:0:0:0:
320,192,174144,1,0,0:0:0:0:
64,192,174294,1,8,0:0:0:0:
192,192,174294,1,0,0:0:0:0:
448,192,174294,1,0,0:0:0:0:
64,192,174444,1,2,0:0:0:0:
320,192,174444,1,0,0:0:0:0:
448,192,174594,1,0,0:0:0:0:
64,192,174744,1,2,0:0:0:0:
192,192,174744,1,0,0:0:0:0:
64,192,174894,1,8,0:0:0:0:
320,192,174894,1,2,0:0:0:0:
448,192,174894,1,0,0:0:0:0:
448,192,175044,1,0,0:0:0:0:
192,192,175194,1,2,0:0:0:0:
320,192,175194,1,0,0:0:0:0:
320,192,175344,1,0,0:0:0:0:
64,192,175494,1,8,0:0:0:0:
192,192,175494,1,0,0:0:0:0:
448,192,175494,1,0,0:0:0:0:
192,192,175644,1,2,0:0:0:0:
320,192,175644,1,0,0:0:0:0:
64,192,175794,1,2,0:0:0:0:
448,192,175794,1,0,0:0:0:0:
64,192,175944,1,2,0:0:0:0:
192,192,175944,1,0,0:0:0:0:
320,192,176094,1,2,0:0:0:0:
448,192,176094,1,0,0:0:0:0:
64,192,176244,1,2,0:0:0:0:
448,192,176244,1,0,0:0:0:0:
192,192,176394,1,2,0:0:0:0:
320,192,176394,1,0,0:0:0:0:
192,192,176544,1,0,0:0:0:0:
64,192,176694,1,8,0:0:0:0:
320,192,176694,1,0,0:0:0:0:
448,192,176694,1,0,0:0:0:0:
192,192,176844,1,2,0:0:0:0:
448,192,176844,1,0,0:0:0:0:
64,192,176994,1,0,0:0:0:0:
320,192,177144,1,2,0:0:0:0:
448,192,177144,1,0,0:0:0:0:
64,192,177294,1,8,0:0:0:0:
192,192,177294,1,2,0:0:0:0:
448,192,177294,1,0,0:0:0:0:
64,192,177444,1,0,0:0:0:0:
192,192,177594,1,2,0:0:0:0:
448,192,177594,1,4,0:0:0:0:
320,192,177594,1,0,0:0:0:0:
192,192,177744,1,0,0:0:0:0:
64,192,177894,1,8,0:0:0:0:
320,192,177894,1,0,0:0:0:0:
448,192,177894,1,0,0:0:0:0:
192,192,178044,1,2,0:0:0:0:
320,192,178044,1,0,0:0:0:0:
64,192,178194,1,2,0:0:0:0:
192,192,178194,1,4,0:0:0:0:
448,192,178194,1,0,0:0:0:0:
448,192,178344,1,0,0:0:0:0:
64,192,178494,1,8,0:0:0:0:
192,192,178494,1,0,0:0:0:0:
320,192,178494,1,0,0:0:0:0:
192,192,178644,1,2,0:0:0:0:
448,192,178644,1,0,0:0:0:0:
64,192,178794,1,2,0:0:0:0:
320,192,178794,1,4,0:0:0:0:
448,192,178794,1,0,0:0:0:0:
64,192,178944,1,2,0:0:0:0:
192,192,178944,1,0,0:0:0:0:
320,192,179094,1,2,0:0:0:0:
448,192,179094,1,0,0:0:0:0:
64,192,179244,1,2,0:0:0:0:
192,192,179244,1,0,0:0:0:0:
320,192,179394,1,2,0:0:0:0:
448,192,179394,1,4,0:0:0:0:
64,192,179469,1,2,0:0:0:0:
192,192,179469,1,0,0:0:0:0:
320,192,179544,1,2,0:0:0:0:
448,192,179544,1,0,0:0:0:0:
64,192,179619,1,2,0:0:0:0:
192,192,179619,1,0,0:0:0:0:
448,192,179694,1,6,0:0:0:0:
320,192,179731,1,2,0:0:0:0:
192,192,179769,1,2,0:0:0:0:
64,192,179806,1,2,0:0:0:0:
320,192,179844,1,2,0:0:0:0:
448,192,179844,1,0,0:0:0:0:
192,192,179919,1,2,0:0:0:0:
64,192,179994,1,2,0:0:0:0:
320,192,179994,1,4,0:0:0:0:
448,192,179994,1,0,0:0:0:0:
192,192,180144,1,0,0:0:0:0:
64,192,180294,1,8,0:0:0:0:
320,192,180294,1,0,0:0:0:0:
448,192,180294,1,0,0:0:0:0:
192,192,180444,1,2,0:0:0:0:
448,192,180444,1,0,0:0:0:0:
320,192,180594,1,0,0:0:0:0:
64,192,180744,1,2,0:0:0:0:
192,192,180744,1,0,0:0:0:0:
192,192,180894,1,8,0:0:0:0:
320,192,180894,1,2,0:0:0:0:
448,192,180894,1,0,0:0:0:0:
448,192,181044,1,0,0:0:0:0:
64,192,181194,1,2,0:0:0:0:
320,192,181194,1,0,0:0:0:0:
320,192,181344,1,0,0:0:0:0:
64,192,181494,1,8,0:0:0:0:
192,192,181494,1,0,0:0:0:0:
448,192,181494,1,0,0:0:0:0:
192,192,181644,1,2,0:0:0:0:
320,192,181644,1,0,0:0:0:0:
448,192,181794,1,0,0:0:0:0:
64,192,181944,1,2,0:0:0:0:
192,192,181944,1,0,0:0:0:0:
192,192,182094,1,8,0:0:0:0:
320,192,182094,1,2,0:0:0:0:
448,192,182094,1,0,0:0:0:0:
320,192,182244,1,0,0:0:0:0:
64,192,182394,1,2,0:0:0:0:
192,192,182394,1,0,0:0:0:0:
192,192,182544,1,0,0:0:0:0:
64,192,182694,1,8,0:0:0:0:
320,192,182694,1,0,0:0:0:0:
448,192,182694,1,0,0:0:0:0:
192,192,182844,1,2,0:0:0:0:
448,192,182844,1,0,0:0:0:0:
64,192,182994,1,0,0:0:0:0:
320,192,183144,1,2,0:0:0:0:
448,192,183144,1,0,0:0:0:0:
64,192,183294,1,8,0:0:0:0:
192,192,183294,1,2,0:0:0:0:
448,192,183294,1,0,0:0:0:0:
64,192,183444,1,0,0:0:0:0:
192,192,183594,1,2,0:0:0:0:
320,192,183594,1,0,0:0:0:0:
192,192,183744,1,0,0:0:0:0:
64,192,183894,1,8,0:0:0:0:
320,192,183894,1,0,0:0:0:0:
448,192,183894,1,0,0:0:0:0:
192,192,184044,1,2,0:0:0:0:
320,192,184044,1,0,0:0:0:0:
64,192,184194,1,0,0:0:0:0:
320,192,184344,1,2,0:0:0:0:
448,192,184344,1,0,0:0:0:0:
64,192,184494,1,8,0:0:0:0:
192,192,184494,1,2,0:0:0:0:
320,192,184494,1,0,0:0:0:0:
192,192,184644,1,0,0:0:0:0:
320,192,184794,1,2,0:0:0:0:
448,192,184794,1,4,0:0:0:0:
64,192,184794,1,0,0:0:0:0:
320,192,184944,1,0,0:0:0:0:
64,192,185094,1,8,0:0:0:0:
192,192,185094,1,0,0:0:0:0:
448,192,185094,1,0,0:0:0:0:
64,192,185244,1,2,0:0:0:0:
320,192,185244,1,0,0:0:0:0:
192,192,185394,1,2,0:0:0:0:
320,192,185394,1,4,0:0:0:0:
448,192,185394,1,0,0:0:0:0:
64,192,185544,1,0,0:0:0:0:
320,192,185694,1,8,0:0:0:0:
448,192,185694,1,0,0:0:0:0:
64,192,185844,1,2,0:0:0:0:
192,192,185844,1,0,0:0:0:0:
64,192,185994,1,2,0:0:0:0:
320,192,185994,1,4,0:0:0:0:
448,192,185994,1,0,0:0:0:0:
192,192,186144,1,2,0:0:0:0:
320,192,186144,1,0,0:0:0:0:
64,192,186294,1,8,0:0:0:0:
448,192,186294,1,0,0:0:0:0:
320,192,186444,1,2,0:0:0:0:
448,192,186444,1,0,0:0:0:0:
192,192,186519,1,2,0:0:0:0:
64,192,186594,1,2,0:0:0:0:
320,192,186594,1,4,0:0:0:0:
448,192,186594,1,0,0:0:0:0:
64,192,186744,1,2,0:0:0:0:
192,192,186744,1,0,0:0:0:0:
320,192,186894,1,8,0:0:0:0:
448,192,186894,1,0,0:0:0:0:
64,192,187044,1,8,0:0:0:0:
448,192,187044,1,0,0:0:0:0:
64,192,187194,1,2,0:0:0:0:
192,192,187194,1,4,0:0:0:0:
320,192,187194,1,0,0:0:0:0:
320,192,187344,1,2,0:0:0:0:
448,192,187344,1,0,0:0:0:0:
64,192,187494,1,2,0:0:0:0:
192,192,187494,1,0,0:0:0:0:
64,192,187644,1,2,0:0:0:0:
448,192,187644,1,0,0:0:0:0:
192,192,187794,1,2,0:0:0:0:
320,192,187794,1,4,0:0:0:0:
448,192,187794,1,0,0:0:0:0:
64,192,187944,1,2,0:0:0:0:
192,192,187944,1,0,0:0:0:0:
320,192,188094,1,2,0:0:0:0:
448,192,188094,1,0,0:0:0:0:
64,192,188244,1,2,0:0:0:0:
448,192,188244,1,0,0:0:0:0:
320,192,188319,1,2,0:0:0:0:
64,192,188394,1,6,0:0:0:0:
192,192,188394,1,0,0:0:0:40:Snare2.wav
320,192,188469,1,2,0:0:0:0:
448,192,188469,1,0,0:0:0:0:
64,192,188544,1,2,0:0:0:0:
192,192,188544,1,0,0:0:0:40:Snare2.wav
320,192,188619,1,2,0:0:0:0:
448,192,188619,1,0,0:0:0:0:
64,192,188694,1,2,0:0:0:0:
192,192,188694,1,0,0:0:0:0:
320,192,188769,1,2,0:0:0:0:
448,192,188769,1,0,0:0:0:0:
64,192,188844,1,2,0:0:0:0:
192,192,188844,1,0,0:0:0:40:Snare2.wav
320,192,188919,1,2,0:0:0:0:
448,192,188919,1,0,0:0:0:0:
64,192,188994,1,2,0:0:0:0:
192,192,189031,1,2,0:0:0:0:
320,192,189069,1,2,0:0:0:0:
448,192,189106,1,2,0:0:0:0:
64,192,189144,1,2,0:0:0:0:
192,192,189144,1,0,0:0:0:40:Snare2.wav
320,192,189219,1,2,0:0:0:0:
448,192,189219,1,0,0:0:0:0:
64,192,189294,1,2,0:0:0:0:
192,192,189294,1,0,0:0:0:0:
320,192,189369,1,0,0:0:0:0:
64,192,189444,1,2,0:0:0:0:
448,192,189444,1,0,0:0:0:40:Snare2.wav
192,192,189519,1,0,0:0:0:0:
64,192,189594,1,2,0:0:0:0:
320,192,189594,1,4,0:0:0:0:
448,192,189594,1,0,0:0:0:0:
192,192,189744,1,0,0:0:0:0:
320,192,189819,1,0,0:0:0:0:
64,192,189894,1,8,0:0:0:0:
192,192,189894,1,0,0:0:0:0:
448,192,189894,1,0,0:0:0:0:
320,192,190044,1,2,0:0:0:0:
448,192,190044,1,0,0:0:0:0:
192,192,190194,1,0,0:0:0:0:
64,192,190344,1,2,0:0:0:0:
448,192,190344,1,0,0:0:0:0:
64,192,190494,1,8,0:0:0:0:
192,192,190494,1,2,0:0:0:0:
320,192,190494,1,0,0:0:0:0:
448,192,190644,1,0,0:0:0:0:
192,192,190794,1,2,0:0:0:0:
320,192,190794,1,0,0:0:0:0:
64,192,190944,1,0,0:0:0:0:
192,192,191094,1,8,0:0:0:0:
320,192,191094,1,0,0:0:0:0:
448,192,191094,1,0,0:0:0:0:
64,192,191244,1,2,0:0:0:0:
448,192,191244,1,0,0:0:0:0:
320,192,191319,1,0,0:0:0:0:
192,192,191394,1,0,0:0:0:0:
320,192,191544,1,2,0:0:0:0:
448,192,191544,1,0,0:0:0:0:
64,192,191694,1,8,0:0:0:0:
192,192,191694,1,2,0:0:0:0:
448,192,191694,1,0,0:0:0:0:
320,192,191844,1,0,0:0:0:0:
64,192,191994,1,2,0:0:0:0:
192,192,191994,1,0,0:0:0:0:
448,192,192144,1,0,0:0:0:0:
320,192,192219,1,0,0:0:0:0:
64,192,192294,1,8,0:0:0:0:
192,192,192294,1,0,0:0:0:0:
448,192,192294,1,0,0:0:0:0:
64,192,192444,1,2,0:0:0:0:
320,192,192444,1,0,0:0:0:0:
192,192,192594,1,0,0:0:0:0:
320,192,192744,1,2,0:0:0:0:
448,192,192744,1,0,0:0:0:0:
64,192,192894,1,8,0:0:0:0:
192,192,192894,1,2,0:0:0:0:
448,192,192894,1,0,0:0:0:0:
320,192,193044,1,0,0:0:0:0:
64,192,193194,1,2,0:0:0:0:
448,192,193194,1,0,0:0:0:0:
192,192,193344,1,0,0:0:0:0:
64,192,193494,1,8,0:0:0:0:
320,192,193494,1,0,0:0:0:0:
448,192,193494,1,0,0:0:0:0:
64,192,193644,1,2,0:0:0:0:
192,192,193644,1,0,0:0:0:0:
320,192,193719,1,0,0:0:0:0:
448,192,193794,1,0,0:0:0:0:
64,192,193944,1,2,0:0:0:0:
192,192,193944,1,0,0:0:0:0:
192,192,194094,1,8,0:0:0:0:
320,192,194094,1,2,0:0:0:0:
448,192,194094,1,0,0:0:0:0:
64,192,194244,1,0,0:0:0:0:
192,192,194394,1,2,0:0:0:0:
448,192,194394,1,0,0:0:0:0:
320,192,194544,1,0,0:0:0:0:
192,192,194619,1,0,0:0:0:0:
64,192,194694,1,8,0:0:0:0:
320,192,194694,1,0,0:0:0:0:
448,192,194694,1,0,0:0:0:0:
64,192,194844,1,2,0:0:0:0:
192,192,194844,1,0,0:0:0:0:
320,192,194994,1,0,0:0:0:0:
64,192,195144,1,2,0:0:0:0:
448,192,195144,1,0,0:0:0:0:
192,192,195294,1,8,0:0:0:0:
320,192,195294,1,2,0:0:0:0:
448,192,195294,1,0,0:0:0:0:
64,192,195444,1,0,0:0:0:0:
192,192,195594,1,2,0:0:0:0:
320,192,195594,1,0,0:0:0:0:
448,192,195744,1,0,0:0:0:0:
64,192,195894,1,8,0:0:0:0:
192,192,195894,1,0,0:0:0:0:
320,192,195894,1,0,0:0:0:0:
64,192,196044,1,2,0:0:0:0:
448,192,196044,1,0,0:0:0:0:
192,192,196119,1,0,0:0:0:0:
320,192,196194,1,0,0:0:0:0:
64,192,196344,1,0,0:0:0:0:
192,192,196344,1,2,0:0:0:0:
64,192,196494,1,8,0:0:0:0:
320,192,196494,1,2,0:0:0:0:
448,192,196494,1,0,0:0:0:0:
192,192,196644,1,0,0:0:0:0:
320,192,196794,1,2,0:0:0:0:
448,192,196794,1,0,0:0:0:0:
64,192,196944,1,0,0:0:0:0:
192,192,197019,1,0,0:0:0:0:
64,192,197094,1,8,0:0:0:0:
320,192,197094,1,0,0:0:0:0:
448,192,197094,1,0,0:0:0:0:
192,192,197244,1,2,0:0:0:0:
448,192,197244,1,0,0:0:0:0:
320,192,197394,1,0,0:0:0:0:
64,192,197544,1,2,0:0:0:0:
192,192,197544,1,0,0:0:0:0:
64,192,197694,1,8,0:0:0:0:
320,192,197694,1,2,0:0:0:0:
448,192,197694,1,0,0:0:0:0:
192,192,197844,1,0,0:0:0:0:
320,192,197994,1,6,0:0:0:0:
448,192,197994,1,0,0:0:0:30:Snare2.wav
64,192,198144,1,0,0:0:0:30:Snare2.wav
192,192,198294,1,0,0:0:0:30:Snare2.wav
448,192,198444,1,0,0:0:0:30:Snare2.wav
320,192,198519,1,0,0:0:0:0:
192,192,198594,1,0,0:0:0:40:Snare2.wav
64,192,198744,1,0,0:0:0:40:Snare2.wav
448,192,198894,1,0,0:0:0:45:Snare2.wav
320,192,199044,1,0,0:0:0:45:Snare2.wav
64,192,199194,1,2,0:0:0:0:
192,192,199194,1,4,0:0:0:0:
448,192,199194,1,0,0:0:0:0:
320,192,199344,1,0,0:0:0:0:
192,192,199419,1,0,0:0:0:0:
64,192,199494,1,8,0:0:0:0:
320,192,199494,1,0,0:0:0:0:
448,192,199494,1,0,0:0:0:0:
64,192,199644,1,2,0:0:0:0:
192,192,199644,1,0,0:0:0:0:
320,192,199794,1,0,0:0:0:0:
64,192,199944,1,2,0:0:0:0:
448,192,199944,1,0,0:0:0:0:
192,192,200094,1,8,0:0:0:0:
320,192,200094,1,2,0:0:0:0:
448,192,200094,1,0,0:0:0:0:
64,192,200244,1,0,0:0:0:0:
192,192,200394,1,2,0:0:0:0:
320,192,200394,1,0,0:0:0:0:
448,192,200544,1,0,0:0:0:0:
64,192,200694,1,8,0:0:0:0:
192,192,200694,1,0,0:0:0:0:
320,192,200694,1,0,0:0:0:0:
64,192,200844,1,2,0:0:0:0:
448,192,200844,1,0,0:0:0:0:
192,192,200919,1,0,0:0:0:0:
320,192,200994,1,0,0:0:0:0:
64,192,201144,1,2,0:0:0:0:
192,192,201144,1,0,0:0:0:0:
64,192,201294,1,8,0:0:0:0:
320,192,201294,1,2,0:0:0:0:
448,192,201294,1,0,0:0:0:0:
192,192,201444,1,0,0:0:0:0:
320,192,201594,1,2,0:0:0:0:
448,192,201594,1,0,0:0:0:0:
64,192,201744,1,0,0:0:0:0:
192,192,201819,1,0,0:0:0:0:
64,192,201894,1,8,0:0:0:0:
320,192,201894,1,0,0:0:0:0:
448,192,201894,1,0,0:0:0:0:
192,192,202044,1,2,0:0:0:0:
448,192,202044,1,0,0:0:0:0:
320,192,202194,1,0,0:0:0:0:
64,192,202344,1,2,0:0:0:0:
192,192,202344,1,0,0:0:0:0:
64,192,202494,1,8,0:0:0:0:
320,192,202494,1,2,0:0:0:0:
448,192,202494,1,0,0:0:0:0:
192,192,202644,1,0,0:0:0:0:
64,192,202794,1,2,0:0:0:0:
448,192,202794,1,0,0:0:0:0:
320,192,202944,1,0,0:0:0:0:
64,192,203094,1,8,0:0:0:0:
192,192,203094,1,0,0:0:0:0:
448,192,203094,1,0,0:0:0:0:
320,192,203244,1,2,0:0:0:0:
448,192,203244,1,0,0:0:0:0:
192,192,203319,1,0,0:0:0:0:
64,192,203394,1,0,0:0:0:0:
320,192,203544,1,2,0:0:0:0:
448,192,203544,1,0,0:0:0:0:
64,192,203694,1,8,0:0:0:0:
192,192,203694,1,2,0:0:0:0:
320,192,203694,1,0,0:0:0:0:
192,192,203844,1,0,0:0:0:0:
64,192,203994,1,2,0:0:0:0:
320,192,203994,1,4,0:0:0:0:
448,192,203994,1,0,0:0:0:0:
192,192,204144,1,0,0:0:0:0:
320,192,204219,1,0,0:0:0:0:
64,192,204294,1,8,0:0:0:0:
192,192,204294,1,0,0:0:0:0:
448,192,204294,1,0,0:0:0:0:
320,192,204444,1,2,0:0:0:0:
448,192,204444,1,0,0:0:0:0:
192,192,204594,1,0,0:0:0:0:
64,192,204744,1,2,0:0:0:0:
448,192,204744,1,0,0:0:0:0:
64,192,204894,1,8,0:0:0:0:
192,192,204894,1,2,0:0:0:0:
320,192,204894,1,0,0:0:0:0:
448,192,205044,1,0,0:0:0:0:
64,192,205194,1,2,0:0:0:0:
192,192,205194,1,4,0:0:0:0:
320,192,205194,1,0,0:0:0:0:
448,192,205344,1,0,0:0:0:0:
64,192,205494,1,8,0:0:0:0:
192,192,205494,1,0,0:0:0:0:
320,192,205494,1,0,0:0:0:0:
64,192,205644,1,2,0:0:0:0:
448,192,205644,1,0,0:0:0:0:
192,192,205719,1,0,0:0:0:0:
320,192,205794,1,0,0:0:0:0:
64,192,205944,1,2,0:0:0:0:
192,192,205944,1,0,0:0:0:0:
64,192,206094,1,8,0:0:0:0:
320,192,206094,1,2,0:0:0:0:
448,192,206094,1,0,0:0:0:0:
192,192,206244,1,0,0:0:0:0:
64,192,206394,1,2,0:0:0:0:
320,192,206394,1,4,0:0:0:0:
448,192,206394,1,0,0:0:0:0:
192,192,206544,1,0,0:0:0:0:
320,192,206619,1,0,0:0:0:0:
64,192,206694,1,8,0:0:0:0:
192,192,206694,1,0,0:0:0:0:
448,192,206694,1,0,0:0:0:0:
64,192,206844,1,2,0:0:0:0:
320,192,206844,1,0,0:0:0:0:
192,192,206994,1,2,0:0:0:0:
320,192,206994,1,4,0:0:0:0:
448,192,206994,1,0,0:0:0:0:
192,192,207144,1,0,0:0:0:0:
64,192,207294,1,8,0:0:0:0:
320,192,207294,1,0,0:0:0:0:
448,192,207294,1,0,0:0:0:0:
64,192,207444,1,2,0:0:0:0:
192,192,207444,1,0,0:0:0:0:
192,192,207594,1,2,0:0:0:0:
320,192,207594,1,4,0:0:0:0:
448,192,207594,1,0,0:0:0:0:
64,192,207744,1,2,0:0:0:0:
448,192,207744,1,0,0:0:0:0:
192,192,207894,1,2,0:0:0:0:
320,192,207894,1,0,0:0:0:0:
64,192,208044,1,2,0:0:0:0:
192,192,208044,1,0,0:0:0:0:
320,192,208194,1,2,0:0:0:0:
448,192,208194,1,4,0:0:0:0:
64,192,208269,1,2,0:0:0:0:
192,192,208269,1,0,0:0:0:0:
320,192,208344,1,2,0:0:0:0:
448,192,208344,1,0,0:0:0:0:
64,192,208419,1,2,0:0:0:0:
192,192,208419,1,0,0:0:0:0:
448,192,208494,1,6,0:0:0:0:
320,192,208531,1,2,0:0:0:0:
192,192,208569,1,2,0:0:0:0:
64,192,208606,1,2,0:0:0:0:
320,192,208644,1,2,0:0:0:0:
448,192,208644,1,0,0:0:0:0:
192,192,208719,1,2,0:0:0:0:
64,192,208794,1,2,0:0:0:0:
320,192,208794,1,4,0:0:0:0:
448,192,208794,1,0,0:0:0:0:
192,192,208944,1,0,0:0:0:0:
64,192,209094,1,8,0:0:0:0:
320,192,209094,1,0,0:0:0:0:
448,192,209094,1,0,0:0:0:0:
192,192,209244,1,2,0:0:0:0:
448,192,209244,1,0,0:0:0:0:
320,192,209394,1,0,0:0:0:0:
64,192,209544,1,2,0:0:0:0:
192,192,209544,1,0,0:0:0:0:
192,192,209694,1,8,0:0:0:0:
320,192,209694,1,2,0:0:0:0:
448,192,209694,1,0,0:0:0:0:
448,192,209844,1,0,0:0:0:0:
64,192,209994,1,2,0:0:0:0:
320,192,209994,1,0,0:0:0:0:
320,192,210144,1,0,0:0:0:0:
64,192,210294,1,8,0:0:0:0:
192,192,210294,1,0,0:0:0:0:
448,192,210294,1,0,0:0:0:0:
192,192,210444,1,2,0:0:0:0:
320,192,210444,1,0,0:0:0:0:
448,192,210594,1,0,0:0:0:0:
64,192,210744,1,2,0:0:0:0:
192,192,210744,1,0,0:0:0:0:
192,192,210894,1,8,0:0:0:0:
320,192,210894,1,2,0:0:0:0:
448,192,210894,1,0,0:0:0:0:
320,192,211044,1,0,0:0:0:0:
64,192,211194,1,2,0:0:0:0:
192,192,211194,1,0,0:0:0:0:
192,192,211344,1,0,0:0:0:0:
64,192,211494,1,8,0:0:0:0:
320,192,211494,1,0,0:0:0:0:
448,192,211494,1,0,0:0:0:0:
192,192,211644,1,2,0:0:0:0:
448,192,211644,1,0,0:0:0:0:
64,192,211794,1,0,0:0:0:0:
320,192,211944,1,2,0:0:0:0:
448,192,211944,1,0,0:0:0:0:
64,192,212094,1,8,0:0:0:0:
192,192,212094,1,2,0:0:0:0:
448,192,212094,1,0,0:0:0:0:
64,192,212244,1,0,0:0:0:0:
192,192,212394,1,2,0:0:0:0:
320,192,212394,1,0,0:0:0:0:
192,192,212544,1,0,0:0:0:0:
64,192,212694,1,8,0:0:0:0:
320,192,212694,1,0,0:0:0:0:
448,192,212694,1,0,0:0:0:0:
192,192,212844,1,2,0:0:0:0:
320,192,212844,1,0,0:0:0:0:
64,192,212994,1,0,0:0:0:0:
320,192,213144,1,2,0:0:0:0:
448,192,213144,1,0,0:0:0:0:
64,192,213294,1,8,0:0:0:0:
192,192,213294,1,2,0:0:0:0:
320,192,213294,1,0,0:0:0:0:
192,192,213444,1,0,0:0:0:0:
320,192,213594,1,2,0:0:0:0:
448,192,213594,1,4,0:0:0:0:
320,192,213744,1,0,0:0:0:0:
64,192,213894,1,8,0:0:0:0:
192,192,213894,1,0,0:0:0:0:
448,192,213894,1,0,0:0:0:0:
64,192,214044,1,2,0:0:0:0:
320,192,214044,1,0,0:0:0:0:
448,192,214194,1,0,0:0:0:0:
64,192,214344,1,2,0:0:0:0:
192,192,214344,1,0,0:0:0:0:
64,192,214494,1,8,0:0:0:0:
320,192,214494,1,2,0:0:0:0:
448,192,214494,1,0,0:0:0:0:
448,192,214644,1,0,0:0:0:0:
64,192,214794,1,2,0:0:0:0:
320,192,214794,1,4,0:0:0:0:
192,192,214794,1,0,0:0:0:0:
320,192,214944,1,0,0:0:0:0:
64,192,215094,1,8,0:0:0:0:
192,192,215094,1,0,0:0:0:0:
448,192,215094,1,0,0:0:0:0:
192,192,215244,1,2,0:0:0:0:
320,192,215244,1,0,0:0:0:0:
448,192,215394,1,0,0:0:0:0:
64,192,215544,1,2,0:0:0:0:
192,192,215544,1,0,0:0:0:0:
192,192,215694,1,8,0:0:0:0:
320,192,215694,1,2,0:0:0:0:
448,192,215694,1,0,0:0:0:0:
320,192,215844,1,0,0:0:0:0:
64,192,215994,1,2,0:0:0:0:
192,192,215994,1,4,0:0:0:0:
448,192,215994,1,0,0:0:0:0:
192,192,216144,1,0,0:0:0:0:
64,192,216294,1,8,0:0:0:0:
320,192,216294,1,0,0:0:0:0:
448,192,216294,1,0,0:0:0:0:
192,192,216444,1,2,0:0:0:0:
448,192,216444,1,0,0:0:0:0:
64,192,216594,1,2,0:0:0:0:
192,192,216594,1,4,0:0:0:0:
320,192,216594,1,0,0:0:0:0:
320,192,216744,1,0,0:0:0:0:
64,192,216894,1,8,0:0:0:0:
192,192,216894,1,0,0:0:0:0:
448,192,216894,1,0,0:0:0:0:
64,192,217044,1,2,0:0:0:0:
320,192,217044,1,0,0:0:0:0:
192,192,217194,1,2,0:0:0:0:
320,192,217194,1,4,0:0:0:0:
448,192,217194,1,0,0:0:0:35:Snare2.wav
64,192,217344,1,0,0:0:0:35:Snare2.wav
448,192,217344,1,0,0:0:0:0:
320,192,217494,1,0,0:0:0:0:
192,192,217569,1,0,0:0:0:0:
64,192,217644,1,2,0:0:0:0:
448,192,217644,1,0,0:0:0:35:Snare2.wav
320,192,217794,1,0,0:0:0:35:Snare2.wav
64,192,217944,1,2,0:0:0:0:
192,192,217944,1,0,0:0:0:0:
448,192,218094,1,0,0:0:0:35:Snare2.wav
320,192,218169,1,0,0:0:0:35:Snare2.wav
192,192,218244,1,0,0:0:0:35:Snare2.wav
64,192,218394,128,2,225594:0:0:0:0:
320,192,218394,128,0,225594:0:0:0:0:
448,192,218394,128,0,225594:0:0:0:0:
