osu file format v14

[General]
AudioFilename: audio.mp3
AudioLeadIn: 0
PreviewTime: 64776
Countdown: 0
SampleSet: Normal
StackLeniency: 0.7
Mode: 1
LetterboxInBreaks: 0
WidescreenStoryboard: 1

[Editor]
Bookmarks: 130605
DistanceSpacing: 1.1
BeatDivisor: 4
GridSize: 32
TimelineZoom: 2.6

[Metadata]
Title:Oh Oh Oh Sexy Vampire (feat. Fright Ranger) (S3RL vs. JUSTiNB Remix)
TitleUnicode:Oh Oh Oh Sexy Vampire (feat. Fright Ranger) (S3RL vs. JUSTiNB Remix)
Artist:Disko Warp
ArtistUnicode:Disko Warp
Creator:QEpicAce
Version:vampiric oni
Source:
Tags:
BeatmapID:2217673
BeatmapSetID:1058891

[Difficulty]
HPDrainRate:6
CircleSize:3
OverallDifficulty:6
ApproachRate:8
SliderMultiplier:1.4
SliderTickRate:1

[Events]
//Background and Video events
0,0,"serl bg.jpg",0,0
//Break Periods
//Storyboard Layer 0 (Background)
//Storyboard Layer 1 (Fail)
//Storyboard Layer 2 (Pass)
//Storyboard Layer 3 (Foreground)
//Storyboard Layer 4 (Overlay)
//Storyboard Sound Samples

[TimingPoints]
1348,342.857142857143,4,1,0,100,1,0
65805,-100,4,1,0,100,0,1
108319,-100,4,1,0,100,0,0
131633,-100,4,1,0,100,0,1
174148,-100,4,1,0,100,0,0

[HitObjects]
256,192,10948,5,0,0:0:0:0:
288,160,11290,1,0,0:0:0:0:
256,192,11633,1,8,0:0:0:0:
288,160,11805,1,0,0:0:0:0:
256,192,11976,1,0,0:0:0:0:
256,192,12319,1,0,0:0:0:0:
288,160,12662,1,0,0:0:0:0:
256,192,13005,1,8,0:0:0:0:
288,160,13176,1,0,0:0:0:0:
256,192,13348,1,0,0:0:0:0:
256,192,13690,1,8,0:0:0:0:
288,160,14033,1,8,0:0:0:0:
256,192,14376,1,0,0:0:0:0:
288,160,14548,1,8,0:0:0:0:
288,224,14719,1,0,0:0:0:0:
256,192,15062,1,8,0:0:0:0:
256,192,15405,1,8,0:0:0:0:
256,192,15748,1,8,0:0:0:0:
288,224,15919,1,0,0:0:0:0:
288,224,16090,1,0,0:0:0:0:
288,224,16262,1,0,0:0:0:0:
256,192,16433,1,8,0:0:0:0:
288,160,16776,1,0,0:0:0:0:
284,167,16948,1,0,0:0:0:0:
256,192,17119,1,8,0:0:0:0:
288,160,17462,1,0,0:0:0:0:
256,160,17633,1,8,0:0:0:0:
256,192,17805,1,0,0:0:0:0:
288,160,18148,1,0,0:0:0:0:
256,192,18490,1,8,0:0:0:0:
288,160,18662,1,0,0:0:0:0:
256,160,18833,1,0,0:0:0:0:
256,160,19005,1,0,0:0:0:0:
256,192,19176,1,8,0:0:0:0:
288,160,19519,1,8,0:0:0:0:
278,125,19690,1,0,0:0:0:0:
256,192,19862,1,0,0:0:0:0:
256,160,20205,1,0,0:0:0:0:
288,160,20376,1,8,0:0:0:0:
256,192,20548,1,8,0:0:0:0:
256,192,20890,1,8,0:0:0:0:
256,192,21233,1,8,0:0:0:0:
256,160,21405,1,0,0:0:0:0:
256,160,21576,1,0,0:0:0:0:
256,160,21748,1,0,0:0:0:0:
256,192,21919,5,8,0:0:0:0:
256,192,22262,1,0,0:0:0:0:
318,103,22433,1,0,0:0:0:0:
256,192,22605,1,8,0:0:0:0:
192,160,22948,1,0,0:0:0:0:
256,192,23119,1,0,0:0:0:0:
256,192,23290,1,0,0:0:0:0:
256,192,23633,1,0,0:0:0:0:
256,192,23805,1,0,0:0:0:0:
256,192,23976,1,8,0:0:0:0:
256,192,24148,1,0,0:0:0:0:
256,192,24319,1,0,0:0:0:0:
256,192,24490,1,0,0:0:0:0:
256,192,24662,1,8,0:0:0:0:
256,192,25005,1,0,0:0:0:0:
267,130,25176,1,0,0:0:0:0:
256,192,25348,1,0,0:0:0:0:
256,192,25519,1,8,0:0:0:0:
274,184,25690,1,0,0:0:0:0:
256,192,25862,1,0,0:0:0:0:
256,192,26033,1,8,0:0:0:0:
256,192,26376,1,8,0:0:0:0:
256,192,26719,1,8,0:0:0:0:
256,192,26890,1,0,0:0:0:0:
256,192,27062,1,0,0:0:0:0:
256,192,27233,1,0,0:0:0:0:
256,192,27405,1,8,0:0:0:0:
256,192,27748,1,0,0:0:0:0:
256,192,28090,1,8,0:0:0:0:
288,160,28262,1,0,0:0:0:0:
224,192,28433,1,0,0:0:0:0:
256,192,28776,1,0,0:0:0:0:
256,192,29119,1,0,0:0:0:0:
256,192,29462,1,8,0:0:0:0:
288,160,29633,1,0,0:0:0:0:
256,192,29805,1,0,0:0:0:0:
256,192,30148,1,8,0:0:0:0:
256,192,30490,1,0,0:0:0:0:
256,192,30833,1,0,0:0:0:0:
288,160,31005,1,8,0:0:0:0:
256,192,31519,5,0,0:0:0:0:
256,192,31690,1,0,0:0:0:0:
274,184,31776,1,0,0:0:0:0:
256,192,31862,1,8,0:0:0:0:
224,192,31948,1,0,0:0:0:0:
224,192,32033,1,0,0:0:0:0:
256,192,32205,1,8,0:0:0:0:
274,184,32290,1,0,0:0:0:0:
224,192,32376,1,0,0:0:0:0:
256,192,32462,1,0,0:0:0:0:
224,192,32548,1,8,0:0:0:0:
288,160,32719,1,0,0:0:0:0:
256,192,32890,5,12,0:0:0:0:
288,160,33233,1,0,0:0:0:0:
224,160,33405,1,0,0:0:0:0:
256,160,33490,1,0,0:0:0:0:
288,160,33576,1,8,0:0:0:0:
256,160,33662,1,0,0:0:0:0:
256,160,33748,1,0,0:0:0:0:
276,124,33833,1,0,0:0:0:0:
288,160,33919,1,8,0:0:0:0:
276,124,34005,1,0,0:0:0:0:
256,160,34090,1,8,0:0:0:0:
256,192,34262,1,12,0:0:0:0:
288,128,34605,1,8,0:0:0:0:
288,128,34776,1,0,0:0:0:0:
320,160,34862,1,0,0:0:0:0:
288,128,34948,1,8,0:0:0:0:
256,160,35033,1,8,0:0:0:0:
256,160,35119,1,8,0:0:0:0:
268,172,35205,1,0,0:0:0:0:
288,128,35290,1,0,0:0:0:0:
256,160,35376,1,8,0:0:0:0:
256,160,35462,1,0,0:0:0:0:
256,192,35633,1,12,0:0:0:0:
256,192,35976,1,8,0:0:0:0:
256,160,36148,1,0,0:0:0:0:
288,160,36233,1,0,0:0:0:0:
256,192,36319,1,0,0:0:0:0:
224,160,36405,1,8,0:0:0:0:
224,160,36490,1,0,0:0:0:0:
272,132,36576,1,0,0:0:0:0:
256,192,36662,1,8,0:0:0:0:
256,160,36833,1,0,0:0:0:0:
256,192,37005,1,8,0:0:0:0:
256,160,37176,1,8,0:0:0:0:
256,192,37348,1,0,0:0:0:0:
256,160,37519,1,0,0:0:0:0:
256,192,37690,1,8,0:0:0:0:
256,160,37862,1,0,0:0:0:0:
256,192,38033,1,8,0:0:0:0:
249,181,38205,1,0,0:0:0:0:
256,192,38376,1,12,0:0:0:0:
224,192,38890,1,0,0:0:0:0:
192,288,38976,1,0,0:0:0:0:
192,288,39062,1,0,0:0:0:0:
320,192,39148,1,0,0:0:0:0:
192,288,39233,1,8,0:0:0:0:
252,179,39319,1,0,0:0:0:0:
192,288,39405,1,8,0:0:0:0:
252,179,39490,1,0,0:0:0:0:
256,160,39576,1,0,0:0:0:0:
256,192,39748,1,12,0:0:0:0:
192,288,40090,1,0,0:0:0:0:
320,192,40262,1,0,0:0:0:0:
320,192,40348,1,0,0:0:0:0:
192,288,40433,1,8,0:0:0:0:
224,160,40519,1,8,0:0:0:0:
192,288,40605,1,8,0:0:0:0:
252,179,40690,1,0,0:0:0:0:
192,288,40776,1,8,0:0:0:0:
252,179,40862,1,0,0:0:0:0:
224,160,40948,1,0,0:0:0:0:
256,192,41119,1,12,0:0:0:0:
192,288,41633,1,0,0:0:0:0:
192,288,41805,1,0,0:0:0:0:
192,224,41890,1,0,0:0:0:0:
192,288,41976,1,8,0:0:0:0:
320,192,42062,1,0,0:0:0:0:
192,288,42148,1,0,0:0:0:0:
246,176,42233,1,8,0:0:0:0:
192,192,42319,1,0,0:0:0:0:
256,192,42490,5,8,0:0:0:0:
192,192,42662,1,8,0:0:0:0:
256,192,42833,1,0,0:0:0:0:
224,192,43005,1,0,0:0:0:0:
256,192,43176,1,8,0:0:0:0:
256,192,43690,1,0,0:0:0:0:
256,224,43862,5,8,0:0:0:0:
256,192,44033,1,0,0:0:0:0:
276,170,44119,1,0,0:0:0:0:
256,192,44205,1,0,0:0:0:0:
256,192,44376,1,8,0:0:0:0:
256,192,44548,1,0,0:0:0:0:
256,192,44890,1,0,0:0:0:0:
256,192,45062,1,0,0:0:0:0:
276,170,45148,1,0,0:0:0:0:
256,192,45233,1,8,0:0:0:0:
256,192,45405,1,0,0:0:0:0:
224,160,45576,1,0,0:0:0:0:
288,160,45662,1,0,0:0:0:0:
256,192,45748,1,8,0:0:0:0:
320,192,45833,1,0,0:0:0:0:
256,192,45919,1,8,0:0:0:0:
263,154,46262,1,0,0:0:0:0:
256,192,46605,1,0,0:0:0:0:
256,192,46776,1,0,0:0:0:0:
256,192,46948,1,8,0:0:0:0:
263,154,47033,1,0,0:0:0:0:
256,192,47119,1,0,0:0:0:0:
256,192,47290,1,0,0:0:0:0:
256,192,47462,1,8,0:0:0:0:
256,192,47633,1,0,0:0:0:0:
263,154,47805,1,0,0:0:0:0:
263,154,47890,1,0,0:0:0:0:
256,192,47976,1,8,0:0:0:0:
256,192,48662,1,0,0:0:0:0:
240,174,49005,5,0,0:0:0:0:
256,192,49176,1,0,0:0:0:0:
256,192,49348,1,8,0:0:0:0:
256,192,49690,1,8,0:0:0:0:
256,192,50033,1,0,0:0:0:0:
256,192,50376,1,0,0:0:0:0:
256,192,50719,1,8,0:0:0:0:
256,192,50890,1,0,0:0:0:0:
241,173,51062,1,8,0:0:0:0:
256,192,51233,1,0,0:0:0:0:
240,173,51405,1,0,0:0:0:0:
240,174,51490,1,8,0:0:0:0:
256,192,51576,1,0,0:0:0:0:
213,159,51662,1,0,0:0:0:0:
240,174,51748,1,8,0:0:0:0:
256,192,52090,1,8,0:0:0:0:
256,192,52262,1,8,0:0:0:0:
256,192,52433,1,8,0:0:0:0:
256,192,52605,1,0,0:0:0:0:
256,192,52776,1,8,0:0:0:0:
288,160,52862,1,0,0:0:0:0:
288,192,52948,1,0,0:0:0:0:
256,192,53119,1,8,0:0:0:0:
288,192,53290,1,8,0:0:0:0:
256,160,53376,1,0,0:0:0:0:
256,192,53462,1,0,0:0:0:0:
256,160,53805,1,0,0:0:0:0:
256,160,54148,1,0,0:0:0:0:
256,160,54490,1,0,0:0:0:0:
256,192,54833,1,8,0:0:0:0:
256,192,55005,1,8,0:0:0:0:
256,192,55176,1,0,0:0:0:0:
277,183,55348,1,0,0:0:0:0:
256,192,55519,1,0,0:0:0:0:
256,160,55605,1,0,0:0:0:0:
256,192,55690,1,8,0:0:0:0:
256,160,55862,1,0,0:0:0:0:
256,192,56033,1,0,0:0:0:0:
256,192,56205,1,8,0:0:0:0:
256,160,56290,1,0,0:0:0:0:
256,192,56376,1,0,0:0:0:0:
270,175,56548,1,0,0:0:0:0:
256,192,56719,1,0,0:0:0:0:
256,192,56805,1,0,0:0:0:0:
256,192,56890,1,8,0:0:0:0:
270,175,57062,1,0,0:0:0:0:
256,160,57233,1,0,0:0:0:0:
268,175,57319,1,0,0:0:0:0:
268,175,57405,1,0,0:0:0:0:
256,192,57576,1,8,0:0:0:0:
267,175,57748,1,0,0:0:0:0:
256,192,57919,1,0,0:0:0:0:
256,160,58090,1,8,0:0:0:0:
256,192,58262,1,0,0:0:0:0:
256,192,58433,1,8,0:0:0:0:
217,163,58519,1,0,0:0:0:0:
256,192,58605,1,8,0:0:0:0:
256,192,58690,1,0,0:0:0:0:
256,192,58776,1,8,0:0:0:0:
267,175,58948,1,0,0:0:0:0:
256,192,59119,1,0,0:0:0:0:
267,175,59290,1,0,0:0:0:0:
256,192,59462,1,8,0:0:0:0:
256,192,59633,1,8,0:0:0:0:
224,160,59805,1,0,0:0:0:0:
256,160,59976,1,0,0:0:0:0:
224,160,60148,1,8,0:0:0:0:
224,160,60319,1,0,0:0:0:0:
217,164,60405,1,0,0:0:0:0:
192,160,60490,1,8,0:0:0:0:
267,175,60662,1,0,0:0:0:0:
192,160,60833,1,0,0:0:0:0:
217,164,60919,1,0,0:0:0:0:
217,164,61005,1,0,0:0:0:0:
192,96,61176,1,8,0:0:0:0:
267,175,61348,1,0,0:0:0:0:
192,160,61519,1,8,0:0:0:0:
224,160,61690,1,0,0:0:0:0:
192,96,61862,1,0,0:0:0:0:
221,159,62033,1,0,0:0:0:0:
192,128,62205,1,8,0:0:0:0:
192,128,62376,1,0,0:0:0:0:
256,160,62548,1,0,0:0:0:0:
256,192,62719,1,8,0:0:0:0:
192,128,62890,1,0,0:0:0:0:
256,192,63062,5,8,0:0:0:0:
224,192,63233,1,0,0:0:0:0:
260,186,63319,1,0,0:0:0:0:
256,192,63405,1,8,0:0:0:0:
267,181,63576,1,0,0:0:0:0:
267,176,63919,1,0,0:0:0:0:
267,176,64262,1,0,0:0:0:0:
256,192,64776,5,8,0:0:0:0:
256,192,65119,1,8,0:0:0:0:
256,192,65462,1,8,0:0:0:0:
224,192,65805,1,0,0:0:0:0:
256,160,65976,1,0,0:0:0:0:
256,192,66148,1,8,0:0:0:0:
222,159,66233,1,0,0:0:0:0:
256,160,66319,1,0,0:0:0:0:
224,192,66490,1,8,0:0:0:0:
256,192,66576,1,0,0:0:0:0:
256,160,66662,1,8,0:0:0:0:
256,192,66833,1,8,0:0:0:0:
224,192,67005,1,0,0:0:0:0:
256,192,67176,1,8,0:0:0:0:
256,192,67262,1,0,0:0:0:0:
256,160,67348,1,0,0:0:0:0:
263,169,67433,1,8,0:0:0:0:
256,192,67519,1,8,0:0:0:0:
222,159,67605,1,0,0:0:0:0:
256,192,67690,1,8,0:0:0:0:
256,192,68033,1,0,0:0:0:0:
256,160,68205,1,8,0:0:0:0:
224,160,68548,1,8,0:0:0:0:
256,192,68890,1,0,0:0:0:0:
256,192,69233,1,8,0:0:0:0:
232,178,69319,1,0,0:0:0:0:
256,192,69405,1,0,0:0:0:0:
256,192,69748,1,0,0:0:0:0:
230,178,69919,1,0,0:0:0:0:
256,160,70090,1,0,0:0:0:0:
227,165,70176,1,8,0:0:0:0:
224,160,70262,1,0,0:0:0:0:
224,160,70348,1,0,0:0:0:0:
256,192,70433,1,8,0:0:0:0:
224,160,70776,1,8,0:0:0:0:
224,160,70862,1,8,0:0:0:0:
256,192,70948,1,8,0:0:0:0:
256,192,71290,1,0,0:0:0:0:
224,160,71462,1,0,0:0:0:0:
256,160,71633,1,8,0:0:0:0:
224,160,71805,1,0,0:0:0:0:
256,192,71976,1,0,0:0:0:0:
224,160,72062,1,8,0:0:0:0:
224,160,72148,1,0,0:0:0:0:
256,160,72319,1,0,0:0:0:0:
288,192,72490,1,0,0:0:0:0:
256,192,72662,1,8,0:0:0:0:
256,160,72833,1,8,0:0:0:0:
224,160,73005,1,0,0:0:0:0:
256,160,73090,1,0,0:0:0:0:
256,192,73176,1,8,0:0:0:0:
256,192,73262,1,8,0:0:0:0:
256,192,73348,1,0,0:0:0:0:
231,161,73433,1,0,0:0:0:0:
256,192,73519,1,8,0:0:0:0:
256,160,73690,1,0,0:0:0:0:
256,192,73862,1,8,0:0:0:0:
256,160,74205,1,0,0:0:0:0:
256,192,74376,1,8,0:0:0:0:
256,128,74548,1,0,0:0:0:0:
256,192,74719,1,0,0:0:0:0:
256,128,74805,1,0,0:0:0:0:
256,128,74890,1,8,0:0:0:0:
256,192,75233,1,8,0:0:0:0:
256,192,75576,1,0,0:0:0:0:
256,128,75919,1,0,0:0:0:0:
256,192,76090,5,8,0:0:0:0:
256,128,76262,1,0,0:0:0:0:
256,192,76348,1,0,0:0:0:0:
256,192,76433,1,8,0:0:0:0:
256,192,76776,5,0,0:0:0:0:
256,192,76948,1,8,0:0:0:0:
256,192,77119,1,0,0:0:0:0:
256,192,77290,1,0,0:0:0:0:
227,158,77376,1,0,0:0:0:0:
256,192,77462,1,8,0:0:0:0:
256,192,77548,1,8,0:0:0:0:
256,192,77633,1,8,0:0:0:0:
256,192,77976,1,8,0:0:0:0:
256,192,78148,1,8,0:0:0:0:
227,158,78233,1,0,0:0:0:0:
256,192,78319,1,0,0:0:0:0:
227,158,78405,1,8,0:0:0:0:
256,192,78490,1,0,0:0:0:0:
227,158,78576,1,0,0:0:0:0:
256,192,78662,1,8,0:0:0:0:
224,192,78833,1,0,0:0:0:0:
256,192,79005,1,8,0:0:0:0:
256,192,79176,1,8,0:0:0:0:
256,192,79519,1,0,0:0:0:0:
256,192,79862,1,0,0:0:0:0:
256,192,80205,1,8,0:0:0:0:
224,192,80376,1,0,0:0:0:0:
224,192,80719,1,0,0:0:0:0:
256,192,80890,1,8,0:0:0:0:
224,192,81062,1,0,0:0:0:0:
256,192,81233,1,8,0:0:0:0:
243,188,81319,1,0,0:0:0:0:
256,192,81405,1,0,0:0:0:0:
224,192,81490,1,0,0:0:0:0:
224,192,81576,1,8,0:0:0:0:
224,192,81748,1,8,0:0:0:0:
224,192,81833,1,8,0:0:0:0:
224,192,81919,1,8,0:0:0:0:
224,192,82262,1,0,0:0:0:0:
224,192,82433,1,0,0:0:0:0:
224,192,82605,1,8,0:0:0:0:
224,192,82776,1,0,0:0:0:0:
256,192,82948,1,0,0:0:0:0:
224,192,83033,1,0,0:0:0:0:
224,192,83119,1,0,0:0:0:0:
256,192,83462,1,8,0:0:0:0:
256,192,83633,1,0,0:0:0:0:
256,192,83805,1,0,0:0:0:0:
256,192,83976,1,8,0:0:0:0:
256,192,84148,1,0,0:0:0:0:
224,192,84233,1,0,0:0:0:0:
224,192,84319,1,0,0:0:0:0:
256,192,84405,1,0,0:0:0:0:
256,192,84490,1,8,0:0:0:0:
241,161,84662,1,0,0:0:0:0:
160,128,84833,1,8,0:0:0:0:
261,165,85005,1,0,0:0:0:0:
261,165,85090,1,0,0:0:0:0:
261,165,85176,1,8,0:0:0:0:
261,165,85262,1,0,0:0:0:0:
261,165,85348,1,0,0:0:0:0:
261,165,85433,1,0,0:0:0:0:
261,165,85519,1,8,0:0:0:0:
261,165,85605,1,0,0:0:0:0:
261,165,85690,1,8,0:0:0:0:
261,165,85776,1,8,0:0:0:0:
261,165,85862,1,0,0:0:0:0:
261,165,85948,1,0,0:0:0:0:
256,192,86033,5,8,0:0:0:0:
256,192,86205,1,0,0:0:0:0:
256,192,86376,1,8,0:0:0:0:
256,192,86548,1,0,0:0:0:0:
256,192,86719,1,8,0:0:0:0:
256,192,86890,1,8,0:0:0:0:
256,192,87062,1,0,0:0:0:0:
256,192,87233,1,8,0:0:0:0:
256,192,87576,1,8,0:0:0:0:
256,192,87748,5,0,0:0:0:0:
256,192,88090,1,0,0:0:0:0:
243,178,88262,1,0,0:0:0:0:
256,192,88433,1,8,0:0:0:0:
243,178,88519,1,0,0:0:0:0:
224,192,88605,1,0,0:0:0:0:
224,192,88948,1,0,0:0:0:0:
256,160,89033,1,0,0:0:0:0:
256,192,89119,1,8,0:0:0:0:
256,192,89462,1,8,0:0:0:0:
256,192,89805,1,8,0:0:0:0:
243,178,89890,1,0,0:0:0:0:
224,192,89976,1,0,0:0:0:0:
242,177,90062,1,0,0:0:0:0:
224,192,90148,1,8,0:0:0:0:
256,192,90490,1,0,0:0:0:0:
256,192,90833,1,0,0:0:0:0:
243,178,90919,1,0,0:0:0:0:
224,160,91005,1,8,0:0:0:0:
224,160,91090,1,8,0:0:0:0:
256,192,91176,1,8,0:0:0:0:
243,178,91262,1,0,0:0:0:0:
224,192,91348,1,0,0:0:0:0:
224,192,91690,1,0,0:0:0:0:
256,192,91862,1,8,0:0:0:0:
256,192,92205,1,8,0:0:0:0:
256,192,92548,1,8,0:0:0:0:
256,160,92633,1,0,0:0:0:0:
224,192,92719,1,0,0:0:0:0:
256,160,92805,1,0,0:0:0:0:
224,192,92890,1,8,0:0:0:0:
256,192,93233,1,0,0:0:0:0:
256,192,93576,1,0,0:0:0:0:
242,177,93748,1,0,0:0:0:0:
256,192,93919,1,0,0:0:0:0:
224,192,94090,1,8,0:0:0:0:
224,192,94433,1,0,0:0:0:0:
256,160,94519,1,0,0:0:0:0:
256,192,94605,1,8,0:0:0:0:
256,192,94948,1,8,0:0:0:0:
256,192,95290,1,8,0:0:0:0:
242,177,95376,1,0,0:0:0:0:
224,192,95462,1,0,0:0:0:0:
242,177,95548,1,0,0:0:0:0:
224,192,95633,1,8,0:0:0:0:
256,192,95976,1,8,0:0:0:0:
256,192,96319,1,8,0:0:0:0:
242,177,96490,1,0,0:0:0:0:
256,192,96662,1,8,0:0:0:0:
256,160,96833,1,0,0:0:0:0:
256,128,97176,1,0,0:0:0:0:
224,160,97262,1,0,0:0:0:0:
256,192,97348,1,0,0:0:0:0:
256,128,97690,1,0,0:0:0:0:
256,192,98033,1,8,0:0:0:0:
250,168,98119,1,0,0:0:0:0:
256,128,98205,1,0,0:0:0:0:
224,160,98376,1,0,0:0:0:0:
256,128,98548,1,0,0:0:0:0:
256,192,98719,5,8,0:0:0:0:
256,192,99062,1,0,0:0:0:0:
256,192,99233,1,0,0:0:0:0:
256,192,99405,1,0,0:0:0:0:
256,192,99490,1,0,0:0:0:0:
256,192,99576,1,8,0:0:0:0:
256,192,99919,1,0,0:0:0:0:
256,192,100090,1,8,0:0:0:0:
256,192,100433,1,8,0:0:0:0:
256,192,100776,1,8,0:0:0:0:
256,192,100862,1,0,0:0:0:0:
256,192,100948,1,0,0:0:0:0:
256,192,101033,1,0,0:0:0:0:
256,192,101119,1,8,0:0:0:0:
256,192,101462,1,0,0:0:0:0:
256,192,101805,1,8,0:0:0:0:
254,135,101976,1,0,0:0:0:0:
256,192,102148,1,8,0:0:0:0:
224,160,102233,1,0,0:0:0:0:
256,192,102319,1,0,0:0:0:0:
256,192,102662,1,0,0:0:0:0:
254,135,102748,1,0,0:0:0:0:
256,192,102833,1,8,0:0:0:0:
256,192,103176,1,0,0:0:0:0:
256,160,103348,1,0,0:0:0:0:
256,192,103519,1,8,0:0:0:0:
256,160,103605,1,0,0:0:0:0:
256,192,103690,1,0,0:0:0:0:
254,135,103776,1,0,0:0:0:0:
256,192,103862,1,8,0:0:0:0:
256,192,104205,1,0,0:0:0:0:
256,192,104548,1,0,0:0:0:0:
254,135,104719,1,0,0:0:0:0:
231,146,104805,1,0,0:0:0:0:
256,192,104890,1,0,0:0:0:0:
256,192,105062,1,8,0:0:0:0:
256,192,105405,1,0,0:0:0:0:
224,160,105490,1,0,0:0:0:0:
256,192,105576,1,8,0:0:0:0:
256,192,105919,1,8,0:0:0:0:
256,192,106262,1,8,0:0:0:0:
231,146,106348,1,0,0:0:0:0:
256,192,106433,1,0,0:0:0:0:
231,146,106519,1,0,0:0:0:0:
256,192,106605,1,8,0:0:0:0:
256,192,106948,1,0,0:0:0:0:
230,183,107033,1,0,0:0:0:0:
230,183,107119,1,8,0:0:0:0:
230,183,107205,1,8,0:0:0:0:
230,183,107290,1,0,0:0:0:0:
230,183,107376,1,0,0:0:0:0:
230,183,107462,1,8,0:0:0:0:
230,183,107548,1,8,0:0:0:0:
230,183,107633,1,0,0:0:0:0:
230,183,107719,1,8,0:0:0:0:
230,183,107805,1,0,0:0:0:0:
230,183,107890,1,8,0:0:0:0:
230,183,107976,1,0,0:0:0:0:
230,183,108062,1,8,0:0:0:0:
230,183,108148,1,0,0:0:0:0:
230,183,108233,1,0,0:0:0:0:
256,192,108319,1,8,0:0:0:0:
256,160,108490,1,0,0:0:0:0:
256,160,108662,1,8,0:0:0:0:
256,160,108833,1,0,0:0:0:0:
256,160,109005,1,0,0:0:0:0:
256,160,109176,1,8,0:0:0:0:
256,160,109433,1,0,0:0:0:0:
256,192,109519,1,8,0:0:0:0:
256,192,109690,1,0,0:0:0:0:
224,160,109862,1,0,0:0:0:0:
256,192,110033,1,0,0:0:0:0:
256,160,110119,1,8,0:0:0:0:
256,160,110205,1,0,0:0:0:0:
230,147,110290,1,0,0:0:0:0:
256,160,110376,1,8,0:0:0:0:
256,192,110719,1,0,0:0:0:0:
224,160,110890,1,0,0:0:0:0:
256,192,111062,1,8,0:0:0:0:
256,192,111233,1,0,0:0:0:0:
256,192,111576,1,8,0:0:0:0:
256,192,112262,1,0,0:0:0:0:
256,192,112433,1,0,0:0:0:0:
256,192,112605,1,8,0:0:0:0:
256,192,112776,1,0,0:0:0:0:
224,160,112862,1,0,0:0:0:0:
256,160,112948,1,0,0:0:0:0:
256,175,113119,1,0,0:0:0:0:
256,160,113290,1,8,0:0:0:0:
256,192,113633,1,8,0:0:0:0:
256,192,115005,1,0,0:0:0:0:
256,192,115176,1,0,0:0:0:0:
256,192,115348,1,0,0:0:0:0:
224,160,115519,1,8,0:0:0:0:
256,192,115862,1,8,0:0:0:0:
266,173,115948,1,0,0:0:0:0:
256,192,116033,1,0,0:0:0:0:
256,192,116119,1,0,0:0:0:0:
256,192,116205,1,8,0:0:0:0:
224,160,116376,1,8,0:0:0:0:
264,173,116462,1,0,0:0:0:0:
256,160,116548,1,8,0:0:0:0:
256,192,116719,1,0,0:0:0:0:
256,160,117062,1,8,0:0:0:0:
256,160,117919,5,8,0:0:0:0:
224,160,118090,1,0,0:0:0:0:
224,160,118262,1,8,0:0:0:0:
256,160,118433,1,0,0:0:0:0:
264,173,118519,1,0,0:0:0:0:
256,160,118605,5,8,0:0:0:0:
256,192,118690,1,0,0:0:0:0:
224,160,118776,1,0,0:0:0:0:
224,160,118948,1,0,0:0:0:0:
264,173,119033,1,0,0:0:0:0:
256,160,119119,5,8,0:0:0:0:
256,160,119633,1,0,0:0:0:0:
256,160,119976,1,8,0:0:0:0:
256,160,120319,1,0,0:0:0:0:
256,192,120662,5,0,0:0:0:0:
224,160,121005,1,0,0:0:0:0:
224,160,121176,1,0,0:0:0:0:
256,192,121348,1,8,0:0:0:0:
224,160,121519,1,0,0:0:0:0:
224,160,121690,1,0,0:0:0:0:
256,192,121776,1,0,0:0:0:0:
256,192,121862,1,0,0:0:0:0:
264,173,121948,1,0,0:0:0:0:
264,173,122033,1,8,0:0:0:0:
256,192,122205,1,0,0:0:0:0:
264,173,122290,1,0,0:0:0:0:
264,173,122376,1,8,0:0:0:0:
256,192,122548,1,8,0:0:0:0:
256,160,122633,1,0,0:0:0:0:
224,160,122719,1,8,0:0:0:0:
224,160,123062,1,0,0:0:0:0:
256,192,123405,1,8,0:0:0:0:
224,160,123576,1,0,0:0:0:0:
224,160,123748,1,0,0:0:0:0:
256,192,123919,1,8,0:0:0:0:
229,190,124090,1,0,0:0:0:0:
224,160,124262,1,0,0:0:0:0:
230,185,124348,1,0,0:0:0:0:
224,160,124433,1,0,0:0:0:0:
256,160,124519,1,0,0:0:0:0:
256,192,124605,1,8,0:0:0:0:
224,160,124776,1,0,0:0:0:0:
256,160,124862,1,0,0:0:0:0:
256,192,124948,1,8,0:0:0:0:
244,153,125119,1,0,0:0:0:0:
244,153,125205,1,0,0:0:0:0:
256,192,125290,1,8,0:0:0:0:
224,160,125633,1,0,0:0:0:0:
288,192,125976,1,8,0:0:0:0:
256,192,126148,1,0,0:0:0:0:
240,148,126319,1,0,0:0:0:0:
288,192,126490,1,0,0:0:0:0:
256,192,126662,1,8,0:0:0:0:
256,192,126833,1,0,0:0:0:0:
256,192,127005,1,8,0:0:0:0:
256,192,127348,1,8,0:0:0:0:
237,147,127519,1,0,0:0:0:0:
256,192,127690,1,0,0:0:0:0:
237,147,127862,1,8,0:0:0:0:
237,147,128033,1,0,0:0:0:0:
256,192,128205,1,0,0:0:0:0:
288,192,128376,1,8,0:0:0:0:
288,192,128548,1,0,0:0:0:0:
256,192,128719,1,8,0:0:0:0:
288,192,128890,1,0,0:0:0:0:
284,174,128976,1,0,0:0:0:0:
288,192,129062,1,8,0:0:0:0:
284,174,129148,1,8,0:0:0:0:
284,174,129233,1,0,0:0:0:0:
284,174,129319,1,0,0:0:0:0:
284,174,129405,1,0,0:0:0:0:
284,174,129490,1,0,0:0:0:0:
284,174,129576,1,8,0:0:0:0:
284,174,129662,1,8,0:0:0:0:
284,174,129748,1,0,0:0:0:0:
284,174,129833,1,0,0:0:0:0:
284,174,129919,1,8,0:0:0:0:
284,174,130005,1,8,0:0:0:0:
282,175,130090,1,8,0:0:0:0:
284,174,130176,1,8,0:0:0:0:
256,192,130605,5,8,0:0:0:0:
256,192,130948,1,8,0:0:0:0:
256,192,131291,1,8,0:0:0:0:
224,192,131633,1,0,0:0:0:0:
256,160,131804,1,0,0:0:0:0:
256,192,131976,1,8,0:0:0:0:
222,159,132061,1,0,0:0:0:0:
256,160,132147,1,0,0:0:0:0:
224,192,132318,1,8,0:0:0:0:
256,192,132404,1,0,0:0:0:0:
256,160,132490,1,8,0:0:0:0:
256,192,132661,1,8,0:0:0:0:
224,192,132833,1,0,0:0:0:0:
256,192,133004,1,8,0:0:0:0:
256,192,133090,1,0,0:0:0:0:
256,160,133176,1,0,0:0:0:0:
263,169,133261,1,8,0:0:0:0:
256,192,133347,1,8,0:0:0:0:
222,159,133433,1,0,0:0:0:0:
256,192,133518,1,8,0:0:0:0:
256,192,133861,1,0,0:0:0:0:
256,160,134033,1,8,0:0:0:0:
224,160,134376,1,8,0:0:0:0:
256,192,134718,1,0,0:0:0:0:
256,192,135061,1,8,0:0:0:0:
232,178,135147,1,0,0:0:0:0:
256,192,135233,1,0,0:0:0:0:
256,192,135576,1,0,0:0:0:0:
230,178,135747,1,0,0:0:0:0:
256,160,135918,1,0,0:0:0:0:
227,165,136004,1,8,0:0:0:0:
224,160,136090,1,0,0:0:0:0:
224,160,136176,1,0,0:0:0:0:
256,192,136261,1,8,0:0:0:0:
224,160,136604,1,8,0:0:0:0:
224,160,136690,1,8,0:0:0:0:
256,192,136776,1,8,0:0:0:0:
256,192,137118,1,0,0:0:0:0:
224,160,137290,1,0,0:0:0:0:
256,160,137461,1,8,0:0:0:0:
224,160,137633,1,0,0:0:0:0:
256,192,137804,1,0,0:0:0:0:
224,160,137890,1,8,0:0:0:0:
224,160,137976,1,0,0:0:0:0:
256,160,138147,1,0,0:0:0:0:
288,192,138318,1,0,0:0:0:0:
256,192,138490,1,8,0:0:0:0:
256,160,138661,1,8,0:0:0:0:
224,160,138833,1,0,0:0:0:0:
256,160,138918,1,0,0:0:0:0:
256,192,139004,1,8,0:0:0:0:
256,192,139090,1,8,0:0:0:0:
256,192,139176,1,0,0:0:0:0:
231,161,139261,1,0,0:0:0:0:
256,192,139347,1,8,0:0:0:0:
256,160,139518,1,0,0:0:0:0:
256,192,139690,1,8,0:0:0:0:
256,160,140033,1,0,0:0:0:0:
256,192,140204,1,8,0:0:0:0:
256,128,140376,1,0,0:0:0:0:
256,192,140547,1,0,0:0:0:0:
256,128,140633,1,0,0:0:0:0:
256,128,140718,1,8,0:0:0:0:
256,192,141061,1,8,0:0:0:0:
256,192,141404,1,0,0:0:0:0:
256,128,141747,1,0,0:0:0:0:
256,192,141918,5,8,0:0:0:0:
256,128,142090,1,0,0:0:0:0:
256,192,142176,1,0,0:0:0:0:
256,192,142261,1,8,0:0:0:0:
256,192,142604,5,0,0:0:0:0:
256,192,142776,1,8,0:0:0:0:
256,192,142947,1,0,0:0:0:0:
256,192,143118,1,0,0:0:0:0:
227,158,143204,1,0,0:0:0:0:
256,192,143290,1,8,0:0:0:0:
256,192,143376,1,8,0:0:0:0:
256,192,143461,1,8,0:0:0:0:
256,192,143804,1,8,0:0:0:0:
256,192,143976,1,8,0:0:0:0:
227,158,144061,1,0,0:0:0:0:
256,192,144147,1,0,0:0:0:0:
227,158,144233,1,8,0:0:0:0:
256,192,144318,1,0,0:0:0:0:
227,158,144404,1,0,0:0:0:0:
256,192,144490,1,8,0:0:0:0:
224,192,144661,1,0,0:0:0:0:
256,192,144833,1,8,0:0:0:0:
256,192,145004,1,8,0:0:0:0:
256,192,145347,1,0,0:0:0:0:
256,192,145690,1,0,0:0:0:0:
256,192,146033,1,8,0:0:0:0:
224,192,146204,1,0,0:0:0:0:
224,192,146547,1,0,0:0:0:0:
256,192,146718,1,8,0:0:0:0:
224,192,146890,1,0,0:0:0:0:
256,192,147061,1,8,0:0:0:0:
243,188,147147,1,0,0:0:0:0:
256,192,147233,1,0,0:0:0:0:
224,192,147318,1,0,0:0:0:0:
224,192,147404,1,8,0:0:0:0:
224,192,147576,1,8,0:0:0:0:
224,192,147661,1,8,0:0:0:0:
224,192,147747,1,8,0:0:0:0:
224,192,148090,1,0,0:0:0:0:
224,192,148261,1,0,0:0:0:0:
224,192,148433,1,8,0:0:0:0:
224,192,148604,1,0,0:0:0:0:
256,192,148776,1,0,0:0:0:0:
224,192,148861,1,0,0:0:0:0:
224,192,148947,1,0,0:0:0:0:
256,192,149290,1,8,0:0:0:0:
256,192,149461,1,0,0:0:0:0:
256,192,149633,1,0,0:0:0:0:
256,192,149804,1,8,0:0:0:0:
256,192,149976,1,0,0:0:0:0:
224,192,150061,1,0,0:0:0:0:
224,192,150147,1,0,0:0:0:0:
256,192,150233,1,0,0:0:0:0:
256,192,150318,1,8,0:0:0:0:
241,161,150490,1,0,0:0:0:0:
160,128,150661,1,8,0:0:0:0:
261,165,150833,1,0,0:0:0:0:
261,165,150918,1,0,0:0:0:0:
261,165,151004,1,8,0:0:0:0:
261,165,151090,1,0,0:0:0:0:
261,165,151176,1,0,0:0:0:0:
261,165,151261,1,0,0:0:0:0:
261,165,151347,1,8,0:0:0:0:
261,165,151433,1,0,0:0:0:0:
261,165,151518,1,8,0:0:0:0:
261,165,151604,1,8,0:0:0:0:
261,165,151690,1,0,0:0:0:0:
261,165,151776,1,0,0:0:0:0:
256,192,151861,5,8,0:0:0:0:
256,192,152033,1,0,0:0:0:0:
256,192,152204,1,8,0:0:0:0:
256,192,152376,1,0,0:0:0:0:
256,192,152547,1,8,0:0:0:0:
256,192,152718,1,8,0:0:0:0:
256,192,152890,1,0,0:0:0:0:
256,192,153061,1,8,0:0:0:0:
256,192,153404,1,8,0:0:0:0:
256,192,153576,5,0,0:0:0:0:
256,192,153918,1,0,0:0:0:0:
243,178,154090,1,0,0:0:0:0:
256,192,154261,1,8,0:0:0:0:
243,178,154347,1,0,0:0:0:0:
224,192,154433,1,0,0:0:0:0:
224,192,154776,1,0,0:0:0:0:
256,160,154861,1,0,0:0:0:0:
256,192,154947,1,8,0:0:0:0:
256,192,155290,1,8,0:0:0:0:
256,192,155633,1,8,0:0:0:0:
243,178,155718,1,0,0:0:0:0:
224,192,155804,1,0,0:0:0:0:
242,177,155890,1,0,0:0:0:0:
224,192,155976,1,8,0:0:0:0:
256,192,156318,1,0,0:0:0:0:
256,192,156661,1,0,0:0:0:0:
243,178,156747,1,0,0:0:0:0:
224,160,156833,1,8,0:0:0:0:
224,160,156918,1,8,0:0:0:0:
256,192,157004,1,8,0:0:0:0:
243,178,157090,1,0,0:0:0:0:
224,192,157176,1,0,0:0:0:0:
224,192,157518,1,0,0:0:0:0:
256,192,157690,1,8,0:0:0:0:
256,192,158033,1,8,0:0:0:0:
256,192,158376,1,8,0:0:0:0:
256,160,158461,1,0,0:0:0:0:
224,192,158547,1,0,0:0:0:0:
256,160,158633,1,0,0:0:0:0:
224,192,158718,1,8,0:0:0:0:
256,192,159061,1,0,0:0:0:0:
256,192,159404,1,0,0:0:0:0:
242,177,159576,1,0,0:0:0:0:
256,192,159747,1,0,0:0:0:0:
224,192,159918,1,8,0:0:0:0:
224,192,160261,1,0,0:0:0:0:
256,160,160347,1,0,0:0:0:0:
256,192,160433,1,8,0:0:0:0:
256,192,160776,1,8,0:0:0:0:
256,192,161118,1,8,0:0:0:0:
242,177,161204,1,0,0:0:0:0:
224,192,161290,1,0,0:0:0:0:
242,177,161376,1,0,0:0:0:0:
224,192,161461,1,8,0:0:0:0:
256,192,161804,1,8,0:0:0:0:
256,192,162147,1,8,0:0:0:0:
242,177,162318,1,0,0:0:0:0:
256,192,162490,1,8,0:0:0:0:
256,160,162661,1,0,0:0:0:0:
256,128,163004,1,0,0:0:0:0:
224,160,163090,1,0,0:0:0:0:
256,192,163176,1,0,0:0:0:0:
256,128,163518,1,0,0:0:0:0:
256,192,163861,1,8,0:0:0:0:
250,168,163947,1,0,0:0:0:0:
256,128,164033,1,0,0:0:0:0:
224,160,164204,1,0,0:0:0:0:
256,128,164376,1,0,0:0:0:0:
256,192,164547,5,8,0:0:0:0:
256,192,164890,1,0,0:0:0:0:
256,192,165061,1,0,0:0:0:0:
256,192,165233,1,0,0:0:0:0:
256,192,165318,1,0,0:0:0:0:
256,192,165404,1,8,0:0:0:0:
256,192,165747,1,0,0:0:0:0:
256,192,165918,1,8,0:0:0:0:
256,192,166261,1,8,0:0:0:0:
256,192,166604,1,8,0:0:0:0:
256,192,166690,1,0,0:0:0:0:
256,192,166776,1,0,0:0:0:0:
256,192,166861,1,0,0:0:0:0:
256,192,166947,1,8,0:0:0:0:
256,192,167290,1,0,0:0:0:0:
256,192,167633,1,8,0:0:0:0:
254,135,167804,1,0,0:0:0:0:
256,192,167976,1,8,0:0:0:0:
224,160,168061,1,0,0:0:0:0:
256,192,168147,1,0,0:0:0:0:
256,192,168490,1,0,0:0:0:0:
254,135,168576,1,0,0:0:0:0:
256,192,168661,1,8,0:0:0:0:
256,192,169004,1,0,0:0:0:0:
256,160,169176,1,0,0:0:0:0:
256,192,169347,1,8,0:0:0:0:
256,160,169433,1,0,0:0:0:0:
256,192,169518,1,0,0:0:0:0:
254,135,169604,1,0,0:0:0:0:
256,192,169690,1,8,0:0:0:0:
256,192,170033,1,0,0:0:0:0:
256,192,170376,1,0,0:0:0:0:
254,135,170547,1,0,0:0:0:0:
231,146,170633,1,0,0:0:0:0:
256,192,170718,1,0,0:0:0:0:
256,192,170890,1,8,0:0:0:0:
256,192,171233,1,0,0:0:0:0:
224,160,171318,1,0,0:0:0:0:
256,192,171404,1,8,0:0:0:0:
256,192,171747,1,8,0:0:0:0:
256,192,172090,1,8,0:0:0:0:
231,146,172176,1,0,0:0:0:0:
256,192,172261,1,0,0:0:0:0:
231,146,172347,1,0,0:0:0:0:
256,192,172433,1,8,0:0:0:0:
256,192,172776,1,0,0:0:0:0:
230,183,172861,1,0,0:0:0:0:
230,183,172947,1,8,0:0:0:0:
230,183,173033,1,8,0:0:0:0:
230,183,173118,1,0,0:0:0:0:
230,183,173204,1,0,0:0:0:0:
230,183,173290,1,8,0:0:0:0:
230,183,173376,1,8,0:0:0:0:
230,183,173461,5,0,0:0:0:0:
230,183,173547,1,8,0:0:0:0:
230,183,173633,1,0,0:0:0:0:
230,183,173718,1,8,0:0:0:0:
230,183,173804,1,0,0:0:0:0:
230,183,173890,1,8,0:0:0:0:
230,183,173976,1,0,0:0:0:0:
230,183,174061,1,0,0:0:0:0:
256,192,174147,1,8,0:0:0:0:
256,192,174490,5,0,0:0:0:0:
256,192,174833,1,0,0:0:0:0:
256,192,175005,1,0,0:0:0:0:
256,192,175176,1,8,0:0:0:0:
256,192,175519,5,0,0:0:0:0:
256,192,175862,1,8,0:0:0:0:
288,192,176033,1,0,0:0:0:0:
256,192,176205,1,0,0:0:0:0:
288,192,176548,1,0,0:0:0:0:
256,192,176890,1,0,0:0:0:0:
256,192,177233,1,8,0:0:0:0:
288,192,177405,1,0,0:0:0:0:
256,192,177576,1,8,0:0:0:0:
274,158,177748,1,0,0:0:0:0:
267,163,177833,1,0,0:0:0:0:
288,192,177919,1,8,0:0:0:0:
267,163,178090,1,0,0:0:0:0:
266,163,178176,1,0,0:0:0:0:
256,192,178262,1,8,0:0:0:0:
256,192,178605,1,0,0:0:0:0:
253,164,178776,1,0,0:0:0:0:
256,192,178948,1,8,0:0:0:0:
288,192,179290,1,8,0:0:0:0:
253,164,179376,1,0,0:0:0:0:
276,139,179462,1,0,0:0:0:0:
276,139,179548,1,0,0:0:0:0:
256,192,179633,1,0,0:0:0:0:
256,192,179976,1,8,0:0:0:0:
288,192,180062,1,8,0:0:0:0:
288,192,180148,1,8,0:0:0:0:
256,192,180319,1,0,0:0:0:0:
288,192,180405,1,8,0:0:0:0:
288,192,180490,1,0,0:0:0:0:
288,192,180662,1,8,0:0:0:0:
288,192,180748,1,0,0:0:0:0:
288,192,180833,1,8,0:0:0:0:
276,139,180919,1,0,0:0:0:0:
256,192,181005,1,8,0:0:0:0:
256,192,181348,1,8,0:0:0:0:
257,163,181519,1,0,0:0:0:0:
256,192,181690,1,8,0:0:0:0:
288,192,182033,1,0,0:0:0:0:
257,163,182205,1,8,0:0:0:0:
256,192,182376,1,0,0:0:0:0:
256,192,182719,1,0,0:0:0:0:
257,163,182890,1,0,0:0:0:0:
256,192,183062,1,0,0:0:0:0:
256,160,183233,1,8,0:0:0:0:
288,160,183405,1,8,0:0:0:0:
288,160,183576,1,0,0:0:0:0:
256,192,183748,1,8,0:0:0:0:
256,192,184090,1,0,0:0:0:0:
256,160,184262,1,8,0:0:0:0:
256,192,184433,1,0,0:0:0:0:
288,160,184776,1,0,0:0:0:0:
256,164,184948,1,8,0:0:0:0:
256,192,185119,5,0,0:0:0:0:
256,192,185462,1,8,0:0:0:0:
256,164,185633,1,0,0:0:0:0:
256,164,185719,1,0,0:0:0:0:
256,192,185805,1,0,0:0:0:0:
288,192,186148,1,8,0:0:0:0:
288,192,186319,1,8,0:0:0:0:
253,164,186405,1,0,0:0:0:0:
256,192,186490,5,0,0:0:0:0:
256,192,186833,1,0,0:0:0:0:
256,192,187176,1,8,0:0:0:0:
256,192,187348,1,0,0:0:0:0:
276,139,187433,1,0,0:0:0:0:
224,167,187519,1,0,0:0:0:0:
224,167,187690,1,8,0:0:0:0:
256,192,187862,1,0,0:0:0:0:
256,192,188205,1,0,0:0:0:0:
224,167,188376,1,0,0:0:0:0:
256,192,188548,1,8,0:0:0:0:
256,192,188719,1,0,0:0:0:0:
288,160,188890,1,8,0:0:0:0:
276,139,188976,1,8,0:0:0:0:
288,192,189062,1,8,0:0:0:0:
256,192,189233,1,0,0:0:0:0:
256,192,189576,1,8,0:0:0:0:
226,167,189748,1,0,0:0:0:0:
256,192,189919,1,8,0:0:0:0:
271,166,190005,1,0,0:0:0:0:
256,192,190090,1,0,0:0:0:0:
258,186,190433,1,0,0:0:0:0:
261,167,190519,1,0,0:0:0:0:
256,192,190605,1,8,0:0:0:0:
256,192,190948,1,8,0:0:0:0:
226,167,191033,1,0,0:0:0:0:
226,167,191119,1,0,0:0:0:0:
226,167,191205,1,0,0:0:0:0:
256,192,191290,1,8,0:0:0:0:
226,167,191633,1,0,0:0:0:0:
256,192,191719,1,0,0:0:0:0:
256,192,191805,1,8,0:0:0:0:
256,192,191890,1,0,0:0:0:0:
256,192,191976,1,8,0:0:0:0:
256,192,192319,1,0,0:0:0:0:
256,192,192662,1,8,0:0:0:0:
256,192,192833,1,0,0:0:0:0:
256,192,193005,1,0,0:0:0:0:
256,192,193348,1,0,0:0:0:0:
256,192,193690,1,0,0:0:0:0:
224,160,194033,1,8,0:0:0:0:
256,192,194205,1,0,0:0:0:0:
235,173,194376,1,0,0:0:0:0:
224,160,194719,1,8,0:0:0:0:
232,152,194890,1,0,0:0:0:0:
256,192,195062,1,8,0:0:0:0:
221,153,195233,1,0,0:0:0:0:
256,192,195405,1,0,0:0:0:0:
256,192,195576,1,8,0:0:0:0:
224,160,196090,1,8,0:0:0:0:
213,145,196262,1,0,0:0:0:0:
224,160,196433,1,8,0:0:0:0:
213,145,196605,1,0,0:0:0:0:
224,160,196776,1,8,0:0:0:0:
215,150,196862,1,0,0:0:0:0:
215,150,196948,1,0,0:0:0:0:
215,150,197033,1,0,0:0:0:0:
288,192,197119,1,8,0:0:0:0:
288,192,197205,1,0,0:0:0:0:
288,192,197290,1,8,0:0:0:0:
224,160,197462,1,12,0:0:0:0:
