osu file format v14

[General]
AudioFilename: audio.mp3
AudioLeadIn: 0
PreviewTime: -1
Countdown: 1
SampleSet: Soft
StackLeniency: 0.7
Mode: 0
LetterboxInBreaks: 0
WidescreenStoryboard: 0

[Editor]
DistanceSpacing: 1.2
BeatDivisor: 4
GridSize: 4
TimelineZoom: 4.899999

[Metadata]
Title:FLAME
TitleUnicode:FLAME
Artist:Dish
ArtistUnicode:Dish
Creator:ApoloDT
Version:hard apolo
Source:naruto
Tags:anime
BeatmapID:1852161
BeatmapSetID:885981

[Difficulty]
HPDrainRate:5
CircleSize:4
OverallDifficulty:5
ApproachRate:8
SliderMultiplier:1.5
SliderTickRate:1

[Events]
//Background and Video events
0,0,"1.jpg",0,0
//Break Periods
//Storyboard Layer 0 (Background)
//Storyboard Layer 1 (Fail)
//Storyboard Layer 2 (Pass)
//Storyboard Layer 3 (Foreground)
//Storyboard Sound Samples

[TimingPoints]
600,312.5,4,2,0,80,1,0
600,-200,4,2,0,80,0,0
1850,-76.9230769230769,4,2,0,80,0,0
2475,-66.6666666666667,4,2,0,80,0,0
3256,-100,4,2,0,80,0,0
13256,-58.8235294117647,4,2,0,80,0,0
14662,-100,4,2,0,80,0,0

[Colours]
Combo1 : 255,128,0
Combo2 : 0,128,128
Combo3 : 0,255,255
Combo4 : 128,255,0
Combo5 : 255,192,0
Combo6 : 128,128,192
Combo7 : 64,0,64

[HitObjects]
196,222,600,6,0,P|235:221|275:206,1,75
365,205,1068,2,0,P|401:189|420:159,1,75
487,101,1537,2,0,L|454:72,1,37.5
392,33,1850,6,0,B|319:51|319:51|209:29,2,146.249993305207
381,127,2475,6,0,B|410:231|319:232|368:342|368:342|316:364|229:335|229:335|259:301|259:301|282:348,1,450.000017166138
186,261,3256,2,0,P|182:221|191:183,1,75
127,122,3568,2,0,P|141:74|160:44,1,75
237,99,4037,2,0,P|300:119|388:88,1,150
414,3,4506,1,0,0:0:0:0:
471,71,4662,2,0,P|482:110|471:155,1,75
410,205,4975,2,0,P|404:239|438:299,1,75
480,339,5287,2,0,P|448:364|325:342,1,150
294,274,5756,1,0,0:0:0:0:
330,192,5912,2,0,P|345:152|332:94,1,75
292,45,6225,1,0,0:0:0:0:
202,37,6381,1,0,0:0:0:0:
135,97,6537,2,0,P|127:158|139:197,2,75
71,33,7006,1,0,0:0:0:0:
8,97,7162,1,0,0:0:0:0:
15,186,7318,1,0,0:0:0:0:
15,186,7396,1,0,0:0:0:0:
15,186,7475,2,0,P|24:232|13:275,1,75
0,353,7787,2,0,P|48:375|157:333,1,150
201,287,8256,2,0,L|306:279,1,75
348,227,8568,2,0,P|359:178|348:142,1,75
402,78,8881,1,0,0:0:0:0:
477,127,9037,2,0,P|489:178|479:221,1,75
428,269,9350,1,0,0:0:0:0:
428,269,9506,1,0,0:0:0:0:
350,314,9662,2,0,P|303:323|260:312,1,75
207,260,9975,1,0,0:0:0:0:
234,174,10131,1,0,0:0:0:0:
205,88,10287,2,0,P|125:68|47:90,1,150
18,162,10756,1,0,0:0:0:0:
86,220,10912,2,0,B|145:234|145:234|257:218,1,150
295,155,11381,1,0,0:0:0:0:
266,69,11537,1,0,0:0:0:0:
333,9,11693,1,0,0:0:0:0:
333,9,11771,1,0,0:0:0:0:
333,9,11850,2,0,L|411:23,1,75
456,96,12162,2,0,P|440:180|452:264,2,150
283,147,13100,1,0,0:0:0:0:
283,147,13256,2,0,P|194:167|162:132,1,127.50000243187
28,88,13568,2,0,P|138:89|146:107,1,127.50000243187
156,239,13881,2,0,B|223:279|223:279|231:349|295:364|330:317|310:254|310:254|364:243|364:243|434:262,1,382.500007295609
243,142,14662,6,0,P|287:127|322:127,1,75
390,176,14975,2,0,P|442:179|489:159,1,75
473,83,15287,1,0,0:0:0:0:
473,83,15600,2,0,P|440:56|399:50,1,75
327,86,15912,1,0,0:0:0:0:
245,47,16068,2,0,L|162:33,1,75
113,104,16381,2,0,L|178:163,1,75
174,244,16693,2,0,P|190:287|290:287,1,150
351,235,17162,1,0,0:0:0:0:
351,235,17318,1,0,0:0:0:0:
420,292,17475,1,0,0:0:0:0:
420,292,17631,1,0,0:0:0:0:
470,217,17787,2,0,P|494:170|463:69,1,150
472,79,18412,1,0,0:0:0:0:
386,51,18568,2,0,L|305:59,1,75
225,30,18881,2,0,P|162:61|71:10,1,150
16,87,19350,1,0,0:0:0:0:
16,87,19662,2,0,P|8:146|23:179,1,75
76,222,19975,2,0,P|84:260|74:309,1,75
17,361,20287,2,0,P|61:377|162:344,1,150
245,196,20912,1,0,0:0:0:0:
245,196,21068,2,0,L|222:121,1,75
309,96,21381,2,0,L|340:183,1,75
416,202,21693,2,0,P|453:172|408:67,1,150
357,36,22162,1,0,0:0:0:0:
270,10,22318,2,0,L|171:26,1,75
129,83,22631,1,0,0:0:0:0:
174,160,22787,2,0,P|179:216|173:248,1,75
152,272,23021,1,0,0:0:0:0:
119,303,23100,2,0,P|81:317|40:311,1,75
4,234,23412,1,0,0:0:0:0:
40,151,23568,2,0,P|46:113|36:71,1,75
116,31,23881,2,0,P|157:39|195:29,1,75
259,87,24193,1,0,0:0:0:0:
259,87,24271,1,0,0:0:0:0:
259,87,24350,1,0,0:0:0:0:
422,162,24662,2,0,P|430:204|432:252,1,75
363,294,24975,1,0,0:0:0:0:
363,294,25131,1,0,0:0:0:0:
281,332,25287,2,0,P|245:337|188:323,1,75
146,264,25600,2,0,P|138:226|169:175,1,75
223,141,25912,1,0,0:0:0:0:
177,63,26068,2,0,P|118:49|86:49,1,75
70,132,26381,2,0,P|93:161|99:143,1,75
188,149,26693,1,0,0:0:0:0:
206,237,26850,2,0,P|230:279|259:302,1,75
325,344,27162,1,0,0:0:0:0:
389,281,27318,2,0,L|468:278,1,75
497,194,27631,1,0,0:0:0:0:
459,112,27787,2,0,P|453:78|457:35,1,75
366,24,28100,2,0,L|265:4,1,75
208,40,28412,1,0,0:0:0:0:
208,40,28568,2,0,P|170:65|155:94,1,75
186,175,28881,2,0,B|202:226|202:226|196:280|196:280|214:329,1,150
210,319,29350,1,0,0:0:0:0:
378,257,29662,2,0,P|401:215|411:173,1,75
462,116,29975,1,0,0:0:0:0:
462,116,30131,1,0,0:0:0:0:
392,59,30287,2,0,P|346:51|297:54,1,75
230,26,30600,2,0,B|181:45|181:45|154:80|154:80|87:112,1,150
178,268,31225,2,0,L|271:286,2,75
314,150,31850,2,0,L|419:140,2,75
149,76,32475,2,0,L|56:56,2,75
228,237,33100,1,0,0:0:0:0:
228,237,33256,1,0,0:0:0:0:
228,237,33412,2,0,P|271:227|320:233,1,75
379,284,33725,2,0,B|416:292|416:292|459:281,2,75
297,321,34193,1,0,0:0:0:0:
210,347,34350,2,0,B|173:332|158:292|158:292|177:276|177:276|187:289|187:289|139:296|116:318|133:368|133:368|108:354|54:361|54:361|59:324|59:324|82:332|82:332|0:359|0:359|-30:311|-32:232|8:192|-6:228,1,600
50,162,35756,1,0,0:0:0:0:
132,126,35912,1,0,0:0:0:0:
56,76,36068,1,0,0:0:0:0:
50,162,36225,2,0,P|97:178|134:177,1,75
177,248,36537,2,0,P|239:253|268:243,1,75
333,212,36850,2,0,B|348:167|364:150|364:150|395:188|424:178|424:178|433:239|433:239|426:206|469:215|505:196|496:294|431:321|431:321|453:345|506:293|506:293|519:147,1,600
481,83,38256,1,0,0:0:0:0:
392,69,38412,2,0,P|340:57|313:43,1,75
224,144,38725,2,0,P|235:103|226:56,1,75
145,97,39037,2,0,P|151:56|142:11,1,75
75,153,39350,2,0,B|124:201|184:178|184:178|208:219,1,150
199,204,39975,2,0,B|257:225|303:214|303:214|254:182,1,150
266,189,40600,2,0,P|279:152|195:152,1,150
158,221,41068,1,0,0:0:0:0:
186,306,41225,2,0,P|224:337|263:344,1,75
324,296,41537,2,0,P|360:287|408:281,2,75
256,235,42006,1,0,0:0:0:0:
256,235,42162,1,0,0:0:0:0:
183,181,42318,2,0,P|145:167|100:164,1,75
53,93,42631,2,0,P|97:78|138:77,1,75
206,38,42943,2,0,P|298:56|374:34,1,150
414,140,43412,2,0,L|395:230,1,75
401,303,43725,2,0,P|351:295|323:265,1,75
316,191,44037,2,0,P|292:156|250:143,1,75
114,53,44350,2,0,L|212:65,1,75
270,26,44662,1,0,0:0:0:0:
448,91,44975,2,0,P|408:93|350:110,1,75
319,176,45287,2,0,P|281:191|240:193,1,75
97,120,45600,2,0,L|187:138,1,75
253,99,45912,1,0,0:0:0:0:
320,266,46225,2,0,P|374:263|395:231,1,75
465,207,46537,2,0,P|444:170|383:166,1,75
266,171,46850,2,0,L|344:186,1,75
354,96,47162,2,0,L|425:52,1,75
488,112,47475,2,0,L|414:160,1,75
485,219,47787,2,0,L|418:269,1,75
352,317,48100,2,0,B|279:322|279:322|184:294,1,150
129,252,48568,1,0,0:0:0:0:
129,252,48646,1,0,0:0:0:0:
129,252,48725,2,0,L|41:266,1,75
6,167,49037,2,0,L|93:177,1,75
138,106,49350,2,0,L|58:79,1,75
132,20,49662,2,0,L|232:14,1,75
265,84,49975,2,0,P|304:97|342:100,1,75
420,66,50287,2,0,P|454:97|471:126,1,75
408,188,50600,1,0,0:0:0:0:
408,188,50756,1,0,0:0:0:0:
324,220,50912,2,0,P|303:272|304:315,1,75
229,344,51225,2,0,P|203:298|203:245,1,75
126,224,51537,2,0,B|111:174|111:174|121:123|121:123|104:60,1,150
289,72,52162,2,0,P|323:74|370:72,1,75
424,139,52475,1,0,0:0:0:0:
387,221,52631,1,0,0:0:0:0:
395,310,52787,2,0,L|430:328,2,37.5
306,329,53100,1,0,0:0:0:0:
306,329,53256,1,0,0:0:0:0:
236,272,53412,2,0,L|246:175,1,75
314,151,53725,1,0,0:0:0:0:
314,151,53803,1,0,0:0:0:0:
314,151,53881,1,0,0:0:0:0:
314,151,53959,1,0,0:0:0:0:
314,151,54037,2,0,L|310:104,2,37.5
363,225,54350,2,0,P|401:207|390:90,1,150,8|4,0:0|0:0,0:0:0:0:
