osu file format v14

[General]
AudioFilename: audio.mp3
AudioLeadIn: 0
PreviewTime: 33307
Countdown: 0
SampleSet: Normal
StackLeniency: 0.7
Mode: 0
LetterboxInBreaks: 0
WidescreenStoryboard: 0

[Editor]
DistanceSpacing: 0.8
BeatDivisor: 6
GridSize: 4
TimelineZoom: 1

[Metadata]
Title:Summer Tune
TitleUnicode:Summer Tune
Artist:Disfigure
ArtistUnicode:Disfigure
Creator:QiiXshinez
Version:Winter Song
Source:
Tags:
BeatmapID:1248199
BeatmapSetID:589732

[Difficulty]
HPDrainRate:7.1
CircleSize:5.8
OverallDifficulty:8.8
ApproachRate:9
SliderMultiplier:1.4
SliderTickRate:1

[Events]
//Background and Video events
0,0,"bg.png",0,0
//Break Periods
//Storyboard Layer 0 (Background)
//Storyboard Layer 1 (Fail)
//Storyboard Layer 2 (Pass)
//Storyboard Layer 3 (Foreground)
//Storyboard Sound Samples

[TimingPoints]
147,344.827586206897,4,1,0,100,1,0
33307,-66.6666666666667,4,1,0,100,0,1
55319,-100,4,1,0,100,0,0

[HitObjects]
126,231,147,6,2,L|178:239,1,46.6666666666667
321,130,434,2,4,L|265:98,1,46.6666666666667
138,239,721,2,8,L|187:223,1,46.6666666666667
126,147,1009,2,2,P|158:159|169:154,1,46.6666666666667
294,257,1296,2,4,B|273:264|272:264|275:228,1,46.6666666666667
413,43,1583,2,8,B|427:75|426:75|427:76|427:76|373:63,1,70
263,175,1928,2,2,B|236:187|236:187|253:159|253:159|264:152|264:152|280:165|281:164|296:152,1,93.3333333333333
49,64,2330,2,4,B|65:82|65:82|81:93|109:68,1,70
198,189,2675,2,8,B|223:189|218:189|230:184|230:183|233:183|233:182|231:176|231:176|203:153,1,70
212,182,2963,2,14,B|241:181|241:181|176:130|176:130|353:139|353:139|69:40,2,583.333333333333
342,128,5951,5,2,0:0:0:0:
141,234,6124,1,4,0:0:0:0:
344,241,6296,1,8,0:0:0:0:
141,129,6468,1,2,0:0:0:0:
297,179,6641,1,4,0:0:0:0:
116,208,6813,1,8,0:0:0:0:
299,110,6986,1,2,0:0:0:0:
221,308,7158,1,4,0:0:0:0:
371,152,7330,1,8,0:0:0:0:
152,120,7502,1,2,0:0:0:0:
357,312,7675,1,4,0:0:0:0:
144,184,7848,1,8,0:0:0:0:
352,112,8020,1,2,0:0:0:0:
110,126,8192,1,4,0:0:0:0:
118,304,8365,1,8,0:0:0:0:
416,160,8537,1,2,0:0:0:0:
305,35,8710,5,4,0:0:0:0:
364,265,8882,1,8,0:0:0:0:
96,96,9055,1,2,0:0:0:0:
234,294,9227,1,4,0:0:0:0:
402,55,9399,1,8,0:0:0:0:
106,105,9572,1,2,0:0:0:0:
362,310,9744,1,4,0:0:0:0:
118,305,9917,1,8,0:0:0:0:
332,107,10089,1,2,0:0:0:0:
128,64,10261,1,4,0:0:0:0:
312,240,10434,1,8,0:0:0:0:
112,256,10606,1,2,0:0:0:0:
376,92,10779,1,4,0:0:0:0:
191,225,10951,1,8,0:0:0:0:
416,276,11124,1,14,0:0:0:0:
147,257,11238,2,0,B|184:230|185:230|133:216|195:196|142:184,1,93.3333333333333
175,178,11583,1,0,0:0:0:0:
212,178,11698,1,0,0:0:0:0:
250,191,11813,5,0,0:0:0:0:
262,222,11928,1,0,0:0:0:0:
234,240,12043,5,0,0:0:0:0:
203,243,12158,1,0,0:0:0:0:
165,243,12273,5,0,0:0:0:0:
128,238,12388,1,0,0:0:0:0:
94,222,12445,5,0,0:0:0:0:
79,192,12503,1,0,0:0:0:0:
73,150,12618,2,0,B|108:139|108:139|82:116|82:116|110:107,2,93.3333333333333
240,168,13997,6,14,B|212:208|212:208|236:216|236:216|248:264|308:256|308:256|368:264|344:144,1,303.333333333333
188,72,15376,2,14,B|156:112|152:120|256:192|260:140|260:136|288:76|288:76|312:220|144:188,1,443.333333333333
76,44,16756,2,14,B|132:64|248:76|304:68|304:68|160:180|160:180|228:156|248:296,1,560
247,143,19514,2,14,B|238:164|238:164|282:152|282:152|286:232|263:258|367:213|404:146|404:146|342:136|218:96|218:96|166:216|193:161|197:163,2,560
72,336,22618,1,0,0:0:0:0:
332,196,22963,1,0,0:0:0:0:
104,128,23307,1,2,0:0:0:0:
92,176,23365,1,2,0:0:0:0:
102,219,23422,1,2,0:0:0:0:
119,253,23480,1,2,0:0:0:0:
143,279,23537,1,2,0:0:0:0:
179,296,23595,1,2,0:0:0:0:
269,246,23710,5,0,0:0:0:0:
216,236,23997,1,0,0:0:0:0:
283,180,24342,1,0,0:0:0:0:
127,104,24629,1,4,0:0:0:0:
157,85,24687,1,4,0:0:0:0:
188,70,24744,1,4,0:0:0:0:
216,60,24802,1,4,0:0:0:0:
251,66,24859,1,4,0:0:0:0:
284,80,24917,1,4,0:0:0:0:
304,264,25032,6,0,B|232:224|356:156,2,140
216,88,26066,1,8,0:0:0:0:
240,112,26124,1,8,0:0:0:0:
212,120,26181,1,8,0:0:0:0:
224,132,26239,1,8,0:0:0:0:
208,136,26296,1,8,0:0:0:0:
220,148,26353,1,8,0:0:0:0:
252,172,26411,1,8,0:0:0:0:
397,297,26756,1,0,0:0:0:0:
241,79,27101,5,0,0:0:0:0:
155,220,27446,1,2,0:0:0:0:
180,231,27503,1,4,0:0:0:0:
206,224,27560,1,8,0:0:0:0:
221,201,27618,1,2,0:0:0:0:
234,179,27675,1,4,0:0:0:0:
255,197,27733,1,8,0:0:0:0:
0,0,28135,5,2,0:0:0:0:
512,0,28307,1,2,0:0:0:0:
0,65,28480,1,4,0:0:0:0:
512,64,28652,1,4,0:0:0:0:
0,124,28825,1,8,0:0:0:0:
512,122,28997,1,8,0:0:0:0:
0,168,29169,1,2,0:0:0:0:
512,168,29341,1,2,0:0:0:0:
0,233,29514,1,4,0:0:0:0:
512,232,29686,1,4,0:0:0:0:
0,292,29859,1,8,0:0:0:0:
512,290,30031,1,8,0:0:0:0:
0,353,30204,1,14,0:0:0:0:
512,355,30376,1,14,0:0:0:0:
255,182,30549,1,0,0:0:0:0:
134,82,30721,5,0,0:0:0:0:
148,111,30779,1,0,0:0:0:0:
194,169,30894,1,0,0:0:0:0:
454,112,31066,1,0,0:0:0:0:
409,155,31124,1,0,0:0:0:0:
346,222,31238,1,0,0:0:0:0:
168,113,31411,1,0,0:0:0:0:
270,206,31468,1,0,0:0:0:0:
430,283,31583,1,0,0:0:0:0:
120,92,31784,5,0,0:0:0:0:
136,120,31871,1,0,0:0:0:0:
152,152,31957,1,0,0:0:0:0:
168,176,32043,1,0,0:0:0:0:
188,200,32129,1,0,0:0:0:0:
212,208,32215,1,0,0:0:0:0:
236,220,32302,1,0,0:0:0:0:
268,224,32388,1,0,0:0:0:0:
300,224,32474,1,0,0:0:0:0:
328,208,32560,1,0,0:0:0:0:
348,192,32647,1,0,0:0:0:0:
364,168,32733,1,0,0:0:0:0:
380,136,32819,1,0,0:0:0:0:
384,100,32905,1,0,0:0:0:0:
376,68,32991,1,0,0:0:0:0:
348,52,33078,1,0,0:0:0:0:
216,200,33164,1,0,0:0:0:0:
30,183,33307,5,0,0:0:0:0:
49,175,33365,1,0,0:0:0:0:
60,153,33422,1,0,0:0:0:0:
72,137,33480,1,0,0:0:0:0:
96,140,33537,1,0,0:0:0:0:
110,157,33595,1,0,0:0:0:0:
128,178,33652,1,0,0:0:0:0:
186,197,33767,6,14,B|185:169|192:168|218:226,1,70.0000026702882
356,56,33940,1,0,0:0:0:0:
120,224,34055,1,0,0:0:0:0:
424,156,34169,1,0,0:0:0:0:
184,80,34284,1,0,0:0:0:0:
288,288,34399,1,0,0:0:0:0:
312,180,34514,1,0,0:0:0:0:
