osu file format v14

[General]
AudioFilename: Disfigure - Hollah!.mp3
AudioLeadIn: 0
PreviewTime: 28596
Countdown: 0
SampleSet: Soft
StackLeniency: 0.7
Mode: 0
LetterboxInBreaks: 0
WidescreenStoryboard: 0

[Editor]
DistanceSpacing: 1
BeatDivisor: 4
GridSize: 16
TimelineZoom: 1

[Metadata]
Title:Hollah!
TitleUnicode:Hollah!
Artist:Disfigure
ArtistUnicode:Disfigure
Creator:xChorse
Version:Easy
Source:
Tags:NCS NoCopyrightSounds Release Melodic Dubstep EDM Speed Up Version Ver.
BeatmapID:1398613
BeatmapSetID:304527

[Difficulty]
HPDrainRate:2
CircleSize:2.5
OverallDifficulty:2
ApproachRate:3
SliderMultiplier:0.8
SliderTickRate:1

[Events]
//Background and Video events
0,0,"bg.jpg",0,0
//Break Periods
2,81761,93363
//Storyboard Layer 0 (Background)
//Storyboard Layer 1 (Fail)
//Storyboard Layer 2 (Pass)
//Storyboard Layer 3 (Foreground)
//Storyboard Sound Samples

[TimingPoints]
15355,413.7931,4,2,0,100,1,0
28596,-100,4,2,0,100,0,1
40182,-100,4,2,0,100,0,0
108044,-100,4,2,0,100,0,1
119630,-100,4,2,0,100,0,0
121286,-100,4,2,0,100,0,1
132872,-100,4,2,0,100,0,0
134527,-100,4,2,0,100,0,1
146113,-100,4,2,0,100,0,0

[HitObjects]
62,148,15354,6,0,B|113:127|156:147|156:147|238:183|300:142,1,240
350,90,17010,2,0,P|441:109|362:188,1,240
294,194,18665,6,0,B|238:220|184:194|184:194|147:257|69:256,1,240
31,192,20320,2,0,B|59:131|39:39|39:39|86:57|133:45,1,240
199,67,21975,6,0,B|250:88|293:68|293:68|375:32|437:73,1,240
474,135,23630,2,0,B|495:188|477:248|477:248|422:207|346:226,1,240
281,243,25286,5,0,0:0:0:0:
281,243,28596,6,0,B|228:226|228:226|121:242,2,160
427,308,31079,1,0,0:0:0:0:
362,162,31906,6,0,B|345:109|345:109|361:2,2,160
427,308,34389,1,0,0:0:0:0:
273,352,35217,6,0,P|181:343|133:285,1,160
194,146,36872,2,0,P|286:155|334:213,1,160
437,319,38527,6,0,B|431:283|452:238|452:238|429:206|433:156,2,160
437,319,41837,6,0,P|354:293|274:316,1,160
210,338,43079,1,0,0:0:0:0:
142,295,43492,2,0,B|113:254|113:254|129:142,1,160
150,68,44734,1,0,0:0:0:0:
220,105,45148,6,0,B|258:126|298:110|298:110|346:92|389:117,1,160
491,219,46803,2,0,B|453:240|413:224|413:224|365:206|322:231,1,160
216,330,48458,2,0,P|143:308|187:260,1,160
335,224,50113,2,0,P|408:202|364:154,1,160
216,118,51768,6,0,P|143:96|187:48,2,160
216,118,55079,6,0,L|379:107,1,160
420,261,56734,2,0,L|260:271,1,160
170,138,58389,6,0,L|333:127,1,160
374,281,60044,2,0,L|214:291,1,160
135,305,61286,1,0,0:0:0:0:
63,269,61699,6,0,P|34:192|65:116,1,160
219,124,63354,2,0,P|244:198|215:270,1,160
63,269,65010,6,0,B|46:221|46:221|76:165|56:107,1,160
219,124,66665,2,0,B|265:123|294:98|294:98|330:120|376:128,1,160
490,23,68320,6,0,L|500:182,1,160
397,304,69975,2,0,P|320:332|236:311,1,160
174,279,71217,1,0,0:0:0:0:
97,302,71630,6,0,B|53:313|53:313|70:252|52:194,1,160
141,65,73286,2,0,P|218:37|302:58,1,160
364,90,74528,1,0,0:0:0:0:
441,67,74941,6,0,B|485:56|485:56|468:117|486:175,1,160
386,295,76596,2,0,L|226:284,1,160
148,301,77837,1,0,0:0:0:0:
81,256,78251,6,0,P|58:162|96:106,1,160
237,54,79906,2,0,B|271:61|306:44|306:44|354:76|404:72,1,160
468,84,81148,2,0,L|476:163,1,80
62,148,94803,6,0,B|113:127|156:147|156:147|238:183|300:142,1,240
350,90,96459,2,0,P|441:109|362:188,1,240
314,245,98114,6,0,B|247:243|210:306|210:306|156:280|100:306,1,240
27,276,99769,2,0,B|55:215|35:123|35:123|82:141|117:131,1,240
184,88,101424,6,0,B|235:67|278:87|278:87|360:123|422:82,1,240
484,126,103079,2,0,B|483:172|458:201|458:201|500:290|449:364,1,240
376,364,104734,6,0,B|294:383|231:351|231:351|254:294|305:289,1,240
371,283,106389,1,0,0:0:0:0:
371,283,108044,6,0,B|352:221|402:145|402:145|348:133|320:89,1,240
259,49,109699,2,0,P|195:27|95:63,1,160
48,104,110941,1,0,0:0:0:0:
72,179,111354,6,0,B|93:253|73:314|73:314|128:292|179:315,1,240
250,334,113010,2,0,P|307:324|349:226,1,160
338,160,114251,1,0,0:0:0:0:
281,102,114665,6,0,B|196:68|111:96|111:96|120:136|149:157,1,240
204,203,116320,2,0,P|213:267|84:258,1,240
60,181,117975,6,0,B|87:147|84:93|84:93|52:67|50:22,2,160
60,181,121286,6,0,B|124:191|179:152|179:152|214:213|285:221,1,240
346,232,122941,2,0,B|377:218|377:218|400:86,1,160
366,20,124183,1,0,0:0:0:0:
295,58,124596,6,0,B|231:85|160:59|160:59|182:114|159:165,1,240
127,230,126252,2,0,P|154:302|228:324,1,160
305,301,127493,1,0,0:0:0:0:
382,320,127907,6,0,B|411:312|438:287|438:287|411:185|310:167,1,240
244,154,129562,2,0,B|192:120|177:72|177:72|178:161|135:209,1,240
104,267,131217,6,0,B|125:293|160:299|160:299|210:275|261:303,2,160
104,267,134527,6,0,B|185:245|265:280|265:280|293:260|286:203,1,240
264,134,136182,2,0,P|264:92|386:139,1,240
374,204,137837,6,0,B|374:254|394:277|394:277|306:251|220:296,1,240
155,280,139492,6,0,P|143:232|144:186,1,80
211,160,140320,2,0,P|223:112|222:66,1,80
163,28,141148,6,0,B|110:19|64:40|64:40|94:118|63:184,1,240
39,249,142803,2,0,P|39:291|161:244,1,240
196,183,144458,6,0,B|289:173|289:173|341:201|341:201|436:184,1,240
471,119,146113,1,0,0:0:0:0:
256,192,146320,12,0,154389,0:0:0:0:
