osu file format v14

[General]
AudioFilename: audio.mp3
AudioLeadIn: 0
PreviewTime: -1
Countdown: 1
SampleSet: None
StackLeniency: 0.7
Mode: 0
LetterboxInBreaks: 0
WidescreenStoryboard: 0

[Editor]
DistanceSpacing: 0.8
BeatDivisor: 4
GridSize: 4
TimelineZoom: 1

[Metadata]
Title:Blank VIP
TitleUnicode:Blank VIP
Artist:Disfigure
ArtistUnicode:Disfigure
Creator:Aymanleroi
Version:Blank
Source:
Tags:
BeatmapID:1304618
BeatmapSetID:618888

[Difficulty]
HPDrainRate:7
CircleSize:5
OverallDifficulty:3
ApproachRate:6
SliderMultiplier:2
SliderTickRate:3

[Events]
//Background and Video events
//Break Periods
//Storyboard Layer 0 (Background)
//Storyboard Layer 1 (Fail)
//Storyboard Layer 2 (Pass)
//Storyboard Layer 3 (Foreground)
//Storyboard Sound Samples

[TimingPoints]
13226,250,4,1,0,100,1,0

[HitObjects]
134,263,3913,5,0,0:0:0:0:
456,4,4538,1,0,0:0:0:0:
97,312,5288,1,0,0:0:0:0:
376,74,5851,1,0,0:0:0:0:
51,350,6538,1,0,0:0:0:0:
365,84,7163,1,0,0:0:0:0:
59,343,7788,1,0,0:0:0:0:
362,87,8413,1,0,0:0:0:0:
56,345,9038,1,0,0:0:0:0:
323,120,9601,1,0,0:0:0:0:
18,377,10226,1,0,0:0:0:0:
319,123,10851,1,0,0:0:0:0:
135,180,11538,1,0,0:0:0:0:
457,325,12101,1,0,0:0:0:0:
107,159,12726,1,0,0:0:0:0:
455,321,13351,1,0,0:0:0:0:
99,156,13976,1,0,0:0:0:0:
456,321,14601,1,0,0:0:0:0:
107,160,15226,1,0,0:0:0:0:
457,61,15788,1,0,0:0:0:0:
117,211,16351,1,0,0:0:0:0:
503,43,17038,1,0,0:0:0:0:
182,183,17601,1,0,0:0:0:0:
295,132,17788,1,0,0:0:0:0:
190,179,17976,1,0,0:0:0:0:
421,81,18351,1,0,0:0:0:0:
168,188,18788,1,0,0:0:0:0:
299,133,19038,1,0,0:0:0:0:
195,176,19226,1,0,0:0:0:0:
195,176,19413,1,0,0:0:0:0:
307,235,21413,1,0,0:0:0:0:
237,20,23601,1,0,0:0:0:0:
254,193,24038,1,0,0:0:0:0:
343,57,24476,1,0,0:0:0:0:
143,158,24913,1,0,0:0:0:0:
391,117,25288,1,0,0:0:0:0:
102,84,25726,1,0,0:0:0:0:
386,244,26101,1,0,0:0:0:0:
155,24,26538,1,0,0:0:0:0:
294,46,26913,1,0,0:0:0:0:
355,253,27351,1,0,0:0:0:0:
147,288,27788,1,0,0:0:0:0:
222,43,28851,1,0,0:0:0:0:
226,247,29226,1,0,0:0:0:0:
310,48,29601,1,0,0:0:0:0:
144,210,30101,1,0,0:0:0:0:
372,146,30476,1,0,0:0:0:0:
127,142,30976,1,0,0:0:0:0:
134,56,31351,1,0,0:0:0:0:
277,213,31788,1,0,0:0:0:0:
209,42,32163,1,0,0:0:0:0:
248,226,32601,1,0,0:0:0:0:
325,50,32976,1,0,0:0:0:0:
174,175,33413,1,0,0:0:0:0:
381,146,33788,1,0,0:0:0:0:
127,124,34163,1,0,0:0:0:0:
166,48,34538,1,0,0:0:0:0:
268,204,34788,1,0,0:0:0:0:
237,20,35288,1,0,0:0:0:0:
238,219,35601,1,0,0:0:0:0:
335,54,36038,1,0,0:0:0:0:
159,163,36476,1,0,0:0:0:0:
375,138,36788,1,0,0:0:0:0:
127,116,37226,1,0,0:0:0:0:
303,200,37601,1,0,0:0:0:0:
201,43,38038,1,0,0:0:0:0:
281,160,38476,1,0,0:0:0:0:
283,291,38788,1,0,0:0:0:0:
117,311,39226,1,0,0:0:0:0:
168,53,40038,1,0,0:0:0:0:
98,159,40476,1,0,0:0:0:0:
298,109,40788,1,0,0:0:0:0:
337,233,41288,1,0,0:0:0:0:
63,243,43101,1,0,0:0:0:0:
46,135,43601,1,0,0:0:0:0:
135,80,44038,1,0,0:0:0:0:
256,168,44413,1,0,0:0:0:0:
366,225,44851,1,0,0:0:0:0:
422,117,45226,1,0,0:0:0:0:
179,176,46913,1,0,0:0:0:0:
343,60,47226,1,0,0:0:0:0:
343,316,47663,1,0,0:0:0:0:
135,224,48038,1,0,0:0:0:0:
119,145,50038,5,0,0:0:0:0:
360,114,50413,1,0,0:0:0:0:
434,352,50788,1,0,0:0:0:0:
191,236,51226,1,0,0:0:0:0:
149,122,52038,5,0,0:0:0:0:
385,125,52413,1,0,0:0:0:0:
233,326,52788,1,0,0:0:0:0:
218,229,53601,5,0,0:0:0:0:
145,180,54038,1,0,0:0:0:0:
284,209,54851,5,0,0:0:0:0:
120,192,55663,5,0,0:0:0:0:
292,117,56476,5,0,0:0:0:0:
319,370,56851,1,0,0:0:0:0:
197,140,57288,1,0,0:0:0:0:
197,329,57601,1,0,0:0:0:0:
124,75,58038,1,0,0:0:0:0:
180,285,58413,1,0,0:0:0:0:
141,55,58788,1,0,0:0:0:0:
235,297,59226,1,0,0:0:0:0:
252,26,59663,1,0,0:0:0:0:
334,221,59976,1,0,0:0:0:0:
374,229,60351,1,0,0:0:0:0:
347,286,60851,1,0,0:0:0:0:
132,222,61226,1,0,0:0:0:0:
286,56,61601,1,0,0:0:0:0:
56,205,62038,1,0,0:0:0:0:
271,92,62413,1,0,0:0:0:0:
29,220,62851,1,0,0:0:0:0:
257,206,63226,1,0,0:0:0:0:
248,229,63601,1,0,0:0:0:0:
477,307,63976,1,0,0:0:0:0:
303,76,64413,1,0,0:0:0:0:
364,189,64601,1,0,0:0:0:0:
253,142,64788,1,0,0:0:0:0:
137,153,64976,1,0,0:0:0:0:
165,293,65226,1,0,0:0:0:0:
206,165,65476,1,0,0:0:0:0:
268,249,65663,1,0,0:0:0:0:
373,264,65851,1,0,0:0:0:0:
391,162,66038,1,0,0:0:0:0:
311,114,66163,1,0,0:0:0:0:
311,114,66351,1,0,0:0:0:0:
183,59,66601,1,0,0:0:0:0:
205,141,66726,1,0,0:0:0:0:
88,207,66913,1,0,0:0:0:0:
229,248,67163,1,0,0:0:0:0:
229,248,67351,1,0,0:0:0:0:
362,284,67601,1,0,0:0:0:0:
446,189,67788,1,0,0:0:0:0:
148,118,68288,5,0,0:0:0:0:
258,92,68476,1,0,0:0:0:0:
126,164,68726,1,0,0:0:0:0:
165,292,68913,1,0,0:0:0:0:
321,304,69163,1,0,0:0:0:0:
401,202,69351,1,0,0:0:0:0:
254,202,69601,1,0,0:0:0:0:
329,106,69788,1,0,0:0:0:0:
213,163,69976,1,0,0:0:0:0:
213,163,70163,1,0,0:0:0:0:
117,272,70413,1,0,0:0:0:0:
284,275,70663,1,0,0:0:0:0:
281,213,71226,5,0,0:0:0:0:
271,91,71413,1,0,0:0:0:0:
281,221,71601,1,0,0:0:0:0:
215,89,71851,1,0,0:0:0:0:
288,375,72351,5,0,0:0:0:0:
211,103,72788,5,0,0:0:0:0:
241,257,73038,1,0,0:0:0:0:
296,108,73288,1,0,0:0:0:0:
293,241,73476,1,0,0:0:0:0:
320,110,73726,1,0,0:0:0:0:
245,143,73851,1,0,0:0:0:0:
94,157,74101,1,0,0:0:0:0:
232,150,74351,1,0,0:0:0:0:
293,166,74476,1,0,0:0:0:0:
208,208,77288,2,0,P|390:155|412:169,3,200
83,225,78788,2,0,L|175:91,2,150
371,193,79601,2,0,L|539:229,2,150
174,198,80413,2,0,L|55:126,4,100
201,40,81288,2,0,L|225:128,5,50
336,42,82038,2,0,L|294:158,3,100
56,147,82788,2,0,L|172:207,4,100
319,217,83976,6,0,L|203:262,4,100
65,245,84788,2,0,L|145:282,7,50
194,102,85601,2,0,P|199:229|288:176,3,250
256,192,87976,12,0,96476,0:0:0:0:
256,192,96851,12,0,97163,0:0:0:0:
256,192,97601,12,0,98038,0:0:0:0:
256,192,98476,12,0,98851,0:0:0:0:
256,192,99226,12,0,99601,0:0:0:0:
256,192,100038,12,0,100476,0:0:0:0:
256,192,100851,12,0,101288,0:0:0:0:
256,192,101726,12,0,102101,0:0:0:0:
256,192,102413,12,0,102788,0:0:0:0:
256,192,103163,12,0,103601,0:0:0:0:
256,192,103976,12,0,104976,0:0:0:0:
256,192,105351,12,0,105663,0:0:0:0:
256,192,106101,12,0,106476,0:0:0:0:
256,192,106851,12,0,107163,0:0:0:0:
256,192,107913,12,0,108163,0:0:0:0:
256,192,108663,12,0,109101,0:0:0:0:
256,192,109601,12,0,110038,0:0:0:0:
256,192,110788,12,0,111226,0:0:0:0:
256,192,111601,12,0,111976,0:0:0:0:
256,192,112413,12,0,112851,0:0:0:0:
256,192,113226,12,0,113663,0:0:0:0:
256,192,113976,12,0,114413,0:0:0:0:
256,192,115288,12,0,115663,0:0:0:0:
256,192,116038,12,0,116413,0:0:0:0:
256,192,116788,12,0,117226,0:0:0:0:
166,148,118788,5,0,0:0:0:0:
166,148,118976,1,0,0:0:0:0:
166,148,119163,1,0,0:0:0:0:
166,148,119413,1,0,0:0:0:0:
166,148,119601,1,0,0:0:0:0:
166,148,119788,1,0,0:0:0:0:
166,148,120038,1,0,0:0:0:0:
166,148,120351,1,0,0:0:0:0:
166,148,120538,1,0,0:0:0:0:
166,148,120726,1,0,0:0:0:0:
166,148,120913,1,0,0:0:0:0:
181,182,121226,1,0,0:0:0:0:
181,182,121413,1,0,0:0:0:0:
181,182,121538,1,0,0:0:0:0:
181,182,121601,1,0,0:0:0:0:
181,182,121663,1,0,0:0:0:0:
181,182,121788,1,0,0:0:0:0:
181,182,121976,1,0,0:0:0:0:
181,182,122038,1,0,0:0:0:0:
181,182,122101,1,0,0:0:0:0:
181,182,122226,1,0,0:0:0:0:
181,182,122351,1,0,0:0:0:0:
181,182,122476,1,0,0:0:0:0:
181,182,122538,1,0,0:0:0:0:
181,182,122663,1,0,0:0:0:0:
181,182,122726,1,0,0:0:0:0:
181,182,122851,1,0,0:0:0:0:
181,182,122913,1,0,0:0:0:0:
181,182,123038,1,0,0:0:0:0:
181,182,123101,1,0,0:0:0:0:
181,182,123163,1,0,0:0:0:0:
181,182,123288,1,0,0:0:0:0:
181,182,123351,1,0,0:0:0:0:
181,182,123476,1,0,0:0:0:0:
181,182,123538,1,0,0:0:0:0:
181,182,123663,1,0,0:0:0:0:
181,182,123788,1,0,0:0:0:0:
181,182,123851,1,0,0:0:0:0:
181,182,123976,1,0,0:0:0:0:
181,182,124038,1,0,0:0:0:0:
181,182,124101,1,0,0:0:0:0:
181,182,124226,1,0,0:0:0:0:
181,182,124288,1,0,0:0:0:0:
181,182,124413,1,0,0:0:0:0:
181,182,124538,1,0,0:0:0:0:
181,182,124663,1,0,0:0:0:0:
181,182,124788,1,0,0:0:0:0:
181,182,124913,1,0,0:0:0:0:
181,182,124976,1,0,0:0:0:0:
181,182,125163,1,0,0:0:0:0:
181,182,125226,1,0,0:0:0:0:
181,182,125351,1,0,0:0:0:0:
181,182,125413,1,0,0:0:0:0:
181,182,125538,1,0,0:0:0:0:
181,182,125601,1,0,0:0:0:0:
181,182,125788,1,0,0:0:0:0:
181,182,125851,1,0,0:0:0:0:
181,182,125976,1,0,0:0:0:0:
181,182,126101,1,0,0:0:0:0:
181,182,126163,1,0,0:0:0:0:
181,182,126288,1,0,0:0:0:0:
181,182,126351,1,0,0:0:0:0:
181,182,126476,1,0,0:0:0:0:
181,182,126538,1,0,0:0:0:0:
181,182,126663,1,0,0:0:0:0:
181,182,126726,1,0,0:0:0:0:
181,182,126851,1,0,0:0:0:0:
181,182,126913,1,0,0:0:0:0:
181,182,127038,1,0,0:0:0:0:
181,182,127163,1,0,0:0:0:0:
181,182,127226,1,0,0:0:0:0:
181,182,127288,1,0,0:0:0:0:
181,182,127413,1,0,0:0:0:0:
181,182,127476,1,0,0:0:0:0:
181,182,127601,1,0,0:0:0:0:
181,182,127663,1,0,0:0:0:0:
181,182,127788,1,0,0:0:0:0:
181,182,127851,1,0,0:0:0:0:
181,182,128038,1,0,0:0:0:0:
181,182,128101,1,0,0:0:0:0:
181,182,128226,1,0,0:0:0:0:
181,182,128351,1,0,0:0:0:0:
181,182,128413,1,0,0:0:0:0:
181,182,128538,1,0,0:0:0:0:
181,182,128601,1,0,0:0:0:0:
181,182,128726,1,0,0:0:0:0:
181,182,128851,1,0,0:0:0:0:
181,182,128976,1,0,0:0:0:0:
181,182,129038,1,0,0:0:0:0:
181,182,129101,1,0,0:0:0:0:
181,182,129226,1,0,0:0:0:0:
181,182,129351,1,0,0:0:0:0:
181,182,129413,1,0,0:0:0:0:
181,182,129538,1,0,0:0:0:0:
181,182,129663,1,0,0:0:0:0:
181,182,129726,1,0,0:0:0:0:
181,182,129851,1,0,0:0:0:0:
181,182,129913,1,0,0:0:0:0:
181,182,130038,1,0,0:0:0:0:
181,182,130101,1,0,0:0:0:0:
181,182,130226,1,0,0:0:0:0:
181,182,130288,1,0,0:0:0:0:
181,182,130413,1,0,0:0:0:0:
181,182,130538,1,0,0:0:0:0:
181,182,130601,1,0,0:0:0:0:
181,182,130726,1,0,0:0:0:0:
181,182,130851,1,0,0:0:0:0:
181,182,130913,1,0,0:0:0:0:
181,182,130976,1,0,0:0:0:0:
181,182,131413,1,0,0:0:0:0:
