osu file format v14

[General]
AudioFilename: audio.mp3
AudioLeadIn: 0
PreviewTime: 46856
Countdown: 0
SampleSet: Normal
StackLeniency: 0.7
Mode: 1
LetterboxInBreaks: 0
WidescreenStoryboard: 0

[Editor]
Bookmarks: 26,51505
DistanceSpacing: 0.4
BeatDivisor: 2
GridSize: 32
TimelineZoom: 1

[Metadata]
Title:Love
TitleUnicode:Love
Artist:Disasterpeace
ArtistUnicode:Disasterpeace
Creator:Yenmaster
Version:Futsuu
Source:FEZ
Tags:Video Game Electronic Instrumental Ost original soundtrack fa featured artist OverClocked Records Chiptune
BeatmapID:2466043
BeatmapSetID:1182859

[Difficulty]
HPDrainRate:9
CircleSize:3
OverallDifficulty:2
ApproachRate:5
SliderMultiplier:1.4
SliderTickRate:1

[Events]
//Background and Video events
0,0,"fez.jpg",0,-40
//Break Periods
//Storyboard Layer 0 (Background)
//Storyboard Layer 1 (Fail)
//Storyboard Layer 2 (Pass)
//Storyboard Layer 3 (Foreground)
//Storyboard Layer 4 (Overlay)
//Storyboard Sound Samples

[TimingPoints]
35,521.739130434783,4,1,0,30,1,0
35,-115,4,1,0,30,0,0
12556,540.005400054001,4,1,0,30,1,0
12556,-111.11,4,1,0,30,0,0
14716,544.909635818727,4,1,0,30,1,0
14716,-110.11,4,1,0,30,0,0
16895,521.739130434783,4,1,0,30,1,0
16895,-115,4,1,0,30,0,0
17928,521.739130434783,4,1,0,30,1,8
17928,-115,4,1,0,30,0,8
18971,521.739130434783,4,1,0,30,1,0
18971,-115,4,1,0,30,0,0
20536,500,4,1,0,30,1,8
20536,-120,4,1,0,30,0,8
21036,521.739130434783,4,1,0,30,1,0
21036,-115,4,1,0,30,0,0
21557,521.739130434783,4,1,0,30,1,8
21557,-115,4,1,0,30,0,8
23122,516.724654655689,4,1,0,30,1,0
23122,-116.116,4,1,0,30,0,0
25172,516.724654655689,4,1,0,30,1,0
25172,-116.116,4,1,0,30,0,0
30339,518.582541054451,4,1,0,30,1,8
30339,-115.7,4,1,0,30,0,8
31376,518.582541054451,4,1,0,30,1,0
31376,-115.7,4,1,0,30,0,0
33450,508.474576271186,4,1,0,30,1,0
33450,-118,4,1,0,30,0,0
41585,526.315789473684,4,1,0,30,1,0
41585,-114,4,1,0,30,0,0
46868,535.714285714286,4,1,0,30,1,8
46868,-112,4,1,0,30,0,8
47939,566.037735849057,4,1,0,30,1,0
47939,-106,4,1,0,30,0,0
48505,571.428571428571,4,1,0,30,1,8
48505,-105,4,1,0,30,0,8
49076,600,4,1,0,30,1,8
49076,-100,4,1,0,30,0,8
49676,566.037735849057,4,1,0,30,1,8
49676,-106,4,1,0,30,0,8
50242,638.297872340426,4,1,0,30,1,0
50242,-93.9999999999999,4,1,0,30,0,0
51518,661.157024793388,4,1,0,30,1,8
51518,-90.7500000000001,4,1,0,30,0,8
52840,685.714285714286,4,1,0,23,1,0
52840,-87.5,4,1,0,23,0,0
54211,800,4,1,0,17,1,8
54211,-75,4,1,0,17,0,8
55811,800,4,1,0,10,1,0
55811,-75,4,1,0,10,0,0

[HitObjects]
256,192,35,5,0,0:0:0:0:
256,192,556,1,0,0:0:0:0:
256,192,1078,1,8,0:0:0:0:
256,192,1600,1,8,0:0:0:0:
256,192,2121,1,0,0:0:0:0:
256,192,3165,1,0,0:0:0:0:
256,192,4208,1,0,0:0:0:0:
256,192,4730,1,0,0:0:0:0:
256,192,5252,1,8,0:0:0:0:
256,192,6295,1,0,0:0:0:0:
256,192,7339,1,8,0:0:0:0:
256,192,7861,1,0,0:0:0:0:
256,192,8382,1,8,0:0:0:0:
256,192,9426,1,0,0:0:0:0:
256,192,9948,1,0,0:0:0:0:
256,192,10469,1,8,0:0:0:0:
256,192,11513,1,8,0:0:0:0:
256,192,12035,1,0,0:0:0:0:
256,192,12556,1,0,0:0:0:0:
256,192,13096,1,8,0:0:0:0:
256,192,13636,1,8,0:0:0:0:
256,192,14716,1,8,0:0:0:0:
256,192,15260,1,0,0:0:0:0:
256,192,15805,1,0,0:0:0:0:
256,192,16350,1,8,0:0:0:0:
256,192,16895,1,0,0:0:0:0:
256,192,17928,1,8,0:0:0:0:
256,192,18449,1,8,0:0:0:0:
256,192,18971,1,0,0:0:0:0:
256,192,20014,1,0,0:0:0:0:
256,192,21036,1,0,0:0:0:0:
256,192,21557,1,0,0:0:0:0:
256,192,22078,1,8,0:0:0:0:
256,192,22600,1,8,0:0:0:0:
256,192,23122,1,0,0:0:0:0:
256,192,24155,1,8,0:0:0:0:
256,192,24672,1,0,0:0:0:0:
256,192,25172,1,8,0:0:0:0:
256,192,26205,1,0,0:0:0:0:
256,192,26722,1,0,0:0:0:0:
256,192,27238,1,8,0:0:0:0:
256,192,28272,1,8,0:0:0:0:
256,192,29305,1,0,0:0:0:0:
256,192,29822,1,0,0:0:0:0:
256,192,30339,1,8,0:0:0:0:
256,192,30857,1,0,0:0:0:0:
256,192,31376,1,8,0:0:0:0:
256,192,32413,1,0,0:0:0:0:
256,192,33450,1,0,0:0:0:0:
256,192,33958,1,0,0:0:0:0:
256,192,34466,1,8,0:0:0:0:
256,192,35483,1,0,0:0:0:0:
256,192,35992,1,8,0:0:0:0:
256,192,36500,1,0,0:0:0:0:
256,192,37009,1,0,0:0:0:0:
256,192,37517,1,0,0:0:0:0:
256,192,38026,1,0,0:0:0:0:
256,192,38534,1,8,0:0:0:0:
256,192,39551,1,0,0:0:0:0:
256,192,40060,1,8,0:0:0:0:
256,192,40568,1,8,0:0:0:0:
256,192,41077,1,0,0:0:0:0:
256,192,41585,1,0,0:0:0:0:
257,193,42111,1,0,0:0:0:0:
256,192,42637,1,8,0:0:0:0:
256,192,43690,1,0,0:0:0:0:
256,192,44216,1,8,0:0:0:0:
256,192,45269,1,0,0:0:0:0:
256,192,45795,1,0,0:0:0:0:
256,192,46321,1,0,0:0:0:0:
256,192,46868,5,8,0:0:0:0:
256,192,47939,1,8,0:0:0:0:
256,192,48505,1,8,0:0:0:0:
256,192,49076,1,0,0:0:0:0:
256,192,49676,1,8,0:0:0:0:
256,192,50242,1,0,0:0:0:0:
256,192,51518,5,8,0:0:0:0:
256,192,52840,5,8,0:0:0:0:
256,192,54211,5,0,0:0:0:0:
256,192,55811,5,0,0:0:0:0:
