osu file format v14

[General]
AudioFilename: audio.mp3
AudioLeadIn: 0
PreviewTime: 16894
Countdown: 0
SampleSet: Soft
StackLeniency: 0.7
Mode: 2
LetterboxInBreaks: 0
WidescreenStoryboard: 1

[Editor]
DistanceSpacing: 1.3
BeatDivisor: 1
GridSize: 32
TimelineZoom: 1

[Metadata]
Title:Love
TitleUnicode:Love
Artist:Disasterpeace
ArtistUnicode:Disasterpeace
Creator:-Joni-
Version:Cup
Source:FEZ
Tags:Video Game Electronic Instrumental Ost original soundtrack fa featured artist OverClocked Records Chiptune mappers' mapper's guild mpg mg osu! osu
BeatmapID:2488420
BeatmapSetID:1194445

[Difficulty]
HPDrainRate:3
CircleSize:2.5
OverallDifficulty:6
ApproachRate:6
SliderMultiplier:1.4
SliderTickRate:1

[Events]
//Background and Video events
0,0,"golden.jpg",0,0
//Break Periods
//Storyboard Layer 0 (Background)
//Storyboard Layer 1 (Fail)
//Storyboard Layer 2 (Pass)
//Storyboard Layer 3 (Foreground)
//Storyboard Layer 4 (Overlay)
//Storyboard Sound Samples

[TimingPoints]
38,517.241379310345,4,2,0,40,1,0
38,-100,4,2,0,40,0,0
813,-100,4,2,0,60,0,0
1072,526.315789473685,4,2,0,60,1,8
1072,-100,4,2,0,60,0,8
2124,517.241379310345,4,2,0,60,1,0
2124,-100,4,2,0,60,0,0
2382,-100,4,2,0,40,0,0
3158,521.739130434783,4,2,0,40,1,8
3158,-100,4,2,0,40,0,8
4201,517.241379310345,4,2,0,40,1,0
4201,-100,4,2,0,40,0,0
4976,-100,4,2,0,60,0,0
5235,526.315789473685,4,2,0,60,1,8
5235,-100,4,2,0,60,0,8
5498,-100,4,2,0,40,0,0
6024,-100,4,2,0,60,0,0
6287,524.017467248909,4,2,0,60,1,0
6287,-100,4,2,0,60,0,0
6549,-100,4,2,0,40,0,0
7335,530.973451327434,4,2,0,40,1,8
7335,-100,4,2,0,40,0,8
8396,521.739130434783,4,2,0,40,1,0
8396,-100,4,2,0,40,0,0
9178,-100,4,2,0,60,0,0
9439,512.820512820513,4,2,0,60,1,8
9439,-100,4,2,0,60,0,8
10464,519.48051948052,4,2,0,60,1,0
10464,-100,4,2,0,60,0,0
10723,-100,4,2,0,40,0,0
11502,521.739130434783,4,2,0,40,1,8
11502,-100,4,2,0,40,0,8
12545,540.540540540541,4,2,0,40,1,0
12545,-100,4,2,0,40,0,0
13355,-100,4,2,0,60,0,0
13626,542.986425339367,4,2,0,60,1,8
13626,-100,4,2,0,60,0,8
13897,-100,4,2,0,40,0,0
14440,-100,4,2,0,60,0,0
14711,545.454545454546,4,2,0,60,1,0
14711,-100,4,2,0,60,0,0
14983,-100,4,2,0,40,0,0
15529,-100,4,2,0,45,0,0
15801,547.945205479453,4,2,0,45,1,8
15801,-100,4,2,0,45,0,8
16074,-100,4,2,0,40,0,0
16622,-100,4,2,0,50,0,0
16896,512.820512820514,4,2,0,50,1,0
16896,-100,4,2,0,50,0,0
17152,-100,4,2,0,40,0,0
17665,-100,4,2,0,70,0,0
17921,517.241379310346,4,2,0,70,1,8
17921,-100,4,2,0,70,0,8
18955,521.739130434784,4,2,0,70,1,0
18955,-100,4,2,0,70,0,0
19215,-100,4,2,0,40,0,0
19998,517.241379310346,4,2,0,40,1,8
19998,-100,4,2,0,40,0,8
20773,-100,4,2,0,50,0,0
21032,519.480519480521,4,2,0,50,1,0
21032,-100,4,2,0,50,0,0
21291,-100,4,2,0,40,0,0
21811,-100,4,2,0,70,0,0
22070,517.241379310346,4,2,0,70,1,8
22070,-100,4,2,0,70,0,8
23104,519.480519480521,4,2,0,70,1,0
23104,-100,4,2,0,70,0,0
23363,-100,4,2,0,40,0,0
24142,517.241379310346,4,2,0,40,1,8
24142,-100,4,2,0,40,0,8
24917,-100,4,2,0,50,0,0
25176,512.820512820514,4,2,0,50,1,0
25176,-100,4,2,0,50,0,0
25432,-100,4,2,0,40,0,0
25945,-100,4,2,0,70,0,0
26201,519.480519480521,4,2,0,70,1,8
26201,-100,4,2,0,70,0,8
27239,517.241379310346,4,2,0,70,1,0
27239,-100,4,2,0,70,0,0
27497,-100,4,2,0,40,0,0
28014,-100,4,2,0,70,0,0
28273,515.021459227469,4,2,0,70,1,8
28273,-100,4,2,0,70,0,8
28530,-100,4,2,0,40,0,0
29045,-100,4,2,0,50,0,0
29303,517.241379310346,4,2,0,50,1,0
29303,-100,4,2,0,50,0,0
29561,-100,4,2,0,40,0,0
30078,-100,4,2,0,70,0,0
30337,519.480519480521,4,2,0,70,1,8
30337,-100,4,2,0,70,0,8
31375,517.241379310346,4,2,0,70,1,0
31375,-100,4,2,0,70,0,0
32150,-100,4,2,0,50,0,0
32409,519.480519480521,4,2,0,50,1,8
32409,-100,4,2,0,50,0,8
33188,-100,4,2,0,40,0,0
33447,508.474576271188,4,2,0,40,1,0
33447,-100,4,2,0,40,0,0
34209,-100,4,2,0,60,0,0
34463,512.820512820514,4,2,0,60,1,8
34463,-100,4,2,0,60,0,8
34719,-100,4,2,0,40,0,0
35232,-100,4,2,0,60,0,0
35488,508.474576271188,4,2,0,60,1,0
35488,-100,4,2,0,60,0,0
35742,-100,4,2,0,40,0,0
36504,504.20168067227,4,2,0,40,1,8
36504,-100,4,2,0,40,0,8
37512,508.474576271188,4,2,0,40,1,0
37512,-100,4,2,0,40,0,0
38274,-100,4,2,0,60,0,0
38528,506.329113924052,4,2,0,60,1,8
38528,-100,4,2,0,60,0,8
38781,-100,4,2,0,40,0,0
39287,-100,4,2,0,60,0,0
39540,508.474576271188,4,2,0,60,1,0
39540,-100,4,2,0,60,0,0
39794,-100,4,2,0,40,0,0
40556,512.820512820514,4,2,0,40,1,8
40556,-100,4,2,0,40,0,8
41581,526.315789473686,4,2,0,40,1,0
41581,-100,4,2,0,40,0,0
42370,-100,4,2,0,60,0,0
42633,528.634361233482,4,2,0,60,1,8
42633,-100,4,2,0,60,0,8
42897,-100,4,2,0,40,0,0
43425,-100,4,2,0,60,0,0
43690,521.739130434784,4,2,0,60,1,0
43690,-100,4,2,0,60,0,0
43950,-100,4,2,0,40,0,0
44733,524.01746724891,4,2,0,40,1,8
44733,-100,4,2,0,40,0,8
45781,540.540540540542,4,2,0,40,1,0
45781,-100,4,2,0,40,0,0
46591,-100,4,2,0,60,0,0
46862,535.714285714287,4,2,0,60,1,8
46862,-100,4,2,0,60,0,8
47129,-100,4,2,0,40,0,0
47665,-100,4,2,0,60,0,0
47933,555.555555555557,4,2,0,60,1,0
47933,-100,4,2,0,60,0,0
48210,-100,4,2,0,40,0,0
48488,576.923076923078,4,2,0,40,1,8
48488,-100,4,2,0,40,0,8
49065,600.000000000002,4,2,0,40,1,8
49065,-100,4,2,0,40,0,8
49665,566.037735849057,4,2,0,40,1,8
49665,-100,4,2,0,40,0,8
50232,638.297872340426,4,2,0,40,1,0
50232,-100,4,2,0,40,0,0
51189,-100,4,2,0,60,0,0
51508,681.818181818181,4,2,0,60,1,8
51508,-100,4,2,0,60,0,8
52530,-100,4,2,0,40,0,0
52871,674.157303370787,4,2,0,40,1,0
52871,-100,4,2,0,40,0,0
53882,-100,4,2,0,30,0,0
54219,800,4,2,0,30,1,8
54219,-100,4,2,0,30,0,8
55419,-100,4,2,0,20,0,0
55819,800,4,2,0,20,1,0
55819,-100,4,2,0,20,0,0
56019,-100,4,2,0,5,0,0

[Colours]
Combo1 : 128,0,0
Combo2 : 255,128,0

[HitObjects]
66,322,38,5,0,0:0:0:0:
132,179,555,1,0,0:0:0:0:
304,226,1072,2,0,L|444:226,2,140,2|2|2,0:0|0:0|0:0,0:0:0:0:
159,323,3679,5,0,0:0:0:0:
60,176,4201,1,0,0:0:0:0:
139,68,4718,1,0,0:0:0:0:
294,190,5235,6,0,P|406:157|304:51,1,280,2|2,0:0|0:0,0:0:0:0:
99,70,7335,1,0,0:0:0:0:
359,66,8396,1,0,0:0:0:0:
385,220,8917,1,0,0:0:0:0:
191,218,9439,6,0,L|35:219,2,140,2|2|2,0:0|0:0|0:0,0:0:0:0:
411,224,11502,1,0,0:0:0:0:
159,190,12545,1,0,0:0:0:0:
160,67,13085,1,0,0:0:0:0:
357,222,13626,6,0,P|462:144|407:23,1,280,2|2,0:0|0:0,0:0:0:0:
124,160,15801,1,0,0:0:0:0:
287,156,16348,1,0,0:0:0:0:
126,191,16896,6,0,P|103:122|130:53,1,140
287,96,17921,2,0,L|431:96,2,140,2|2|2,0:0|0:0|0:0,0:0:0:0:
191,303,19998,2,0,P|99:209|198:132,1,280
326,134,21551,1,0,0:0:0:0:
158,61,22070,6,0,L|-5:61,2,140,2|2|2,0:0|0:0|0:0,0:0:0:0:
356,67,24142,1,0,0:0:0:0:
123,65,25176,1,0,0:0:0:0:
372,226,26201,6,0,L|532:226,2,140,2|2|2,0:0|0:0|0:0,0:0:0:0:
126,221,28273,2,0,P|81:183|140:159,1,140,2|0,0:0|0:0,0:0:0:0:
315,160,29303,1,0,0:0:0:0:
159,320,29820,1,0,0:0:0:0:
340,321,30337,5,2,0:0:0:0:
419,203,30856,1,2,0:0:0:0:
217,70,31375,1,2,0:0:0:0:
362,226,32409,6,0,P|463:177|337:75,1,280
255,60,33955,1,0,0:0:0:0:
121,65,34463,5,2,0:0:0:0:
422,288,35488,2,0,L|112:288,1,280,2|0,0:0|0:0,0:0:0:0:
355,162,37512,1,0,0:0:0:0:
253,159,38020,1,0,0:0:0:0:
92,159,38528,5,2,0:0:0:0:
354,230,39540,2,0,L|478:152,1,140
332,63,40556,1,0,0:0:0:0:
92,159,41581,1,0,0:0:0:0:
180,105,42107,1,0,0:0:0:0:
352,72,42633,5,2,0:0:0:0:
97,226,43690,2,0,L|394:226,1,280
126,66,45781,1,0,0:0:0:0:
359,161,46862,6,0,P|399:103|333:90,1,140,2|0,0:0|0:0,0:0:0:0:
150,226,47933,1,2,0:0:0:0:
173,59,49064,1,0,0:0:0:0:
417,102,50232,1,0,0:0:0:0:
294,103,50870,1,0,0:0:0:0:
89,246,51508,6,0,B|89:108|89:108|276:77,1,280,2|0,0:0|0:0,0:0:0:0:
420,73,54219,1,0,0:0:0:0:
190,70,55819,5,2,0:0:0:0:
256,192,56619,12,0,59019,0:0:0:0:
