osu file format v14

[General]
AudioFilename: Audio Error.mp3
AudioLeadIn: 0
PreviewTime: 11010
Countdown: 0
SampleSet: None
StackLeniency: 0.4
Mode: 0
LetterboxInBreaks: 0
WidescreenStoryboard: 1

[Editor]
Bookmarks: 48176,58843,69510
DistanceSpacing: 1.8
BeatDivisor: 4
GridSize: 16
TimelineZoom: 2.849999

[Metadata]
Title:Jump Error
TitleUnicode:Jump Error
Artist:Disasterpeace
ArtistUnicode:Disasterpeace
Creator:Bonsai
Version:Map Error
Source:
Tags:Rise of the Obsidian Interstellar 8-bit 8bit chipmusic chiptune progressive soundtrack space videogame
BeatmapID:925613
BeatmapSetID:426652

[Difficulty]
HPDrainRate:6
CircleSize:5.5
OverallDifficulty:8
ApproachRate:9
SliderMultiplier:1.29
SliderTickRate:1

[Events]
//Background and Video events
0,0,"Background Error.jpg",0,0
Video,0,"Video Error.avi"
//Break Periods
2,112009,120593
2,189499,202765
//Storyboard Layer 0 (Background)
//Storyboard Layer 1 (Fail)
//Storyboard Layer 2 (Pass)
//Storyboard Layer 3 (Foreground)
//Storyboard Sound Samples

[TimingPoints]
343.652173913044,333.333333333333,4,3,0,30,1,0
101510,333.333333333333,4,3,0,30,1,0
109843,333.333333333333,4,3,0,30,1,0
112009,333.333333333333,4,3,0,30,1,0
113176,333.333333333333,4,3,0,30,1,0
114343,333.333333333333,4,3,0,30,1,0
115509,333.333333333333,4,3,0,30,1,0
116676,333.333333333333,4,3,0,30,1,0
117843,333.333333333333,4,3,0,30,1,0
119009,333.333333333333,4,3,0,30,1,0
120176,333.333333333333,4,3,0,30,1,0
121343,333.333333333333,4,3,0,10,1,0
121343,-142.857142857143,4,3,0,10,0,0
121509,-142.857142857143,4,3,0,5,0,0
121676,-142.857142857143,4,3,0,10,0,0
121843,-142.857142857143,4,3,0,5,0,0
122009,-142.857142857143,4,3,0,10,0,0
122176,-142.857142857143,4,3,0,5,0,0
122342,-142.857142857143,4,3,0,10,0,0
122509,333.333333333333,4,3,0,10,1,0
122509,-142.857142857143,4,3,0,10,0,0
122842,-142.857142857143,4,3,0,5,0,0
123009,-142.857142857143,4,3,0,10,0,0
123175,-142.857142857143,4,3,0,5,0,0
123342,-142.857142857143,4,3,0,10,0,0
123509,-142.857142857143,4,3,0,5,0,0
123676,333.333333333333,4,3,0,10,1,0
123676,-142.857142857143,4,3,0,10,0,0
123842,-142.857142857143,4,3,0,5,0,0
124009,-142.857142857143,4,3,0,10,0,0
124509,-142.857142857143,4,3,0,5,0,0
124843,333.333333333333,4,3,0,10,1,0
124843,-142.857142857143,4,3,0,10,0,0
125009,-142.857142857143,4,3,0,5,0,0
125176,-142.857142857143,4,3,0,10,0,0
125676,-142.857142857143,4,3,0,5,0,0
125842,-142.857142857143,4,3,0,10,0,0
126009,333.333333333333,4,3,0,10,1,0
126009,-142.857142857143,4,3,0,10,0,0
126342,-142.857142857143,4,3,0,5,0,0
126509,-142.857142857143,4,3,0,10,0,0
127009,-142.857142857143,4,3,0,5,0,0
127176,333.333333333333,4,3,0,10,1,0
127176,-142.857142857143,4,3,0,10,0,0
127509,-142.857142857143,4,3,0,5,0,0
127676,-142.857142857143,4,3,0,10,0,0
127842,-142.857142857143,4,3,0,5,0,0
128009,-142.857142857143,4,3,0,10,0,0
128176,-142.857142857143,4,3,0,5,0,0
128343,333.333333333333,4,3,0,10,1,0
128343,-142.857142857143,4,3,0,10,0,0
128509,-142.857142857143,4,3,0,5,0,0
128676,-142.857142857143,4,3,0,10,0,0
128843,-142.857142857143,4,3,0,5,0,0
129009,-142.857142857143,4,3,0,10,0,0
129509,333.333333333333,4,3,0,5,1,0
129509,-142.857142857143,4,3,0,5,0,0
129675,-142.857142857143,4,3,0,10,0,0
130009,-142.857142857143,4,3,0,5,0,0
130175,-142.857142857143,4,3,0,10,0,0
130342,-142.857142857143,4,3,0,5,0,0
130509,-142.857142857143,4,3,0,10,0,0
130676,333.333333333333,4,3,0,30,1,0
131843,333.333333333333,4,3,0,30,1,0
133009,333.333333333333,4,3,0,30,1,0
133009,-121.951219512195,4,3,0,30,0,0
134176,333.333333333333,4,3,0,30,1,0
134176,-121.951219512195,4,3,0,30,0,0
135343,333.333333333333,4,3,0,30,1,0
136509,333.333333333333,4,3,0,30,1,0
137676,333.333333333333,4,3,0,30,1,0
137676,-121.951219512195,4,3,0,30,0,0
138843,333.333333333333,4,3,0,30,1,0
138843,-121.951219512195,4,3,0,30,0,0
140009,333.333333333333,4,3,0,30,1,0
141176,333.333333333333,4,3,0,30,1,0
142343,333.333333333333,4,3,0,30,1,0
143509,333.333333333333,4,3,0,30,1,0
144676,333.333333333333,4,3,0,30,1,0
145343,333.333333333333,4,3,0,30,1,0
166676,-133.333333333333,4,3,0,30,0,0
180009,342.857142857143,4,3,0,30,1,0
180009,-133.333333333333,4,3,0,30,0,0
181380,352.941176470588,4,3,0,30,1,0
181380,-133.333333333333,4,3,0,30,0,0
182791,375,4,3,0,30,1,0
182791,-133.333333333333,4,3,0,30,0,0
184291,394.736842105263,4,3,0,30,1,0
184291,-133.333333333333,4,3,0,30,0,0
185869,416.666666666667,4,3,0,30,1,0
185869,-133.333333333333,4,3,0,30,0,0
187535,441.176470588235,4,3,0,30,1,0
187535,-133.333333333333,4,3,0,30,0,0
189299,888.559792669382,4,3,0,30,1,0
189299,-67.1140939597315,4,3,0,30,0,0
232394,-67.1140939597315,4,3,0,27,0,0
232838,-67.1140939597315,4,3,0,24,0,0
233282,-67.1140939597315,4,3,0,21,0,0
233726,-67.1140939597315,4,3,0,19,0,0
234171,-67.1140939597315,4,3,0,17,0,0
234615,-67.1140939597315,4,3,0,15,0,0
235059,-67.1140939597315,4,3,0,13,0,0
235504,-67.1140939597315,4,3,0,11,0,0
235948,-67.1140939597315,4,3,0,9,0,0
236392,-67.1140939597315,4,3,0,7,0,0
236836,-67.1140939597315,4,3,10,5,0,0

[Colours]
Combo1 : 131,182,61
Combo2 : 217,64,152
Combo3 : 224,160,12
Combo4 : 190,31,231

[HitObjects]
320,224,343,5,0,0:0:0:0:
384,224,510,1,0,0:0:0:0:
448,224,676,1,0,0:0:0:0:
192,128,1010,1,0,0:0:0:0:
128,128,1177,1,0,0:0:0:0:
64,128,1343,1,0,0:0:0:0:
192,352,1676,5,0,0:0:0:0:
192,288,1843,1,0,0:0:0:0:
192,224,2009,1,0,0:0:0:0:
288,224,2176,1,0,0:0:0:0:
96,224,2510,1,0,0:0:0:0:
480,224,3010,5,0,0:0:0:0:
480,160,3177,1,0,0:0:0:0:
480,96,3343,1,0,0:0:0:0:
256,224,3677,1,0,0:0:0:0:
256,288,3844,1,0,0:0:0:0:
256,352,4010,1,0,0:0:0:0:
256,96,4343,5,0,0:0:0:0:
192,96,4510,1,0,0:0:0:0:
128,96,4676,1,0,0:0:0:0:
128,192,4843,1,0,0:0:0:0:
128,0,5177,1,0,0:0:0:0:
224,0,5343,2,0,L|288:0,1,64.5,2|0,0:0|0:0,0:0:0:0:
288,128,5676,5,0,0:0:0:0:
192,128,5843,2,0,L|128:128,1,64.5,2|0,0:0|0:0,0:0:0:0:
288,256,6343,1,0,0:0:0:0:
288,256,6426,1,0,0:0:0:0:
288,256,6510,2,0,L|320:256,1,32.25,2|0,0:0|0:0,0:0:0:0:
384,256,6676,1,0,0:0:0:0:
128,352,7010,5,0,0:0:0:0:
128,256,7176,1,0,0:0:0:0:
128,160,7343,1,0,0:0:0:0:
256,160,7510,2,0,L|320:160,1,64.5,2|0,0:0|0:0,0:0:0:0:
192,160,7843,1,2,0:0:0:0:
192,64,8010,1,0,0:0:0:0:
512,160,8343,5,0,0:0:0:0:
512,256,8510,2,0,L|512:320,1,64.5,2|0,0:0|0:0,0:0:0:0:
320,160,9010,1,0,0:0:0:0:
320,64,9177,2,0,L|320:0,1,64.5,2|0,0:0|0:0,0:0:0:0:
224,256,9676,5,0,0:0:0:0:
128,256,9843,1,0,0:0:0:0:
32,256,10010,1,0,0:0:0:0:
32,128,10176,2,0,L|32:64,1,64.5,2|0,0:0|0:0,0:0:0:0:
32,0,10426,1,0,0:0:0:0:
32,0,10510,2,0,L|96:0,1,64.5,2|0,0:0|0:0,0:0:0:0:
192,288,11010,5,0,0:0:0:0:
96,288,11176,2,0,L|32:288,1,64.5,2|0,0:0|0:0,0:0:0:0:
288,224,11676,1,0,0:0:0:0:
288,224,11759,1,0,0:0:0:0:
288,224,11843,2,0,L|320:224,1,32.25,2|0,0:0|0:0,0:0:0:0:
384,224,12010,1,0,0:0:0:0:
160,96,12343,5,0,0:0:0:0:
160,192,12510,1,0,0:0:0:0:
160,288,12676,1,0,0:0:0:0:
256,192,12843,2,0,L|256:128,1,64.5,2|0,0:0|0:0,0:0:0:0:
256,256,13176,1,2,0:0:0:0:
352,256,13343,1,0,0:0:0:0:
512,32,13676,5,0,0:0:0:0:
512,128,13843,2,0,L|512:192,1,64.5,2|0,0:0|0:0,0:0:0:0:
256,192,14343,1,0,0:0:0:0:
256,96,14510,2,0,L|256:32,1,64.5,2|0,0:0|0:0,0:0:0:0:
160,256,15009,5,0,0:0:0:0:
256,256,15176,1,0,0:0:0:0:
352,256,15342,1,0,0:0:0:0:
352,128,15509,2,0,L|352:64,1,64.5,2|0,0:0|0:0,0:0:0:0:
354,0,15760,1,0,0:0:0:0:
354,0,15843,1,0,0:0:0:0:
288,64,16010,2,0,L|223:64,1,64.5,2|0,0:0|0:0,0:0:0:0:
128,160,16343,5,0,0:0:0:0:
224,160,16509,2,0,L|288:160,1,64.5,2|0,0:0|0:0,0:0:0:0:
128,320,17009,1,0,0:0:0:0:
128,320,17092,1,0,0:0:0:0:
128,320,17176,2,0,L|64:320,1,64.5,2|0,0:0|0:0,0:0:0:0:
352,320,17676,5,0,0:0:0:0:
352,224,17843,1,0,0:0:0:0:
352,128,18009,1,0,0:0:0:0:
224,128,18176,2,0,L|160:128,1,64.5,2|0,0:0|0:0,0:0:0:0:
288,128,18509,1,2,0:0:0:0:
291,32,18676,1,0,0:0:0:0:
291,32,18760,1,0,0:0:0:0:
64,32,19009,5,0,0:0:0:0:
64,128,19176,2,0,L|64:192,1,64.5,2|0,0:0|0:0,0:0:0:0:
320,288,19675,1,0,0:0:0:0:
320,192,19843,2,0,L|320:128,1,64.5,2|0,0:0|0:0,0:0:0:0:
64,288,20342,5,0,0:0:0:0:
160,288,20509,1,0,0:0:0:0:
256,288,20675,1,0,0:0:0:0:
160,192,20843,2,0,L|160:127,1,64.5,2|0,0:0|0:0,0:0:0:0:
160,64,21093,1,0,0:0:0:0:
160,64,21176,1,0,0:0:0:0:
65,64,21343,2,0,L|0:64,1,64.5,2|0,0:0|0:0,0:0:0:0:
64,192,21676,5,0,0:0:0:0:
192,192,21843,2,0,L|256:192,1,64.5,2|0,0:0|0:0,0:0:0:0:
384,192,22176,1,0,0:0:0:0:
384,64,22343,1,0,0:0:0:0:
256,64,22510,2,0,L|192:64,1,64.5,2|0,0:0|0:0,0:0:0:0:
320,64,22843,1,0,0:0:0:0:
320,192,23010,5,0,0:0:0:0:
192,192,23176,1,0,0:0:0:0:
192,320,23343,1,0,0:0:0:0:
320,320,23510,2,0,L|384:320,1,64.5,2|0,0:0|0:0,0:0:0:0:
256,320,23843,1,2,0:0:0:0:
259,192,24010,1,0,0:0:0:0:
259,192,24093,1,0,0:0:0:0:
32,96,24343,5,0,0:0:0:0:
32,224,24510,2,0,L|32:288,1,64.5,2|0,0:0|0:0,0:0:0:0:
160,288,24843,1,0,0:0:0:0:
160,160,25010,1,0,0:0:0:0:
288,160,25177,2,0,L|352:160,1,64.5,2|0,0:0|0:0,0:0:0:0:
224,160,25510,1,0,0:0:0:0:
224,32,25677,5,0,0:0:0:0:
352,32,25843,1,0,0:0:0:0:
353,160,26010,1,0,0:0:0:0:
224,160,26177,2,0,L|160:160,1,64.5,2|0,0:0|0:0,0:0:0:0:
96,160,26426,1,0,0:0:0:0:
96,160,26510,1,0,0:0:0:0:
192,64,26676,2,0,L|256:64,1,64.5,2|0,0:0|0:0,0:0:0:0:
384,0,27010,5,0,0:0:0:0:
384,128,27177,2,0,L|384:192,1,64.5,2|0,0:0|0:0,0:0:0:0:
256,192,27510,1,0,0:0:0:0:
262,320,27676,1,0,0:0:0:0:
262,320,27760,1,0,0:0:0:0:
262,320,27844,2,0,L|198:320,1,64.5,2|0,0:0|0:0,0:0:0:0:
64,320,28177,1,0,0:0:0:0:
64,192,28344,5,0,0:0:0:0:
192,192,28510,1,0,0:0:0:0:
192,64,28677,1,0,0:0:0:0:
64,64,28844,2,0,L|0:64,1,64.5,2|0,0:0|0:0,0:0:0:0:
128,64,29177,1,2,0:0:0:0:
131,192,29344,1,0,0:0:0:0:
131,192,29427,1,0,0:0:0:0:
352,192,29677,5,0,0:0:0:0:
352,64,29844,2,0,L|352:0,1,64.5,2|0,0:0|0:0,0:0:0:0:
480,0,30177,1,0,0:0:0:0:
480,128,30344,1,0,0:0:0:0:
352,128,30511,2,0,L|288:128,1,64.5,2|0,0:0|0:0,0:0:0:0:
416,128,30844,1,0,0:0:0:0:
416,256,31011,5,0,0:0:0:0:
288,256,31177,1,0,0:0:0:0:
287,128,31344,1,0,0:0:0:0:
160,128,31511,2,0,L|96:128,1,64.5,2|0,0:0|0:0,0:0:0:0:
32,128,31760,1,0,0:0:0:0:
32,128,31843,2,0,L|32:160,1,32.25
32,224,32010,2,0,L|64:224,1,32.25,2|2,0:0|0:0,0:0:0:0:
128,224,32176,1,0,0:0:0:0:
224,352,32343,5,0,0:0:0:0:
224,224,32510,2,0,L|224:160,1,64.5,2|0,0:0|0:0,0:0:0:0:
224,32,32843,1,0,0:0:0:0:
352,32,33010,1,0,0:0:0:0:
352,160,33176,2,0,L|352:224,1,64.5,2|0,0:0|0:0,0:0:0:0:
352,352,33510,1,0,0:0:0:0:
480,352,33676,5,0,0:0:0:0:
480,224,33843,1,0,0:0:0:0:
352,224,34010,1,0,0:0:0:0:
352,96,34176,2,0,L|352:32,1,64.5,2|0,0:0|0:0,0:0:0:0:
224,32,34510,2,0,L|224:96,1,64.5,2|0,0:0|0:0,0:0:0:0:
224,128,34760,1,0,0:0:0:0:
224,160,34843,1,0,0:0:0:0:
96,256,35010,5,0,0:0:0:0:
224,256,35177,2,0,L|288:256,1,64.5,2|0,0:0|0:0,0:0:0:0:
416,256,35510,1,0,0:0:0:0:
416,128,35677,1,0,0:0:0:0:
288,128,35843,2,0,L|224:128,1,64.5,2|0,0:0|0:0,0:0:0:0:
96,128,36177,1,0,0:0:0:0:
96,0,36343,5,0,0:0:0:0:
224,0,36510,1,0,0:0:0:0:
223,128,36677,1,0,0:0:0:0:
351,128,36843,2,0,L|415:128,1,64.5,2|0,0:0|0:0,0:0:0:0:
480,128,37093,1,0,0:0:0:0:
480,128,37176,1,0,0:0:0:0:
480,0,37343,1,2,0:0:0:0:
480,0,37426,1,0,0:0:0:0:
224,0,37676,5,0,0:0:0:0:
224,128,37843,2,0,L|224:192,2,64.5,2|0|0,0:0|0:0|0:0,0:0:0:0:
96,131,38343,1,0,0:0:0:0:
96,131,38426,1,0,0:0:0:0:
96,131,38510,2,0,L|96:195,1,64.5,2|0,0:0|0:0,0:0:0:0:
96,224,38760,6,0,L|192:224,1,96.75
320,224,39176,1,0,0:0:0:0:
320,96,39343,1,0,0:0:0:0:
192,96,39510,2,0,L|127:96,1,64.5,2|0,0:0|0:0,0:0:0:0:
192,224,39843,2,0,L|256:224,1,64.5,2|0,0:0|0:0,0:0:0:0:
320,224,40093,1,0,0:0:0:0:
64,224,40343,5,0,0:0:0:0:
64,96,40510,2,0,L|64:32,2,64.5,2|0|0,0:0|0:0|0:0,0:0:0:0:
192,96,41010,1,0,0:0:0:0:
192,224,41177,2,0,L|192:288,1,64.5,2|0,0:0|0:0,0:0:0:0:
192,320,41427,6,0,L|288:320,1,96.75
416,320,41843,1,0,0:0:0:0:
416,192,42010,1,0,0:0:0:0:
288,192,42177,2,0,L|224:192,1,64.5,2|0,0:0|0:0,0:0:0:0:
160,192,42426,1,0,0:0:0:0:
160,192,42510,1,0,0:0:0:0:
160,64,42676,2,0,L|160:0,1,64.5,2|0,0:0|0:0,0:0:0:0:
320,0,43010,5,0,0:0:0:0:
320,128,43177,2,0,L|320:192,2,64.5,2|0|0,0:0|0:0|0:0,0:0:0:0:
448,134,43677,1,0,0:0:0:0:
448,134,43760,1,0,0:0:0:0:
448,134,43844,2,0,L|448:70,1,64.5,2|0,0:0|0:0,0:0:0:0:
448,32,44094,6,0,L|352:32,1,96.75
224,32,44510,1,0,0:0:0:0:
224,160,44677,1,0,0:0:0:0:
96,160,44844,2,0,L|32:160,1,64.5,2|0,0:0|0:0,0:0:0:0:
32,32,45176,2,0,L|96:32,1,64.5,2|0,0:0|0:0,0:0:0:0:
160,32,45427,1,0,0:0:0:0:
160,320,45677,5,0,0:0:0:0:
288,320,45844,2,0,L|352:320,2,64.5,2|0|0,0:0|0:0|0:0,0:0:0:0:
416,320,46344,1,0,0:0:0:0:
416,192,46511,2,0,L|416:128,1,64.5,2|0,0:0|0:0,0:0:0:0:
416,96,46760,5,0,0:0:0:0:
416,64,46843,2,0,L|352:64,1,64.5
224,64,47177,1,0,0:0:0:0:
224,192,47344,1,0,0:0:0:0:
352,192,47511,2,0,L|416:192,1,64.5,2|0,0:0|0:0,0:0:0:0:
416,224,47760,1,0,0:0:0:0:
416,256,47843,2,0,L|416:288,1,32.25
352,256,48010,2,0,L|320:256,1,32.25,2|0,0:0|0:0,0:0:0:0:
352,192,48176,6,0,L|352:128,1,64.5
352,64,48426,1,0,0:0:0:0:
352,64,48510,2,0,L|320:64,1,32.25,2|0,0:0|0:0,0:0:0:0:
256,64,48676,2,0,L|256:96,1,32.25
256,160,48843,2,0,L|288:160,1,32.25
288,224,49010,1,0,0:0:0:0:
288,224,49093,1,0,0:0:0:0:
288,224,49176,2,0,L|288:256,1,32.25,2|0,0:0|0:0,0:0:0:0:
224,224,49343,2,0,L|192:224,1,32.25
128,160,49510,6,0,L|192:160,1,64.5
256,160,49760,1,0,0:0:0:0:
256,160,49843,2,0,L|256:128,1,32.25
256,64,50009,2,0,L|256:32,1,32.25
320,32,50176,2,0,L|320:64,1,32.25,2|0,0:0|0:0,0:0:0:0:
320,128,50343,2,0,L|320:160,1,32.25
384,160,50510,2,0,L|384:128,1,32.25,2|0,0:0|0:0,0:0:0:0:
384,64,50676,1,0,0:0:0:0:
384,64,50760,1,0,0:0:0:0:
384,64,50843,6,0,L|448:64,1,64.5
512,64,51093,1,0,0:0:0:0:
512,64,51177,2,0,L|512:96,1,32.25,2|0,0:0|0:0,0:0:0:0:
512,160,51343,2,0,L|480:160,1,32.25
416,160,51510,2,0,L|416:128,1,32.25
416,224,51676,2,0,L|416:256,1,32.25
352,256,51843,2,0,L|320:256,1,32.25,2|0,0:0|0:0,0:0:0:0:
320,192,52010,2,0,L|320:160,1,32.25
256,128,52176,5,0,0:0:0:0:
256,160,52260,1,0,0:0:0:0:
256,192,52343,2,0,L|256:256,1,64.5
256,288,52593,1,0,0:0:0:0:
224,288,52676,2,0,L|160:288,1,64.5,0|2,0:0|0:0,0:0:0:0:
128,288,52926,1,0,0:0:0:0:
128,256,53010,2,0,L|128:224,1,32.25
64,256,53177,2,0,L|32:256,1,32.25
64,320,53343,2,0,L|64:352,1,32.25,2|0,0:0|0:0,0:0:0:0:
128,320,53510,6,0,L|192:320,1,64.5
256,320,53760,1,0,0:0:0:0:
256,320,53843,2,0,L|256:288,1,32.25,2|0,0:0|0:0,0:0:0:0:
256,224,54010,2,0,L|224:224,1,32.25
160,224,54176,2,0,L|160:256,1,32.25
96,256,54343,1,0,0:0:0:0:
96,256,54426,1,0,0:0:0:0:
96,256,54510,2,0,L|96:224,1,32.25,2|0,0:0|0:0,0:0:0:0:
96,160,54676,2,0,L|128:160,1,32.25
160,96,54843,6,0,L|96:96,1,64.5
32,96,55093,1,0,0:0:0:0:
32,96,55176,2,0,L|32:128,1,32.25
32,192,55343,2,0,L|32:224,1,32.25
96,224,55510,2,0,L|128:224,1,32.25,2|0,0:0|0:0,0:0:0:0:
128,288,55676,2,0,L|128:320,1,32.25
192,320,55843,2,0,L|224:320,1,32.25
224,256,56009,1,0,0:0:0:0:
224,256,56092,1,0,0:0:0:0:
224,256,56176,6,0,L|223:191,1,64.5
223,127,56426,1,0,0:0:0:0:
223,127,56510,2,0,L|255:127,1,32.25,2|0,0:0|0:0,0:0:0:0:
319,127,56676,2,0,L|319:159,1,32.25
319,223,56843,2,0,L|287:223,1,32.25
192,224,57009,2,0,L|224:224,1,32.25
192,288,57176,2,0,L|192:320,1,32.25,2|0,0:0|0:0,0:0:0:0:
128,320,57343,2,0,L|96:320,1,32.25
96,256,57510,5,0,0:0:0:0:
97,225,57594,1,0,0:0:0:0:
96,192,57677,2,0,L|96:128,1,64.5
96,96,57927,1,0,0:0:0:0:
128,96,58010,2,0,L|192:96,1,64.5,0|2,0:0|0:0,0:0:0:0:
224,96,58260,1,0,0:0:0:0:
224,128,58343,2,0,L|224:160,1,32.25
288,128,58510,2,0,L|288:96,1,32.25,2|0,0:0|0:0,0:0:0:0:
352,96,58676,1,0,0:0:0:0:
384,96,58760,1,0,0:0:0:0:
416,96,58843,6,0,L|480:96,2,64.5
320,96,59343,1,0,0:0:0:0:
64,96,59676,2,0,L|128:96,1,64.5,2|0,0:0|0:0,0:0:0:0:
192,96,59926,1,0,0:0:0:0:
192,128,60010,2,0,L|192:160,1,32.25
192,192,60176,6,0,L|128:192,2,64.5
288,192,60676,1,0,0:0:0:0:
288,320,60843,1,0,0:0:0:0:
192,320,61010,2,0,L|128:320,1,64.5,2|0,0:0|0:0,0:0:0:0:
64,320,61260,1,0,0:0:0:0:
64,288,61343,2,0,L|64:256,1,32.25
64,224,61510,6,0,L|0:224,2,64.5
160,224,62010,1,0,0:0:0:0:
416,224,62343,2,0,L|352:224,1,64.5,2|0,0:0|0:0,0:0:0:0:
288,224,62593,1,0,0:0:0:0:
288,192,62677,2,0,L|288:160,1,32.25
288,128,62843,5,0,0:0:0:0:
256,128,62926,1,0,0:0:0:0:
224,128,63010,1,0,0:0:0:0:
160,192,63176,1,0,0:0:0:0:
128,192,63260,1,0,0:0:0:0:
96,192,63343,1,0,0:0:0:0:
64,288,63510,2,0,L|29:288,1,32.25
96,288,63676,2,0,L|160:288,1,64.5,2|0,0:0|0:0,0:0:0:0:
224,288,63926,1,0,0:0:0:0:
224,256,64010,2,0,L|224:224,1,32.25
224,192,64176,6,0,L|288:192,2,64.5
128,192,64676,1,0,0:0:0:0:
224,0,65010,2,0,L|224:64,1,64.5,2|0,0:0|0:0,0:0:0:0:
224,128,65260,1,0,0:0:0:0:
256,128,65344,2,0,L|288:128,1,32.25
320,128,65510,6,0,L|320:192,2,64.5
320,32,66010,1,0,0:0:0:0:
448,32,66177,1,0,0:0:0:0:
448,128,66344,2,0,L|448:192,1,64.5,2|0,0:0|0:0,0:0:0:0:
448,256,66594,1,0,0:0:0:0:
416,256,66677,2,0,L|384:256,1,32.25
352,256,66844,6,0,L|352:320,2,64.5
352,160,67344,1,0,0:0:0:0:
96,256,67676,2,0,L|96:192,1,64.5,2|0,0:0|0:0,0:0:0:0:
96,128,67926,1,0,0:0:0:0:
64,128,68010,2,0,L|32:128,1,32.25
0,128,68176,5,0,0:0:0:0:
0,160,68260,1,0,0:0:0:0:
0,192,68343,2,0,L|0:256,1,64.5
0,288,68593,1,0,0:0:0:0:
32,288,68676,2,0,L|96:288,1,64.5
128,288,68926,1,0,0:0:0:0:
128,256,69010,2,0,L|128:192,1,64.5,2|0,0:0|0:0,0:0:0:0:
128,128,69260,1,0,0:0:0:0:
160,128,69343,2,0,L|192:128,1,32.25
256,128,69510,6,0,L|256:256,1,129
256,352,70010,1,2,0:0:0:0:
352,128,71843,5,0,0:0:0:0:
352,128,71926,1,0,0:0:0:0:
352,128,72010,2,0,L|320:128,1,32.25
256,128,72176,2,0,L|256:256,1,129
256,352,72676,1,2,0:0:0:0:
256,128,74843,6,0,L|256:256,1,129
256,352,75343,1,2,0:0:0:0:
32,256,75926,5,0,0:0:0:0:
32,256,76010,2,0,L|64:256,1,32.25
128,258,76176,2,0,L|128:0,1,258
352,128,77176,6,0,L|320:128,1,32.25
256,128,77343,1,0,0:0:0:0:
256,128,77426,1,0,0:0:0:0:
256,128,77510,2,0,L|256:256,1,129
256,352,78010,1,2,0:0:0:0:
192,32,79510,5,0,0:0:0:0:
160,32,79593,1,0,0:0:0:0:
128,32,79676,2,0,L|96:32,1,32.25
96,96,79843,2,0,L|96:128,1,32.25
160,128,80010,2,0,L|192:128,1,32.25
256,128,80176,6,0,L|256:256,1,129
256,352,80676,1,2,0:0:0:0:
256,352,81010,1,2,0:0:0:0:
256,352,81343,1,2,0:0:0:0:
256,352,81676,1,2,0:0:0:0:
256,352,82010,1,2,0:0:0:0:
256,352,82343,1,2,0:0:0:0:
320,256,82510,1,0,0:0:0:0:
320,256,82593,2,0,L|320:224,1,32.25,0|2,0:0|0:0,0:0:0:0:
256,128,82843,6,0,L|256:257,1,129
256,352,83343,1,2,0:0:0:0:
256,352,83677,1,2,0:0:0:0:
256,352,84010,1,2,0:0:0:0:
256,352,84343,1,2,0:0:0:0:
256,352,84677,1,2,0:0:0:0:
256,352,85010,1,2,0:0:0:0:
256,352,85260,1,0,0:0:0:0:
256,352,85343,1,2,0:0:0:0:
256,257,85510,6,0,L|256:128,1,129
256,32,86010,1,2,0:0:0:0:
256,32,86344,1,2,0:0:0:0:
256,32,86677,1,2,0:0:0:0:
256,32,87010,1,2,0:0:0:0:
256,32,87344,1,2,0:0:0:0:
256,32,87677,1,2,0:0:0:0:
320,128,87843,1,0,0:0:0:0:
320,128,87926,2,0,L|320:160,1,32.25,0|2,0:0|0:0,0:0:0:0:
256,256,88176,6,0,L|256:127,1,129
256,32,88676,2,0,L|192:32,1,64.5,2|0,0:0|0:0,0:0:0:0:
320,32,89010,1,0,0:0:0:0:
256,32,89343,2,0,L|320:32,1,64.5,2|0,0:0|0:0,0:0:0:0:
192,32,89676,6,0,L|128:32,1,64.5
32,32,90010,1,0,0:0:0:0:
32,128,90176,1,0,0:0:0:0:
128,128,90343,1,2,0:0:0:0:
224,224,90510,1,2,0:0:0:0:
320,320,90676,1,2,0:0:0:0:
448,224,90843,6,0,L|319:224,1,129
256,160,91343,2,0,L|385:160,2,129
128,160,92176,1,2,0:0:0:0:
448,224,93510,6,0,L|319:224,1,129
256,160,94010,2,0,L|385:160,2,129
128,160,94843,1,2,0:0:0:0:
448,224,96176,6,0,L|319:224,1,129
256,160,96676,2,0,L|385:160,2,129
128,160,97509,1,2,0:0:0:0:
320,96,97843,1,2,0:0:0:0:
448,224,99176,5,0,0:0:0:0:
448,224,99343,2,0,L|319:224,2,129,0|2|0,0:0|0:0|0:0,0:0:0:0:
384,160,100176,1,0,0:0:0:0:
384,160,100260,1,0,0:0:0:0:
384,160,100343,1,0,0:0:0:0:
256,160,100510,1,2,0:0:0:0:
384,320,101510,6,0,L|384:192,1,129
384,160,101926,1,0,0:0:0:0:
384,128,102010,1,0,0:0:0:0:
256,128,102176,1,0,0:0:0:0:
128,128,102343,2,0,L|128:256,1,129
192,320,102843,6,0,L|192:224,1,96.75,2|0,0:0|0:0,0:0:0:0:
192,160,103176,2,0,L|256:160,1,64.5
320,160,103510,1,0,0:0:0:0:
320,32,103843,1,0,0:0:0:0:
64,32,104176,6,0,L|64:0,2,32.25
64,160,104510,1,0,0:0:0:0:
192,160,104676,2,0,L|320:160,2,129
160,160,105426,1,0,0:0:0:0:
160,192,105510,6,0,L|160:256,1,64.5,2|0,0:0|0:0,0:0:0:0:
160,352,105843,1,0,0:0:0:0:
64,256,106176,2,0,L|64:224,1,32.25
64,160,106343,1,0,0:0:0:0:
160,64,106510,2,0,L|160:32,2,32.25
288,64,106843,6,0,L|288:0,2,64.5
288,192,107343,2,0,L|416:192,1,129
448,192,107760,1,0,0:0:0:0:
448,224,107843,2,0,L|448:288,1,64.5
448,128,108176,5,2,0:0:0:0:
448,352,108510,2,0,L|320:352,1,129,2|0,0:0|0:0,0:0:0:0:
288,352,108926,1,0,0:0:0:0:
256,352,109009,1,0,0:0:0:0:
256,256,109176,2,0,L|320:256,1,64.5
320,160,109509,2,0,L|288:160,1,32.25
224,160,109676,1,0,0:0:0:0:
128,64,109843,6,0,L|128:128,1,64.5
128,160,110093,1,0,0:0:0:0:
96,160,110176,2,0,L|32:160,2,64.5,0|2|0,0:0|0:0|0:0,0:0:0:0:
224,160,110676,1,0,0:0:0:0:
230,288,110843,1,0,0:0:0:0:
230,288,110926,1,0,0:0:0:0:
230,288,111009,1,0,0:0:0:0:
96,288,111176,1,2,0:0:0:0:
0,272,121343,6,0,L|0:208,1,45.1499986221314,2|0,0:0|0:0,0:0:0:0:
64,272,121676,2,0,L|64:208,1,45.1499986221314,2|0,0:0|0:0,0:0:0:0:
128,272,122009,2,0,L|128:208,1,45.1499986221314,2|0,0:0|0:0,0:0:0:0:
192,272,122343,1,2,0:0:0:0:
256,272,122509,1,2,0:0:0:0:
320,272,122676,2,0,L|320:208,1,45.1499986221314,2|0,0:0|0:0,0:0:0:0:
384,272,123009,2,0,L|384:208,1,45.1499986221314,2|0,0:0|0:0,0:0:0:0:
448,272,123342,2,0,L|448:208,1,45.1499986221314,2|0,0:0|0:0,0:0:0:0:
448,112,123675,6,0,L|448:176,1,45.1499986221314,2|0,0:0|0:0,0:0:0:0:
384,112,124009,1,2,0:0:0:0:
320,112,124176,1,2,0:0:0:0:
256,112,124342,2,0,L|256:176,2,45.1499986221314,2|0|0,0:0|0:0|0:0,0:0:0:0:
192,112,124843,2,0,L|192:176,1,45.1499986221314,2|2,0:0|0:0,0:0:0:0:
128,112,125176,1,2,0:0:0:0:
64,112,125343,1,2,0:0:0:0:
0,112,125509,2,0,L|0:176,1,45.1499986221314,2|0,0:0|0:0,0:0:0:0:
0,222,125843,1,2,0:0:0:0:
64,222,126009,5,2,0:0:0:0:
64,157,126175,2,0,L|64:111,1,45.1499986221314,2|0,0:0|0:0,0:0:0:0:
128,160,126509,1,2,0:0:0:0:
192,160,126675,1,2,0:0:0:0:
256,160,126842,2,0,L|256:96,1,45.1499986221314,2|0,0:0|0:0,0:0:0:0:
320,160,127176,1,2,0:0:0:0:
384,160,127342,2,0,L|384:96,1,45.1499986221314,2|0,0:0|0:0,0:0:0:0:
448,160,127676,2,0,L|448:96,1,45.1499986221314,2|0,0:0|0:0,0:0:0:0:
512,160,128009,2,0,L|512:96,1,45.1499986221314,2|0,0:0|0:0,0:0:0:0:
512,224,128342,6,0,L|512:288,1,45.1499986221314,2|0,0:0|0:0,0:0:0:0:
448,224,128676,2,0,L|448:272,1,45.1499986221314,2|0,0:0|0:0,0:0:0:0:
384,224,129009,1,2,0:0:0:0:
320,224,129176,1,2,0:0:0:0:
256,224,129343,2,0,L|256:288,1,45.1499986221314,2|0,0:0|0:0,0:0:0:0:
192,224,129675,1,2,0:0:0:0:
128,224,129842,2,0,L|128:288,1,45.1499986221314,2|0,0:0|0:0,0:0:0:0:
64,224,130175,2,0,L|64:288,1,45.1499986221314,2|0,0:0|0:0,0:0:0:0:
0,224,130509,1,2,0:0:0:0:
128,160,130676,6,0,L|256:160,1,129
288,160,131092,1,0,0:0:0:0:
320,160,131176,1,0,0:0:0:0:
352,288,131342,1,2,0:0:0:0:
224,288,131509,1,2,0:0:0:0:
96,288,131676,1,2,0:0:0:0:
128,160,131843,6,0,L|256:160,1,129
288,160,132259,1,0,0:0:0:0:
320,160,132343,1,0,0:0:0:0:
352,288,132509,1,2,0:0:0:0:
224,288,132676,1,2,0:0:0:0:
96,288,132843,1,2,0:0:0:0:
128,160,133009,6,0,L|128:96,1,52.8900008070374
192,160,133342,2,0,L|192:96,1,52.8900008070374
320,107,133675,2,0,L|320:160,1,52.8900008070374,2|0,0:0|0:0,0:0:0:0:
320,224,134009,1,0,0:0:0:0:
320,340,134176,6,0,L|320:288,1,52.8900008070374
256,340,134509,2,0,L|256:288,1,52.8900008070374
192,171,134842,2,0,L|192:224,1,52.8900008070374,2|0,0:0|0:0,0:0:0:0:
192,288,135176,1,0,0:0:0:0:
320,352,135343,6,0,L|192:352,1,129
160,352,135759,1,0,0:0:0:0:
128,352,135843,1,0,0:0:0:0:
96,224,136009,1,2,0:0:0:0:
224,224,136176,1,2,0:0:0:0:
352,224,136343,1,2,0:0:0:0:
320,352,136510,6,0,L|192:352,1,129
160,352,136926,1,0,0:0:0:0:
128,352,137010,1,0,0:0:0:0:
96,224,137176,1,2,0:0:0:0:
224,224,137343,1,2,0:0:0:0:
352,224,137510,1,2,0:0:0:0:
320,96,137676,6,0,L|320:32,1,52.8900008070374
256,96,138009,2,0,L|256:69,2,26.4450004035187
160,43,138342,2,0,L|160:96,1,52.8900008070374,2|0,0:0|0:0,0:0:0:0:
160,160,138676,1,0,0:0:0:0:
160,276,138843,6,0,L|160:224,1,52.8900008070374
224,276,139176,2,0,L|224:249,2,26.4450004035187
320,276,139509,2,0,L|320:223,1,52.8900008070374,2|0,0:0|0:0,0:0:0:0:
320,160,139843,1,0,0:0:0:0:
448,96,140009,6,0,L|320:96,1,129
288,96,140425,1,0,0:0:0:0:
256,96,140509,1,0,0:0:0:0:
224,224,140675,1,2,0:0:0:0:
352,224,140842,1,2,0:0:0:0:
480,224,141009,1,2,0:0:0:0:
448,96,141176,6,0,L|320:96,1,129
288,96,141592,1,0,0:0:0:0:
256,96,141676,1,0,0:0:0:0:
224,224,141842,1,2,0:0:0:0:
352,224,142009,1,2,0:0:0:0:
480,224,142176,1,2,0:0:0:0:
448,96,142342,1,0,0:0:0:0:
256,96,142676,6,0,L|320:96,1,64.5
384,96,142926,1,0,0:0:0:0:
384,64,143009,1,2,0:0:0:0:
256,192,143343,2,0,L|320:192,1,64.5
384,192,143593,1,0,0:0:0:0:
384,160,143676,1,2,0:0:0:0:
256,288,144009,2,0,L|320:288,1,64.5
384,288,144259,1,0,0:0:0:0:
384,256,144342,1,2,0:0:0:0:
512,256,144509,1,2,0:0:0:0:
512,128,144676,6,0,L|384:128,1,129
352,128,145092,1,0,0:0:0:0:
320,128,145176,1,0,0:0:0:0:
256,256,145342,6,0,L|320:256,1,64.5
352,256,145593,1,0,0:0:0:0:
384,256,145676,1,2,0:0:0:0:
160,259,146009,1,0,0:0:0:0:
160,259,146176,1,0,0:0:0:0:
160,160,146343,1,2,0:0:0:0:
160,160,146426,1,0,0:0:0:0:
288,0,146676,6,0,L|160:0,1,129,0|2,0:0|0:0,0:0:0:0:
384,3,147343,1,0,0:0:0:0:
384,3,147509,1,0,0:0:0:0:
384,96,147676,2,0,L|384:160,1,64.5,2|0,0:0|0:0,0:0:0:0:
480,256,148009,5,0,0:0:0:0:
384,256,148176,1,0,0:0:0:0:
384,352,148343,1,2,0:0:0:0:
288,352,148509,1,0,0:0:0:0:
288,256,148676,1,0,0:0:0:0:
192,256,148843,1,0,0:0:0:0:
192,160,149009,1,2,0:0:0:0:
288,160,149176,1,0,0:0:0:0:
288,64,149343,5,0,0:0:0:0:
288,64,149509,1,0,0:0:0:0:
192,64,149676,1,2,0:0:0:0:
192,64,149759,1,2,0:0:0:0:
384,64,150009,1,0,0:0:0:0:
384,64,150175,1,0,0:0:0:0:
384,160,150342,1,2,0:0:0:0:
384,160,150426,2,0,L|384:192,1,32.25,2|0,0:0|0:0,0:0:0:0:
384,320,150676,6,0,L|224:320,1,129,0|2,0:0|0:0,0:0:0:0:
256,224,151176,1,0,0:0:0:0:
160,224,151343,1,0,0:0:0:0:
160,128,151509,1,0,0:0:0:0:
256,131,151676,1,2,0:0:0:0:
256,131,151759,1,0,0:0:0:0:
64,128,152009,6,0,L|64:256,2,129,0|2|0,0:0|0:0|0:0,0:0:0:0:
160,128,152843,1,0,0:0:0:0:
160,224,153009,1,2,0:0:0:0:
256,224,153176,1,0,0:0:0:0:
256,128,153343,5,0,0:0:0:0:
352,128,153509,1,0,0:0:0:0:
352,224,153676,1,2,0:0:0:0:
256,224,153843,1,0,0:0:0:0:
256,320,154009,1,0,0:0:0:0:
160,320,154176,1,0,0:0:0:0:
160,224,154343,1,2,0:0:0:0:
64,224,154509,1,0,0:0:0:0:
64,320,154676,5,0,0:0:0:0:
64,320,154843,1,0,0:0:0:0:
160,320,155009,1,2,0:0:0:0:
160,320,155093,1,2,0:0:0:0:
352,320,155343,1,0,0:0:0:0:
352,320,155510,1,0,0:0:0:0:
256,320,155676,1,2,0:0:0:0:
256,320,155759,2,0,L|256:272,1,32.25,2|0,0:0|0:0,0:0:0:0:
256,128,156009,6,0,L|256:96,2,32.25
320,96,156259,2,0,L|352:96,2,32.25,0|2|0,0:0|0:0|0:0,0:0:0:0:
352,160,156509,2,0,L|352:192,2,32.25
288,192,156759,2,0,L|256:192,2,32.25
256,256,157009,2,0,L|256:288,2,32.25,2|0|0,0:0|0:0|0:0,0:0:0:0:
320,288,157259,6,0,L|352:288,2,32.25
352,224,157509,2,0,L|352:192,2,32.25,0|0|2,0:0|0:0|0:0,0:0:0:0:
288,192,157759,2,0,L|256:192,2,32.25
256,256,158009,2,0,L|256:288,2,32.25
192,256,158259,2,0,L|160:256,2,32.25,0|2|0,0:0|0:0|0:0,0:0:0:0:
195,192,158509,1,0,0:0:0:0:
195,192,158593,1,0,0:0:0:0:
195,192,158676,5,0,0:0:0:0:
195,96,158843,1,0,0:0:0:0:
288,96,159009,1,2,0:0:0:0:
288,192,159176,1,0,0:0:0:0:
384,192,159343,1,0,0:0:0:0:
384,96,159509,1,0,0:0:0:0:
288,96,159676,1,2,0:0:0:0:
288,192,159842,1,0,0:0:0:0:
288,288,160009,5,0,0:0:0:0:
288,288,160176,1,0,0:0:0:0:
384,288,160342,1,2,0:0:0:0:
384,288,160426,1,2,0:0:0:0:
192,288,160676,1,0,0:0:0:0:
192,288,160843,1,0,0:0:0:0:
288,288,161009,1,2,0:0:0:0:
288,288,161092,2,0,L|288:256,1,32.25,2|0,0:0|0:0,0:0:0:0:
288,128,161342,6,0,L|192:128,1,96.75
128,128,161676,2,0,L|128:192,1,64.5,2|0,0:0|0:0,0:0:0:0:
128,64,162009,1,0,0:0:0:0:
128,64,162176,1,0,0:0:0:0:
32,64,162342,1,2,0:0:0:0:
32,64,162426,1,0,0:0:0:0:
224,64,162676,6,0,L|224:192,2,129,0|2|0,0:0|0:0|0:0,0:0:0:0:
320,64,163509,1,0,0:0:0:0:
416,64,163676,1,2,0:0:0:0:
416,160,163842,1,0,0:0:0:0:
416,192,163926,1,0,0:0:0:0:
416,224,164009,5,0,0:0:0:0:
320,224,164176,1,0,0:0:0:0:
320,320,164342,1,2,0:0:0:0:
224,320,164509,1,0,0:0:0:0:
224,224,164675,1,0,0:0:0:0:
128,224,164842,1,0,0:0:0:0:
128,128,165009,1,2,0:0:0:0:
224,128,165176,1,0,0:0:0:0:
224,32,165342,5,0,0:0:0:0:
227,35,165509,1,0,0:0:0:0:
320,32,165676,1,0,0:0:0:0:
320,128,165842,1,2,0:0:0:0:
320,128,165926,2,0,L|320:224,1,96.75,2|0,0:0|0:0,0:0:0:0:
320,320,166342,2,0,L|320:288,2,32.25,2|2|0,0:0|0:0|0:0,0:0:0:0:
192,320,166676,6,0,L|192:224,1,96.7500036907197
192,96,167176,1,2,0:0:0:0:
320,96,167342,2,0,L|368:96,2,48.3750018453599
64,96,168009,6,0,L|64:144,1,48.3750018453599
67,240,168342,1,0,0:0:0:0:
67,240,168509,1,0,0:0:0:0:
160,240,168676,2,0,L|256:240,1,96.7500036907197,2|0,0:0|0:0,0:0:0:0:
256,112,169176,1,0,0:0:0:0:
384,112,169342,6,0,L|480:112,1,96.7500036907197
480,208,169842,2,0,L|384:208,1,96.7500036907197,2|0,0:0|0:0,0:0:0:0:
384,304,170342,2,0,L|384:352,1,48.3750018453599,2|0,0:0|0:0,0:0:0:0:
256,352,170676,6,0,L|256:304,1,48.3750018453599
256,208,171009,1,0,0:0:0:0:
32,208,171342,1,2,0:0:0:0:
128,208,171509,1,0,0:0:0:0:
128,80,171676,1,0,0:0:0:0:
256,80,171842,1,0,0:0:0:0:
384,80,172009,6,0,L|384:176,1,96.7500036907197
384,304,172509,1,2,0:0:0:0:
256,304,172675,1,0,0:0:0:0:
256,176,172842,1,0,0:0:0:0:
128,176,173009,1,0,0:0:0:0:
256,48,173342,6,0,L|352:48,1,96.7500036907197
128,176,174009,2,0,L|64:176,2,64.5000024604798,2|0|0,0:0|0:0|0:0,0:0:0:0:
256,80,174676,6,0,L|256:176,1,96.7500036907197
352,176,175176,2,0,L|352:80,1,96.7500036907197,2|0,0:0|0:0,0:0:0:0:
448,80,175676,2,0,L|496:80,1,48.3750018453599
496,176,176009,6,0,L|447:176,1,48.3750018453599
352,176,176342,1,0,0:0:0:0:
352,352,176676,1,2,0:0:0:0:
256,352,176842,1,2,0:0:0:0:
256,256,177009,1,0,0:0:0:0:
352,176,177176,1,0,0:0:0:0:
352,48,177342,6,0,L|352:23,2,24.1875009226799
286,23,177592,2,0,L|261:23,2,24.1875009226799
261,88,177842,2,0,L|261:112,2,24.1875009226799,2|0|0,0:0|0:0|0:0,0:0:0:0:
326,112,178092,2,0,L|350:112,2,24.1875009226799
350,177,178342,6,0,L|350:201,2,24.1875009226799
284,201,178592,2,0,L|259:201,2,24.1875009226799
259,266,178842,2,0,L|259:290,2,24.1875009226799
324,290,179092,2,0,L|348:290,2,24.1875009226799
350,225,179342,2,0,L|350:200,2,24.1875009226799,2|0|0,0:0|0:0|0:0,0:0:0:0:
415,200,179592,2,0,L|439:200,2,24.1875009226799
439,265,179842,2,0,L|439:300,1,24.1875009226799
439,352,180009,5,0,0:0:0:0:
439,352,180094,2,0,L|367:352,1,72.5625027680398
366,256,180523,2,0,L|366:160,1,96.7500036907197,2|0,0:0|0:0,0:0:0:0:
366,64,181037,1,2,0:0:0:0:
176,64,181380,6,0,L|176:112,1,48.3750018453599
176,208,181732,1,0,0:0:0:0:
366,64,182085,2,0,L|366:112,1,48.3750018453599,2|0,0:0|0:0,0:0:0:0:
366,208,182437,1,0,0:0:0:0:
176,304,182791,6,0,L|288:304,1,96.7500036907197
272,208,183353,2,0,L|160:208,1,96.7500036907197,2|0,0:0|0:0,0:0:0:0:
80,208,183916,1,0,0:0:0:0:
272,112,184291,6,0,L|320:112,1,48.3750018453599
416,115,184685,1,0,0:0:0:0:
416,115,184883,1,0,0:0:0:0:
416,208,185080,1,2,0:0:0:0:
176,208,185475,2,0,L|176:256,1,48.3750018453599
176,288,185771,1,0,0:0:0:0:
208,288,185869,6,0,L|304:288,1,96.7500036907197
304,192,186494,2,0,L|304:96,1,96.7500036907197,2|0,0:0|0:0,0:0:0:0:
208,96,187119,1,2,0:0:0:0:
400,96,187535,6,0,L|480:96,1,64.5000024604798
464,160,187976,2,0,L|464:192,1,32.2500012302399,0|2,0:0|0:0,0:0:0:0:
208,192,188417,2,0,L|208:160,2,32.2500012302399
144,192,188858,2,0,L|112:192,1,32.2500012302399
336,192,189299,5,0,0:0:0:0:
320,224,203515,6,0,L|448:224,1,128.139993058823
448,128,204404,2,0,L|320:128,1,128.139993058823,2|0,0:0|0:0,0:0:0:0:
224,128,205293,1,0,0:0:0:0:
224,224,205589,1,0,0:0:0:0:
224,320,205885,1,0,0:0:0:0:
128,320,206181,1,2,0:0:0:0:
64,32,207070,6,0,L|192:32,1,128.139993058823
192,128,207958,2,0,L|128:128,2,64.0699965294115,2|0|0,0:0|0:0|0:0,0:0:0:0:
128,224,208847,2,0,L|0:224,1,128.139993058823
0,128,209735,1,2,0:0:0:0:
0,320,210328,1,0,0:0:0:0:
128,320,210624,6,0,L|256:320,1,128.139993058823
256,224,211512,2,0,L|128:224,1,128.139993058823,2|0,0:0|0:0,0:0:0:0:
128,128,212401,1,0,0:0:0:0:
224,128,212697,1,0,0:0:0:0:
320,128,212993,1,0,0:0:0:0:
320,32,213290,1,2,0:0:0:0:
448,288,214178,6,0,L|320:288,1,128.139993058823
320,192,215067,2,0,L|448:192,1,128.139993058823,2|0,0:0|0:0,0:0:0:0:
448,96,215955,1,0,0:0:0:0:
352,96,216251,1,0,0:0:0:0:
256,96,216548,1,0,0:0:0:0:
256,192,216844,2,0,L|256:256,2,64.0699965294115,2|0|0,0:0|0:0|0:0,0:0:0:0:
128,192,217732,6,0,L|64:192,2,64.0699965294115
128,96,218621,2,0,L|128:32,2,64.0699965294115,2|0|0,0:0|0:0|0:0,0:0:0:0:
224,96,219510,1,0,0:0:0:0:
128,96,219806,1,0,0:0:0:0:
128,192,220102,1,0,0:0:0:0:
224,192,220398,2,0,L|224:256,2,64.0699965294115,2|0|0,0:0|0:0|0:0,0:0:0:0:
320,256,221287,6,0,L|448:256,2,128.139993058823
96,352,223064,2,0,L|224:352,1,128.139993058823
224,256,223952,2,0,L|96:256,1,128.139993058823,2|0,0:0|0:0,0:0:0:0:
96,144,224841,6,0,L|128:144,1,32.0349982647058
192,144,225137,2,0,L|224:144,1,32.0349982647058
288,144,225433,2,0,L|320:144,1,32.0349982647058
320,48,225729,2,0,L|288:48,1,32.0349982647058,2|0,0:0|0:0,0:0:0:0:
224,48,226025,2,0,L|192:48,1,32.0349982647058
96,48,226322,2,0,L|96:80,1,32.0349982647058
0,80,226618,6,0,L|0:48,1,32.0349982647058
0,144,226914,2,0,L|0:176,1,32.0349982647058
0,240,227210,2,0,L|0:272,1,32.0349982647058
96,272,227507,2,0,L|96:240,1,32.0349982647058,2|0,0:0|0:0,0:0:0:0:
96,176,227803,2,0,L|96:144,1,32.0349982647058
96,80,228099,2,0,L|96:48,1,32.0349982647058
224,48,228395,6,0,L|224:176,1,128.139993058823
320,176,229284,2,0,L|320:48,1,128.139993058823,2|0,0:0|0:0,0:0:0:0:
416,48,230172,2,0,L|480:48,2,64.0699965294115
416,144,231061,1,2,0:0:0:0:
96,144,231949,5,0,0:0:0:0:
256,192,232172,12,0,237281,0:0:0:0:
