osu file format v14

[General]
AudioFilename: Audio Error.mp3
AudioLeadIn: 0
PreviewTime: 11010
Countdown: 0
SampleSet: None
StackLeniency: 0.4
Mode: 0
LetterboxInBreaks: 0
WidescreenStoryboard: 1

[Editor]
Bookmarks: 48176,58843,69510
DistanceSpacing: 1
BeatDivisor: 3
GridSize: 8
TimelineZoom: 2.849999

[Metadata]
Title:Jump Error
TitleUnicode:Jump Error
Artist:Disasterpeace
ArtistUnicode:Disasterpeace
Creator:Bonsai
Version:Hard
Source:
Tags:Rise of the Obsidian Interstellar 8-bit 8bit chipmusic chiptune progressive soundtrack space videogame
BeatmapID:999184
BeatmapSetID:426652

[Difficulty]
HPDrainRate:4.5
CircleSize:4.8
OverallDifficulty:6.5
ApproachRate:7.5
SliderMultiplier:1.29
SliderTickRate:1

[Events]
//Background and Video events
0,0,"Background Error.jpg",0,0
Video,0,"Video Error.avi"
//Break Periods
2,112009,129851
2,189499,202690
//Storyboard Layer 0 (Background)
//Storyboard Layer 1 (Fail)
//Storyboard Layer 2 (Pass)
//Storyboard Layer 3 (Foreground)
//Storyboard Sound Samples

[TimingPoints]
343.652173913044,333.333333333333,4,3,0,30,1,0
101510,333.333333333333,4,3,0,30,1,0
109843,333.333333333333,4,3,0,30,1,0
112009,333.333333333333,4,3,0,30,1,0
113176,333.333333333333,4,3,0,30,1,0
114343,333.333333333333,4,3,0,30,1,0
115509,333.333333333333,4,3,0,30,1,0
116676,333.333333333333,4,3,0,30,1,0
117843,333.333333333333,4,3,0,30,1,0
119009,333.333333333333,4,3,0,30,1,0
120176,333.333333333333,4,3,0,30,1,0
121343,333.333333333333,4,3,0,10,1,0
122509,333.333333333333,4,3,0,10,1,0
123676,333.333333333333,4,3,0,10,1,0
124843,333.333333333333,4,3,0,10,1,0
126009,333.333333333333,4,3,0,10,1,0
127176,333.333333333333,4,3,0,10,1,0
128343,333.333333333333,4,3,0,10,1,0
129509,333.333333333333,4,3,0,5,1,0
130676,333.333333333333,4,3,0,30,1,0
131843,333.333333333333,4,3,0,30,1,0
133009,333.333333333333,4,3,0,30,1,0
134176,333.333333333333,4,3,0,30,1,0
135343,333.333333333333,4,3,0,30,1,0
136509,333.333333333333,4,3,0,30,1,0
137676,333.333333333333,4,3,0,30,1,0
138843,333.333333333333,4,3,0,30,1,0
140009,333.333333333333,4,3,0,30,1,0
141176,333.333333333333,4,3,0,30,1,0
142343,333.333333333333,4,3,0,30,1,0
143509,333.333333333333,4,3,0,30,1,0
144676,333.333333333333,4,3,0,30,1,0
145343,333.333333333333,4,3,0,30,1,0
166676,-135.135135135135,4,3,0,30,0,0
180009,342.857142857143,4,3,0,30,1,0
180009,-135.135135135135,4,3,0,30,0,0
181380,352.941176470588,4,3,0,30,1,0
181380,-135.135135135135,4,3,0,30,0,0
182791,375,4,3,0,30,1,0
182791,-135.135135135135,4,3,0,30,0,0
184291,394.736842105263,4,3,0,30,1,0
184291,-135.135135135135,4,3,0,30,0,0
185869,416.666666666667,4,3,0,30,1,0
185869,-135.135135135135,4,3,0,30,0,0
187535,441.176470588235,4,3,0,30,1,0
187535,-135.135135135135,4,3,0,30,0,0
189299,888.559792669382,4,3,0,30,1,0
189299,-67.1140939597315,4,3,0,30,0,0
232394,-67.1140939597315,4,3,0,27,0,0
232838,-67.1140939597315,4,3,0,24,0,0
233282,-67.1140939597315,4,3,0,21,0,0
233726,-67.1140939597315,4,3,0,19,0,0
234171,-67.1140939597315,4,3,0,17,0,0
234615,-67.1140939597315,4,3,0,15,0,0
235059,-67.1140939597315,4,3,0,13,0,0
235504,-67.1140939597315,4,3,0,11,0,0
235948,-67.1140939597315,4,3,0,9,0,0
236392,-67.1140939597315,4,3,0,7,0,0
236836,-67.1140939597315,4,3,10,5,0,0

[Colours]
Combo1 : 131,182,61
Combo2 : 217,64,152
Combo3 : 224,160,12
Combo4 : 190,31,231

[HitObjects]
160,64,5343,5,2,0:0:0:0:
160,224,5676,5,0,0:0:0:0:
160,224,5843,2,0,L|224:224,1,64.5,2|0,0:0|0:0,0:0:0:0:
224,64,6343,2,0,L|160:64,1,64.5,0|2,0:0|0:0,0:0:0:0:
128,67,6593,1,0,0:0:0:0:
128,67,6676,1,0,0:0:0:0:
288,128,7010,5,0,0:0:0:0:
288,192,7176,1,0,0:0:0:0:
288,256,7343,1,0,0:0:0:0:
384,256,7510,1,2,0:0:0:0:
192,256,7843,2,0,L|192:320,1,64.5,2|0,0:0|0:0,0:0:0:0:
0,256,8343,5,0,0:0:0:0:
0,256,8510,2,0,L|64:256,1,64.5,2|0,0:0|0:0,0:0:0:0:
128,96,9010,1,0,0:0:0:0:
128,96,9176,2,0,L|64:96,1,64.5,2|0,0:0|0:0,0:0:0:0:
224,224,9676,5,0,0:0:0:0:
224,160,9843,1,0,0:0:0:0:
224,96,10010,1,0,0:0:0:0:
320,96,10176,2,0,L|384:96,1,64.5,2|0,0:0|0:0,0:0:0:0:
416,99,10426,1,0,0:0:0:0:
416,99,10510,1,2,0:0:0:0:
320,352,11010,6,0,L|320:288,2,64.5,0|2|0,0:0|0:0|0:0,0:0:0:0:
224,192,11676,2,0,L|224:256,1,64.5,0|2,0:0|0:0,0:0:0:0:
227,288,11926,1,0,0:0:0:0:
227,288,12009,1,0,0:0:0:0:
64,192,12343,6,0,L|0:192,1,64.5,0|0,0:0|0:0,0:0:0:0:
0,128,12676,1,0,0:0:0:0:
63,64,12843,2,0,L|192:64,1,129,2|2,0:0|0:0,0:0:0:0:
256,64,13343,1,0,0:0:0:0:
128,192,13676,6,0,L|128:256,2,64.5,0|2|0,0:0|0:0|0:0,0:0:0:0:
320,192,14343,2,0,L|320:128,2,64.5,0|2|0,0:0|0:0|0:0,0:0:0:0:
512,192,15010,6,0,L|512:256,1,64.5,0|0,0:0|0:0,0:0:0:0:
512,320,15343,1,0,0:0:0:0:
416,320,15510,2,0,L|416:256,1,64.5,2|0,0:0|0:0,0:0:0:0:
416,224,15760,1,0,0:0:0:0:
416,224,15843,2,0,L|352:224,1,64.5,0|2,0:0|0:0,0:0:0:0:
416,64,16343,6,0,L|416:128,2,64.5,0|2|0,0:0|0:0|0:0,0:0:0:0:
288,192,17010,2,0,L|288:128,2,64.5,0|2|0,0:0|0:0|0:0,0:0:0:0:
160,64,17676,6,0,L|160:128,1,64.5,0|0,0:0|0:0,0:0:0:0:
160,192,18010,1,0,0:0:0:0:
64,192,18176,2,0,L|0:192,2,64.5,2|0|2,0:0|0:0|0:0,0:0:0:0:
67,128,18676,1,0,0:0:0:0:
67,128,18760,1,0,0:0:0:0:
64,288,19010,6,0,L|128:288,2,64.5,0|2|0,0:0|0:0|0:0,0:0:0:0:
256,288,19676,2,0,L|192:288,2,64.5,0|2|0,0:0|0:0|0:0,0:0:0:0:
256,96,20343,6,0,L|256:160,1,64.5,0|0,0:0|0:0,0:0:0:0:
256,224,20676,1,0,0:0:0:0:
320,160,20843,2,0,L|320:96,1,64.5,2|0,0:0|0:0,0:0:0:0:
320,64,21093,1,0,0:0:0:0:
320,64,21176,2,0,L|384:64,1,64.5,0|2,0:0|0:0,0:0:0:0:
384,256,21676,6,0,L|320:256,1,64.5,0|2,0:0|0:0,0:0:0:0:
256,256,22010,1,0,0:0:0:0:
192,256,22176,1,0,0:0:0:0:
128,256,22343,2,0,L|128:320,1,64.5,0|2,0:0|0:0,0:0:0:0:
64,320,22676,1,0,0:0:0:0:
64,256,22843,1,0,0:0:0:0:
64,192,23010,6,0,L|0:192,1,64.5,0|0,0:0|0:0,0:0:0:0:
0,128,23343,1,0,0:0:0:0:
64,128,23510,2,0,L|64:64,2,64.5,2|0|2,0:0|0:0|0:0,0:0:0:0:
131,131,24010,1,0,0:0:0:0:
288,64,24343,6,0,L|288:128,1,64.5,0|2,0:0|0:0,0:0:0:0:
288,192,24676,1,0,0:0:0:0:
288,256,24843,1,0,0:0:0:0:
288,320,25010,2,0,L|352:320,1,64.5,0|2,0:0|0:0,0:0:0:0:
352,256,25343,1,0,0:0:0:0:
416,256,25510,1,0,0:0:0:0:
416,320,25676,6,0,L|480:320,1,64.5,0|0,0:0|0:0,0:0:0:0:
480,256,26010,2,0,L|480:192,1,64.5,0|2,0:0|0:0,0:0:0:0:
416,192,26343,2,0,L|384:192,2,32.25,0|0|0,0:0|0:0|0:0,0:0:0:0:
416,128,26676,1,2,0:0:0:0:
224,128,27010,6,0,L|224:192,1,64.5,0|2,0:0|0:0,0:0:0:0:
224,256,27343,1,0,0:0:0:0:
224,320,27510,1,0,0:0:0:0:
160,320,27676,2,0,L|96:320,1,64.5,0|2,0:0|0:0,0:0:0:0:
96,256,28010,1,0,0:0:0:0:
160,256,28176,1,0,0:0:0:0:
160,192,28343,6,0,L|160:128,1,64.5,0|0,0:0|0:0,0:0:0:0:
160,64,28676,1,0,0:0:0:0:
224,64,28843,2,0,L|288:64,2,64.5,2|0|2,0:0|0:0|0:0,0:0:0:0:
224,0,29343,1,0,0:0:0:0:
64,64,29676,6,0,L|64:128,1,64.5,0|2,0:0|0:0,0:0:0:0:
64,192,30009,1,0,0:0:0:0:
64,256,30176,1,0,0:0:0:0:
128,256,30343,2,0,L|192:256,1,64.5,0|2,0:0|0:0,0:0:0:0:
192,320,30676,1,0,0:0:0:0:
256,320,30843,1,0,0:0:0:0:
256,256,31009,6,0,L|320:256,1,64.5,0|0,0:0|0:0,0:0:0:0:
384,256,31343,2,0,L|384:320,1,64.5,0|2,0:0|0:0,0:0:0:0:
448,320,31676,1,0,0:0:0:0:
464,320,31760,1,0,0:0:0:0:
480,320,31843,2,0,L|480:288,1,32.25,0|0,0:0|0:0,0:0:0:0:
480,240,32010,2,0,L|448:240,2,32.25,2|2|0,0:0|0:0|0:0,0:0:0:0:
480,160,32343,6,0,L|480:96,1,64.5,0|2,0:0|0:0,0:0:0:0:
416,96,32676,1,0,0:0:0:0:
352,96,32843,1,0,0:0:0:0:
288,96,33010,2,0,L|288:160,1,64.5,0|2,0:0|0:0,0:0:0:0:
224,160,33343,1,0,0:0:0:0:
160,160,33510,1,0,0:0:0:0:
96,160,33676,6,0,L|96:96,2,64.5,0|0|0,0:0|0:0|0:0,0:0:0:0:
96,224,34176,2,0,L|96:288,2,64.5,2|0|2,0:0|0:0|0:0,0:0:0:0:
32,224,34676,2,0,L|0:224,2,32.25,0|0|0,0:0|0:0|0:0,0:0:0:0:
32,128,35010,6,0,L|32:64,1,64.5,0|2,0:0|0:0,0:0:0:0:
96,64,35343,1,0,0:0:0:0:
160,64,35510,1,0,0:0:0:0:
224,64,35676,2,0,L|224:128,1,64.5,0|2,0:0|0:0,0:0:0:0:
288,128,36010,1,0,0:0:0:0:
352,128,36176,1,0,0:0:0:0:
416,128,36343,6,0,L|416:64,2,64.5,0|0|0,0:0|0:0|0:0,0:0:0:0:
416,192,36843,2,0,L|416:256,1,64.5,2|0,0:0|0:0,0:0:0:0:
416,288,37093,1,0,0:0:0:0:
416,288,37176,2,0,L|352:288,1,64.5,0|2,0:0|0:0,0:0:0:0:
160,288,37676,6,0,L|160:352,2,64.5,0|2|0,0:0|0:0|0:0,0:0:0:0:
160,224,38176,1,0,0:0:0:0:
96,224,38343,2,0,L|32:224,1,64.5,0|2,0:0|0:0,0:0:0:0:
96,160,38676,6,0,L|96:96,2,64.5,0|0|0,0:0|0:0|0:0,0:0:0:0:
160,160,39176,1,0,0:0:0:0:
224,160,39343,2,0,L|224:96,1,64.5,0|2,0:0|0:0,0:0:0:0:
288,96,39676,2,0,L|288:160,1,64.5,0|2,0:0|0:0,0:0:0:0:
352,160,40010,1,0,0:0:0:0:
512,224,40343,6,0,L|512:160,2,64.5,0|2|0,0:0|0:0|0:0,0:0:0:0:
512,288,40843,1,0,0:0:0:0:
448,288,41010,2,0,L|384:288,1,64.5,0|2,0:0|0:0,0:0:0:0:
448,224,41343,6,0,L|448:160,2,64.5,0|0|0,0:0|0:0|0:0,0:0:0:0:
384,224,41843,1,0,0:0:0:0:
320,224,42010,2,0,L|320:288,1,64.5,0|2,0:0|0:0,0:0:0:0:
384,352,42343,2,0,L|320:352,1,64.5,0|0,0:0|0:0,0:0:0:0:
256,352,42676,1,2,0:0:0:0:
96,288,43010,6,0,L|96:352,2,64.5,0|2|0,0:0|0:0|0:0,0:0:0:0:
96,224,43510,1,0,0:0:0:0:
160,224,43676,2,0,L|224:224,1,64.5,0|2,0:0|0:0,0:0:0:0:
160,160,44010,6,0,L|96:160,2,64.5,0|0|0,0:0|0:0|0:0,0:0:0:0:
160,96,44510,1,0,0:0:0:0:
160,32,44676,2,0,L|96:32,1,64.5,0|2,0:0|0:0,0:0:0:0:
96,96,45010,2,0,L|32:96,1,64.5,0|2,0:0|0:0,0:0:0:0:
32,32,45343,1,0,0:0:0:0:
224,96,45676,6,0,L|224:32,2,64.5,0|2|0,0:0|0:0|0:0,0:0:0:0:
224,160,46176,1,0,0:0:0:0:
288,160,46343,2,0,L|352:160,1,64.5,0|2,0:0|0:0,0:0:0:0:
352,96,46676,5,0,0:0:0:0:
352,96,46760,1,0,0:0:0:0:
352,96,46843,2,0,L|352:32,2,64.5,0|0|0,0:0|0:0|0:0,0:0:0:0:
416,96,47343,2,0,L|480:96,1,64.5,0|2,0:0|0:0,0:0:0:0:
480,160,47676,1,0,0:0:0:0:
416,160,47843,1,0,0:0:0:0:
416,224,48009,1,2,0:0:0:0:
480,224,48176,5,0,0:0:0:0:
480,288,48343,2,0,L|480:352,1,64.5,0|2,0:0|0:0,0:0:0:0:
416,352,48676,1,0,0:0:0:0:
352,352,48843,1,0,0:0:0:0:
288,352,49010,2,0,L|288:320,2,32.25,0|0|2,0:0|0:0|0:0,0:0:0:0:
224,352,49343,1,0,0:0:0:0:
224,288,49510,5,0,0:0:0:0:
160,288,49676,2,0,L|96:288,2,64.5,0|0|0,0:0|0:0|0:0,0:0:0:0:
160,224,50176,2,0,L|160:160,1,64.5,2|0,0:0|0:0,0:0:0:0:
96,224,50510,2,0,L|96:160,1,64.5,2|0,0:0|0:0,0:0:0:0:
32,224,50843,5,0,0:0:0:0:
32,160,51010,2,0,L|32:96,1,64.5,0|2,0:0|0:0,0:0:0:0:
96,96,51343,1,0,0:0:0:0:
160,96,51510,1,0,0:0:0:0:
224,96,51676,2,0,L|224:32,1,64.5,0|2,0:0|0:0,0:0:0:0:
288,32,52010,1,0,0:0:0:0:
352,32,52176,6,0,L|352:64,2,32.25,0|0|0,0:0|0:0|0:0,0:0:0:0:
416,32,52510,2,0,L|416:0,2,32.25,0|0|0,0:0|0:0|0:0,0:0:0:0:
480,32,52843,1,2,0:0:0:0:
496,32,52926,1,0,0:0:0:0:
512,32,53009,2,0,L|512:96,2,64.5,0|0|2,0:0|0:0|0:0,0:0:0:0:
448,96,53510,5,0,0:0:0:0:
448,160,53676,2,0,L|448:224,1,64.5,0|2,0:0|0:0,0:0:0:0:
448,288,54010,1,0,0:0:0:0:
448,352,54176,1,0,0:0:0:0:
384,352,54343,2,0,L|352:352,2,32.25,0|0|2,0:0|0:0|0:0,0:0:0:0:
384,288,54676,1,0,0:0:0:0:
320,288,54843,5,0,0:0:0:0:
320,224,55010,2,0,L|320:160,2,64.5,0|0|0,0:0|0:0|0:0,0:0:0:0:
256,224,55510,2,0,L|192:224,1,64.5,2|0,0:0|0:0,0:0:0:0:
256,288,55843,2,0,L|192:288,1,64.5,2|0,0:0|0:0,0:0:0:0:
256,352,56176,5,0,0:0:0:0:
192,352,56343,2,0,L|128:352,1,64.5,0|2,0:0|0:0,0:0:0:0:
64,352,56676,1,0,0:0:0:0:
0,352,56843,1,0,0:0:0:0:
0,288,57010,2,0,L|64:288,1,64.5,0|2,0:0|0:0,0:0:0:0:
128,288,57343,1,0,0:0:0:0:
192,288,57510,6,0,L|192:320,2,32.25,0|0|0,0:0|0:0|0:0,0:0:0:0:
256,288,57843,2,0,L|256:256,2,32.25,0|0|0,0:0|0:0|0:0,0:0:0:0:
320,288,58176,1,2,0:0:0:0:
336,288,58260,1,0,0:0:0:0:
352,288,58343,1,0,0:0:0:0:
416,288,58510,2,0,L|448:288,2,32.25,2|0|0,0:0|0:0|0:0,0:0:0:0:
416,224,58843,6,0,L|480:224,2,64.5,0|0|0,0:0|0:0|0:0,0:0:0:0:
352,224,59343,1,0,0:0:0:0:
352,64,59676,2,0,L|256:64,1,96.75,2|0,0:0|0:0,0:0:0:0:
224,64,60010,1,0,0:0:0:0:
224,128,60176,6,0,L|224:192,2,64.5
320,128,60676,1,0,0:0:0:0:
320,192,60843,2,0,L|320:256,1,64.5,0|2,0:0|0:0,0:0:0:0:
320,320,61176,1,0,0:0:0:0:
384,320,61343,5,0,0:0:0:0:
400,320,61426,1,0,0:0:0:0:
416,320,61510,2,0,L|480:320,2,64.5
384,256,62010,1,0,0:0:0:0:
224,256,62343,2,0,L|128:256,1,96.75,2|0,0:0|0:0,0:0:0:0:
96,256,62676,1,0,0:0:0:0:
32,256,62843,6,0,L|0:256,2,32.25
32,192,63176,2,0,L|64:192,2,32.25,0|0|0,0:0|0:0|0:0,0:0:0:0:
32,128,63510,1,0,0:0:0:0:
32,112,63593,1,0,0:0:0:0:
32,96,63676,2,0,L|32:32,1,64.5,2|0,0:0|0:0,0:0:0:0:
32,16,63926,1,0,0:0:0:0:
32,0,64010,1,0,0:0:0:0:
96,0,64176,6,0,L|160:0,2,64.5
96,64,64676,1,0,0:0:0:0:
256,64,65010,2,0,L|352:64,1,96.75,2|0,0:0|0:0,0:0:0:0:
416,64,65343,1,0,0:0:0:0:
416,128,65510,6,0,L|480:128,2,64.5
352,192,66010,1,0,0:0:0:0:
288,192,66176,2,0,L|224:192,1,64.5,0|2,0:0|0:0,0:0:0:0:
160,192,66510,1,0,0:0:0:0:
160,256,66676,5,0,0:0:0:0:
160,272,66760,1,0,0:0:0:0:
160,288,66843,2,0,L|240:288,2,64.5,0|0|0,0:0|0:0|0:0,0:0:0:0:
96,288,67343,1,0,0:0:0:0:
96,128,67676,2,0,L|192:128,1,96.75,2|0,0:0|0:0,0:0:0:0:
224,128,68010,1,0,0:0:0:0:
224,64,68176,6,0,L|224:32,2,32.25,0|0|0,0:0|0:0|0:0,0:0:0:0:
288,64,68509,2,0,L|320:64,2,32.25,0|0|0,0:0|0:0|0:0,0:0:0:0:
288,128,68843,1,0,0:0:0:0:
288,144,68926,1,0,0:0:0:0:
288,160,69009,2,0,L|288:224,1,64.5,2|0,0:0|0:0,0:0:0:0:
288,240,69260,1,0,0:0:0:0:
288,256,69343,1,0,0:0:0:0:
224,256,69510,6,0,L|224:128,1,129,0|0,0:0|0:0,0:0:0:0:
224,64,70010,1,2,0:0:0:0:
352,192,71843,5,0,0:0:0:0:
224,256,72176,2,0,L|224:128,1,129,0|0,0:0|0:0,0:0:0:0:
224,64,72676,1,2,0:0:0:0:
224,256,74843,6,0,L|224:128,1,129,0|0,0:0|0:0,0:0:0:0:
224,64,75343,1,2,0:0:0:0:
96,192,75926,5,0,0:0:0:0:
96,192,76010,2,0,L|64:192,2,32.25,0|0|0,0:0|0:0|0:0,0:0:0:0:
352,192,77176,5,0,0:0:0:0:
224,256,77510,2,0,L|224:128,1,129,0|0,0:0|0:0,0:0:0:0:
224,64,78010,1,2,0:0:0:0:
384,0,79509,5,0,0:0:0:0:
384,0,79593,1,0,0:0:0:0:
384,0,79676,2,0,L|384:64,1,64.5,0|0,0:0|0:0,0:0:0:0:
384,128,80010,1,0,0:0:0:0:
320,128,80176,6,0,L|320:257,1,129,0|0,0:0|0:0,0:0:0:0:
320,320,80676,2,0,L|192:320,6,129,2|2|2|2|2|2|2,0:0|0:0|0:0|0:0|0:0|0:0|0:0,0:0:0:0:
320,256,82843,6,0,L|320:127,1,129
321,64,83343,2,0,L|192:64,5,129,2|2|2|2|2|2,0:0|0:0|0:0|0:0|0:0|0:0,0:0:0:0:
256,144,85260,1,0,0:0:0:0:
256,144,85343,1,0,0:0:0:0:
192,144,85510,6,0,L|192:273,1,129
192,336,86010,2,0,L|321:336,5,129,2|2|2|2|2|2,0:0|0:0|0:0|0:0|0:0|0:0,0:0:0:0:
320,272,87843,1,0,0:0:0:0:
320,272,87926,2,0,L|272:272,1,32.25
288,208,88177,6,0,L|288:79,1,129
352,80,88676,2,0,L|416:80,2,64.5,2|0|0,0:0|0:0|0:0,0:0:0:0:
352,208,89343,2,0,L|416:208,1,64.5,2|0,0:0|0:0,0:0:0:0:
480,208,89676,6,0,L|480:272,1,64.5,0|0,0:0|0:0,0:0:0:0:
480,336,90010,1,0,0:0:0:0:
416,336,90176,1,0,0:0:0:0:
416,272,90343,2,0,L|416:208,2,64.5,2|2|2,0:0|0:0|0:0,0:0:0:0:
352,272,90843,6,0,L|224:272,1,129,0|0,0:0|0:0,0:0:0:0:
160,272,91343,2,0,L|31:272,2,129,0|0|0,0:0|0:0|0:0,0:0:0:0:
224,272,92176,1,2,0:0:0:0:
352,272,93510,6,0,L|224:272,1,129,0|0,0:0|0:0,0:0:0:0:
160,272,94010,2,0,L|31:272,2,129,0|0|0,0:0|0:0|0:0,0:0:0:0:
224,272,94843,1,2,0:0:0:0:
352,272,96176,6,0,L|224:272,1,129,0|0,0:0|0:0,0:0:0:0:
160,272,96676,2,0,L|31:272,2,129,0|0|0,0:0|0:0|0:0,0:0:0:0:
224,272,97509,1,2,0:0:0:0:
352,272,97843,1,2,0:0:0:0:
224,272,99176,5,0,0:0:0:0:
160,272,99343,2,0,L|31:272,2,129,0|2|0,0:0|0:0|0:0,0:0:0:0:
224,272,100176,2,0,L|224:304,2,32.25,0|0|0,0:0|0:0|0:0,0:0:0:0:
288,272,100510,1,2,0:0:0:0:
416,32,101510,6,0,L|256:32,1,129,0|0,0:0|0:0,0:0:0:0:
272,32,101926,1,0,0:0:0:0:
256,32,102010,1,0,0:0:0:0:
256,96,102176,1,0,0:0:0:0:
320,96,102343,2,0,L|480:96,1,129,0|0,0:0|0:0,0:0:0:0:
448,160,102843,6,0,L|448:256,1,96.75,2|0,0:0|0:0,0:0:0:0:
448,288,103176,2,0,L|384:288,1,64.5
320,288,103510,1,0,0:0:0:0:
320,160,103843,1,0,0:0:0:0:
192,160,104176,6,0,L|160:160,2,32.25,0|0|0,0:0|0:0|0:0,0:0:0:0:
256,160,104510,1,0,0:0:0:0:
256,224,104676,2,0,L|256:352,2,129
256,208,105426,1,0,0:0:0:0:
256,192,105510,6,0,L|336:192,1,64.5,2|0,0:0|0:0,0:0:0:0:
384,192,105843,1,0,0:0:0:0:
391,320,106176,1,0,0:0:0:0:
391,320,106260,1,0,0:0:0:0:
391,320,106343,1,0,0:0:0:0:
320,320,106510,2,0,L|288:320,2,32.25
320,256,106843,6,0,L|320:192,2,64.5,0|0|0,0:0|0:0|0:0,0:0:0:0:
256,256,107343,2,0,L|128:256,1,129,0|0,0:0|0:0,0:0:0:0:
111,256,107760,1,0,0:0:0:0:
96,256,107843,2,0,L|96:192,1,64.5,0|0,0:0|0:0,0:0:0:0:
96,128,108176,5,2,0:0:0:0:
224,128,108510,1,2,0:0:0:0:
224,256,108843,2,0,L|224:288,2,32.25,0|0|0,0:0|0:0|0:0,0:0:0:0:
224,192,109176,2,0,L|288:192,1,64.5,0|0,0:0|0:0,0:0:0:0:
288,128,109509,2,0,L|288:96,2,32.25
224,128,109843,6,0,L|160:128,1,64.5
144,128,110093,1,0,0:0:0:0:
128,128,110176,1,0,0:0:0:0:
64,128,110343,1,2,0:0:0:0:
64,192,110509,2,0,L|64:256,1,64.5,0|0,0:0|0:0,0:0:0:0:
64,320,110843,2,0,L|32:320,2,32.25
128,320,111176,1,2,0:0:0:0:
352,32,130676,6,0,L|480:32,2,129,0|0|2,0:0|0:0|0:0,0:0:0:0:
352,128,131509,1,2,0:0:0:0:
352,224,131676,1,2,0:0:0:0:
352,320,131842,6,0,L|480:320,2,129,0|0|2,0:0|0:0|0:0,0:0:0:0:
256,320,132676,1,2,0:0:0:0:
160,320,132843,1,2,0:0:0:0:
160,256,133009,6,0,L|160:192,1,64.5,0|0,0:0|0:0,0:0:0:0:
160,128,133342,2,0,L|160:64,1,64.5,0|0,0:0|0:0,0:0:0:0:
256,64,133675,2,0,L|256:128,2,64.5,2|0|0,0:0|0:0|0:0,0:0:0:0:
320,64,134176,6,0,L|416:64,1,64.5,0|0,0:0|0:0,0:0:0:0:
448,64,134509,2,0,L|544:64,1,64.5,0|0,0:0|0:0,0:0:0:0:
512,128,134842,2,0,L|448:128,1,64.5,2|0,0:0|0:0,0:0:0:0:
384,128,135176,1,0,0:0:0:0:
384,224,135343,6,0,L|384:352,2,129,0|0|2,0:0|0:0|0:0,0:0:0:0:
288,224,136176,1,2,0:0:0:0:
192,224,136343,1,2,0:0:0:0:
96,224,136509,6,0,L|96:352,2,129,0|0|2,0:0|0:0|0:0,0:0:0:0:
96,128,137343,1,2,0:0:0:0:
96,32,137510,1,2,0:0:0:0:
160,32,137675,5,0,0:0:0:0:
288,32,138009,2,0,L|288:64,2,32.25,0|0|0,0:0|0:0|0:0,0:0:0:0:
384,32,138342,2,0,L|384:96,2,64.5,2|0|0,0:0|0:0|0:0,0:0:0:0:
448,32,138842,1,0,0:0:0:0:
448,224,139176,6,0,L|448:192,2,32.25,0|0|0,0:0|0:0|0:0,0:0:0:0:
384,224,139509,2,0,L|384:160,2,64.5,2|0|0,0:0|0:0|0:0,0:0:0:0:
288,224,140009,6,0,L|288:352,2,129,0|0|2,0:0|0:0|0:0,0:0:0:0:
192,224,140842,1,2,0:0:0:0:
96,224,141009,1,2,0:0:0:0:
0,224,141175,6,0,L|0:352,2,129,0|0|2,0:0|0:0|0:0,0:0:0:0:
96,224,142009,1,2,0:0:0:0:
192,224,142176,1,2,0:0:0:0:
288,224,142342,1,0,0:0:0:0:
384,288,142676,6,0,L|384:224,1,64.5,0|0,0:0|0:0,0:0:0:0:
384,128,143009,1,2,0:0:0:0:
448,288,143343,2,0,L|448:224,1,64.5,0|0,0:0|0:0,0:0:0:0:
448,128,143676,1,2,0:0:0:0:
512,288,144009,2,0,L|512:224,1,64.5,0|0,0:0|0:0,0:0:0:0:
512,128,144342,1,2,0:0:0:0:
512,64,144509,1,2,0:0:0:0:
416,64,144676,6,0,L|288:64,1,129
160,160,145343,6,0,L|289:160,1,129,0|2,0:0|0:0,0:0:0:0:
160,256,146009,2,0,L|224:256,1,64.5,0|0,0:0|0:0,0:0:0:0:
288,256,146343,1,2,0:0:0:0:
416,160,146676,6,0,L|287:160,1,129,0|2,0:0|0:0,0:0:0:0:
416,256,147342,2,0,L|352:256,1,64.5,0|0,0:0|0:0,0:0:0:0:
288,256,147676,1,2,0:0:0:0:
288,320,147843,1,0,0:0:0:0:
224,320,148009,6,0,L|160:320,1,64.5,0|0,0:0|0:0,0:0:0:0:
192,256,148343,2,0,L|128:256,1,64.5,2|0,0:0|0:0,0:0:0:0:
160,192,148676,2,0,L|96:192,1,64.5,0|0,0:0|0:0,0:0:0:0:
128,128,149009,2,0,L|64:128,1,64.5,2|0,0:0|0:0,0:0:0:0:
32,64,149343,6,0,L|96:64,1,64.5,0|0,0:0|0:0,0:0:0:0:
160,64,149676,1,2,0:0:0:0:
288,64,150009,2,0,L|224:64,1,64.5,0|0,0:0|0:0,0:0:0:0:
160,64,150342,1,2,0:0:0:0:
160,128,150509,1,0,0:0:0:0:
160,192,150676,6,0,L|160:320,1,129,0|2,0:0|0:0,0:0:0:0:
224,320,151176,1,0,0:0:0:0:
224,256,151343,1,0,0:0:0:0:
224,192,151509,1,0,0:0:0:0:
224,128,151676,6,0,L|353:128,2,129,2|0|2,0:0|0:0|0:0,0:0:0:0:
288,256,152676,2,0,L|353:256,2,64.5,0|0|2,0:0|0:0|0:0,0:0:0:0:
224,256,153176,1,0,0:0:0:0:
224,192,153343,6,0,L|224:128,1,64.5,0|0,0:0|0:0,0:0:0:0:
288,160,153677,2,0,L|288:96,1,64.5,2|0,0:0|0:0,0:0:0:0:
352,128,154010,2,0,L|352:64,1,64.5,0|0,0:0|0:0,0:0:0:0:
416,96,154343,2,0,L|416:32,1,64.5,2|0,0:0|0:0,0:0:0:0:
480,0,154677,6,0,L|480:64,1,64.5,0|0,0:0|0:0,0:0:0:0:
480,128,155010,1,2,0:0:0:0:
480,256,155343,2,0,L|480:192,1,64.5,0|0,0:0|0:0,0:0:0:0:
480,128,155676,1,2,0:0:0:0:
416,128,155843,1,0,0:0:0:0:
416,192,156009,6,0,L|416:256,2,64.5,0|0|2,0:0|0:0|0:0,0:0:0:0:
352,192,156509,2,0,L|288:192,2,64.5,0|0|0,0:0|0:0|0:0,0:0:0:0:
352,128,157009,2,0,L|352:64,2,64.5,2|0|0,0:0|0:0|0:0,0:0:0:0:
416,128,157509,6,0,L|480:128,2,64.5,0|2|0,0:0|0:0|0:0,0:0:0:0:
416,192,158009,2,0,L|416:256,2,64.5,0|0|2,0:0|0:0|0:0,0:0:0:0:
352,192,158509,1,0,0:0:0:0:
288,192,158676,6,0,L|288:128,1,64.5,0|0,0:0|0:0,0:0:0:0:
224,160,159010,2,0,L|224:96,1,64.5,2|0,0:0|0:0,0:0:0:0:
160,128,159343,2,0,L|160:64,1,64.5,0|0,0:0|0:0,0:0:0:0:
96,96,159676,2,0,L|96:32,1,64.5,2|0,0:0|0:0,0:0:0:0:
32,0,160010,6,0,L|32:64,1,64.5,0|0,0:0|0:0,0:0:0:0:
32,128,160342,1,2,0:0:0:0:
32,256,160676,2,0,L|32:192,1,64.5,0|0,0:0|0:0,0:0:0:0:
32,128,161009,1,2,0:0:0:0:
176,128,161342,6,0,L|176:256,1,129,0|2,0:0|0:0,0:0:0:0:
304,192,162009,2,0,L|304:127,2,64.5,0|0|2,0:0|0:0|0:0,0:0:0:0:
432,256,162676,6,0,L|432:128,1,129,0|2,0:0|0:0,0:0:0:0:
304,192,163343,2,0,L|304:257,2,64.5,0|0|2,0:0|0:0|0:0,0:0:0:0:
304,128,163842,1,0,0:0:0:0:
240,128,164009,6,0,L|176:128,1,64.5,0|0,0:0|0:0,0:0:0:0:
208,192,164343,2,0,L|144:192,1,64.5,2|0,0:0|0:0,0:0:0:0:
176,256,164676,2,0,L|112:256,1,64.5,0|0,0:0|0:0,0:0:0:0:
144,320,165009,2,0,L|80:320,1,64.5,2|0,0:0|0:0,0:0:0:0:
16,320,165343,6,0,L|16:256,2,64.5,0|0|0,0:0|0:0|0:0,0:0:0:0:
79,320,165842,2,0,L|79:288,1,32.25,2|2,0:0|0:0,0:0:0:0:
80,256,166009,2,0,L|160:256,1,64.5
208,256,166342,2,0,L|208:304,2,32.25,2|2|0,0:0|0:0|0:0,0:0:0:0:
208,192,166676,6,0,L|208:96,1,95.4600023305665
208,32,167176,2,0,L|352:32,1,143.19000349585,2|0,0:0|0:0,0:0:0:0:
304,160,168009,6,0,L|208:160,2,95.4600023305665,0|0|2,0:0|0:0|0:0,0:0:0:0:
432,160,169009,1,0,0:0:0:0:
432,304,169342,6,0,L|336:304,1,95.4600023305665
272,304,169842,2,0,L|272:160,1,143.19000349585,2|2,0:0|0:0,0:0:0:0:
144,160,170675,6,0,L|144:256,1,95.4600023305665
16,256,171342,2,0,L|16:208,1,47.7300011652832,2|0,0:0|0:0,0:0:0:0:
16,112,171675,1,0,0:0:0:0:
112,112,171842,1,0,0:0:0:0:
208,112,172009,6,0,L|208:208,1,95.4600023305665
304,208,172509,1,2,0:0:0:0:
400,208,172676,1,0,0:0:0:0:
496,208,172842,1,0,0:0:0:0:
496,112,173009,6,0,L|496:16,2,95.4600023305665
360,16,174009,2,0,L|360:80,2,63.640001553711,2|0|0,0:0|0:0|0:0,0:0:0:0:
432,16,174676,6,0,L|432:112,1,95.4600023305665
432,176,175176,2,0,L|288:176,1,143.19000349585,2|2,0:0|0:0,0:0:0:0:
112,176,176009,6,0,L|112:272,1,95.4600023305665
240,272,176676,2,0,L|240:224,1,47.7300011652832,2|2,0:0|0:0,0:0:0:0:
240,128,177009,1,0,0:0:0:0:
336,128,177176,1,0,0:0:0:0:
432,128,177342,6,0,L|480:128,2,47.7300011652832
432,224,177842,2,0,L|432:272,2,47.7300011652832,2|0|0,0:0|0:0|0:0,0:0:0:0:
336,224,178342,2,0,L|288:224,2,47.7300011652832
336,128,178842,6,0,L|336:80,2,47.7300011652832
432,128,179342,2,0,L|480:128,2,47.7300011652832,2|0|0,0:0|0:0|0:0,0:0:0:0:
432,224,179842,1,0,0:0:0:0:
432,320,180009,6,0,L|336:320,1,95.4600023305665
272,320,180523,2,0,L|272:176,1,143.19000349585,2|2,0:0|0:0,0:0:0:0:
144,176,181380,6,0,L|144:128,2,47.7300011652832
16,176,182085,2,0,L|16:128,1,47.7300011652832,2|0,0:0|0:0,0:0:0:0:
16,64,182438,1,0,0:0:0:0:
144,64,182791,6,0,L|240:64,1,95.4600023305665
304,64,183353,2,0,L|304:208,1,143.19000349585,2|0,0:0|0:0,0:0:0:0:
176,208,184291,6,0,L|80:208,1,95.4600023305665
16,208,184883,1,0,0:0:0:0:
16,272,185080,1,2,0:0:0:0:
144,272,185475,2,0,L|192:272,1,47.7300011652832
208,272,185771,1,0,0:0:0:0:
224,272,185869,6,0,L|224:176,1,95.4600023305665
224,112,186494,2,0,L|368:112,1,143.19000349585,2|2,0:0|0:0,0:0:0:0:
368,240,187535,6,0,L|368:304,2,63.640001553711,0|0|2,0:0|0:0|0:0,0:0:0:0:
256,240,188417,2,0,L|256:272,2,31.8200007768555
256,208,188858,2,0,L|256:176,1,31.8200007768555
144,176,189299,5,0,0:0:0:0:
64,48,203515,6,0,L|64:192,1,128.139993058823,0|0,0:0|0:0,0:0:0:0:
128,176,204404,2,0,L|288:176,1,128.139993058823,2|0,0:0|0:0,0:0:0:0:
256,112,205293,2,0,L|256:48,2,64.0699965294115,0|0|0,0:0|0:0|0:0,0:0:0:0:
256,176,206181,1,2,0:0:0:0:
384,304,207070,6,0,L|240:304,1,128.139993058823,0|0,0:0|0:0,0:0:0:0:
256,240,207958,2,0,L|256:176,2,64.0699965294115,2|0|0,0:0|0:0|0:0,0:0:0:0:
192,240,208847,2,0,L|64:240,1,128.139993058823,0|0,0:0|0:0,0:0:0:0:
0,240,209735,1,2,0:0:0:0:
0,112,210328,1,0,0:0:0:0:
64,112,210624,6,0,L|192:112,1,128.139993058823,0|0,0:0|0:0,0:0:0:0:
192,176,211512,2,0,L|32:176,1,128.139993058823,2|0,0:0|0:0,0:0:0:0:
64,240,212401,2,0,L|128:240,2,64.0699965294115,0|0|0,0:0|0:0|0:0,0:0:0:0:
0,240,213290,1,2,0:0:0:0:
224,240,214178,6,0,L|224:112,1,128.139993058823,0|0,0:0|0:0,0:0:0:0:
224,48,215067,2,0,L|368:48,1,128.139993058823,2|0,0:0|0:0,0:0:0:0:
352,112,215955,2,0,L|352:176,2,64.0699965294115,0|0|0,0:0|0:0|0:0,0:0:0:0:
352,48,216844,1,2,0:0:0:0:
352,272,217732,6,0,L|208:272,1,128.139993058823,0|0,0:0|0:0,0:0:0:0:
160,272,218621,2,0,L|160:128,1,128.139993058823,2|0,0:0|0:0,0:0:0:0:
96,144,219510,2,0,L|32:144,2,64.0699965294115,0|0|0,0:0|0:0|0:0,0:0:0:0:
160,144,220398,1,2,0:0:0:0:
384,144,221287,6,0,L|384:16,2,128.139993058823,0|0|0,0:0|0:0|0:0,0:0:0:0:
384,272,223064,2,0,L|224:272,1,128.139993058823,0|0,0:0|0:0,0:0:0:0:
256,208,223952,2,0,L|400:208,1,128.139993058823,2|0,0:0|0:0,0:0:0:0:
384,144,224841,6,0,L|384:64,2,64.0699965294115
448,144,225729,2,0,L|512:144,2,64.0699965294115,2|0|0,0:0|0:0|0:0,0:0:0:0:
448,208,226618,1,0,0:0:0:0:
448,272,226914,1,0,0:0:0:0:
383,272,227210,1,0,0:0:0:0:
384,208,227507,2,0,L|304:208,2,64.0699965294115,2|0|0,0:0|0:0|0:0,0:0:0:0:
384,144,228395,6,0,L|384:0,1,128.139993058823
320,16,229284,2,0,L|192:16,1,128.139993058823,2|0,0:0|0:0,0:0:0:0:
192,80,230172,2,0,L|288:80,2,64.0699965294115
128,80,231061,1,2,0:0:0:0:
128,304,231949,5,0,0:0:0:0:
256,192,232172,12,0,237281,0:0:0:0:
