osu file format v14

[General]
AudioFilename: audio.mp3
AudioLeadIn: 0
PreviewTime: 1020
Countdown: 0
SampleSet: Soft
StackLeniency: 0.5
Mode: 0
LetterboxInBreaks: 0
WidescreenStoryboard: 0

[Editor]
DistanceSpacing: 1.5
BeatDivisor: 4
GridSize: 8
TimelineZoom: 1.4

[Metadata]
Title:I Am Only a Man
TitleUnicode:I Am Only a Man
Artist:Disasterpeace
ArtistUnicode:Disasterpeace
Creator:Venix
Version:Extra
Source:BIT.TRIP Runner2
Tags:Gaijin Games Re Faller Ren De Random Otaku Krfawy Regraz
BeatmapID:1055583
BeatmapSetID:495900

[Difficulty]
HPDrainRate:6
CircleSize:4.7
OverallDifficulty:9
ApproachRate:9
SliderMultiplier:1.7
SliderTickRate:1

[Events]
//Background and Video events
0,0,"bggggggggggggggggggggggggg.jpg",0,0
//Break Periods
//Storyboard Layer 0 (Background)
//Storyboard Layer 1 (Fail)
//Storyboard Layer 2 (Pass)
//Storyboard Layer 3 (Foreground)
//Storyboard Sound Samples

[TimingPoints]
1020,375,4,2,1,32,1,0
30457,-100,4,2,1,20,0,0
30645,-100,4,2,1,32,0,0
30832,-100,4,2,1,20,0,0
31020,-100,4,2,1,32,0,0
31770,-100,4,2,1,48,0,0
31832,-100,4,2,1,5,0,0

[Colours]
Combo1 : 0,64,128
Combo2 : 255,128,0
Combo3 : 0,191,191

[HitObjects]
308,165,1020,5,0,0:0:0:0:
109,260,1207,1,2,0:0:0:0:
243,85,1395,1,2,0:0:0:0:
109,260,1582,1,2,0:0:0:0:
149,59,1770,1,2,0:0:0:0:
385,359,2332,5,0,0:0:0:0:
226,229,2520,1,2,0:0:0:0:
226,229,3082,5,0,0:0:0:0:
226,229,3145,1,0,0:0:0:0:
226,229,3207,1,0,0:0:0:0:
226,229,3270,1,2,0:0:0:0:
477,270,3645,1,0,1:0:0:0:
120,164,4020,5,0,3:0:0:0:
224,296,4207,1,0,0:0:0:0:
352,184,4395,1,2,1:2:0:0:
224,296,4582,1,0,3:0:0:0:
92,158,4770,5,0,3:0:0:0:
217,316,4957,1,0,0:0:0:0:
371,182,5145,1,2,1:2:0:0:
217,316,5332,1,0,3:0:0:0:
59,151,5520,5,0,3:0:0:0:
209,340,5707,1,0,0:0:0:0:
394,180,5895,1,2,1:2:0:0:
209,340,6082,1,0,3:0:0:0:
308,104,6270,5,0,3:0:0:0:
436,324,6645,1,2,1:2:0:0:
176,192,7020,5,0,3:0:0:0:
209,341,7207,1,0,0:0:0:0:
312,240,7395,1,2,1:2:0:0:
216,368,7582,5,0,3:0:0:0:
168,160,7770,1,0,3:0:0:0:
351,336,8145,5,2,1:2:0:0:
301,217,8332,1,0,3:0:0:0:
413,276,8520,1,0,3:2:0:0:
347,29,8895,1,2,1:2:0:0:
404,142,9082,5,0,3:0:0:0:
404,142,9145,1,0,0:0:0:0:
404,142,9207,1,0,0:0:0:0:
404,142,9270,1,0,3:0:0:0:
184,224,9645,1,2,1:2:0:0:
312,288,10020,5,0,0:0:0:0:
379,222,10207,1,0,0:0:0:0:
445,288,10395,1,2,1:2:0:0:
379,355,10582,1,0,3:0:0:0:
303,260,10770,5,0,3:0:0:0:
406,213,10957,1,0,0:0:0:0:
453,315,11145,1,2,1:2:0:0:
351,363,11332,1,0,3:0:0:0:
305,226,11520,5,0,3:0:0:0:
440,215,11707,1,0,0:0:0:0:
452,349,11895,1,2,1:2:0:0:
317,362,12082,1,0,3:0:0:0:
416,128,12270,5,0,3:0:0:0:
200,264,12645,1,2,1:2:0:0:
284,27,13020,5,0,3:0:0:0:
195,130,13207,1,0,0:0:0:0:
318,98,13395,1,2,1:2:0:0:
404,191,13582,1,0,3:0:0:0:
296,259,13770,5,0,3:0:0:0:
111,80,14145,5,2,1:2:0:0:
218,148,14332,1,0,3:0:0:0:
97,191,14520,1,0,3:0:0:0:
284,363,14895,1,2,1:2:0:0:
161,327,15082,5,0,3:0:0:0:
161,327,15145,1,0,0:0:0:0:
161,327,15207,1,0,0:0:0:0:
161,327,15270,1,0,3:0:0:0:
414,298,15645,1,2,1:2:0:0:
256,16,16020,5,0,3:0:0:0:
320,160,16207,1,0,0:0:0:0:
240,32,16395,5,2,1:2:0:0:
288,208,16582,1,0,3:0:0:0:
224,48,16770,5,0,3:0:0:0:
256,256,16957,1,0,0:0:0:0:
208,64,17145,5,2,1:2:0:0:
224,304,17332,1,0,3:0:0:0:
93,157,17520,5,0,3:0:0:0:
33,342,17707,1,0,0:0:0:0:
224,304,17895,5,2,1:2:0:0:
37,247,18082,1,0,3:0:0:0:
203,210,18270,5,0,3:0:0:0:
38,14,18645,1,2,1:2:0:0:
350,51,19020,5,0,3:0:0:0:
296,154,19207,1,0,0:0:0:0:
425,145,19395,1,2,1:2:0:0:
258,254,19582,5,0,3:0:0:0:
481,231,19770,1,0,3:0:0:0:
278,82,20145,5,2,1:2:0:0:
190,174,20332,1,0,3:0:0:0:
159,49,20520,1,0,3:0:0:0:
138,303,20895,1,2,1:2:0:0:
258,263,21082,5,0,3:0:0:0:
258,263,21145,1,0,0:0:0:0:
258,263,21207,1,0,0:0:0:0:
258,263,21270,1,0,3:0:0:0:
83,77,21645,1,2,1:2:0:0:
384,48,22020,5,0,3:0:0:0:
272,136,22207,1,0,0:0:0:0:
384,224,22395,1,2,1:2:0:0:
232,136,22582,5,0,3:0:0:0:
424,136,22770,1,0,3:0:0:0:
360,296,22957,5,0,0:0:0:0:
360,296,23145,1,2,1:2:0:0:
200,344,23332,1,0,3:0:0:0:
88,224,23520,1,0,3:0:0:0:
224,368,23707,5,0,0:0:0:0:
64,200,23895,1,2,1:2:0:0:
248,216,24082,5,0,3:0:0:0:
248,216,24145,1,0,0:0:0:0:
248,216,24207,1,0,0:0:0:0:
248,216,24270,1,0,3:0:0:0:
440,56,24645,1,2,1:2:0:0:
440,56,24832,1,0,3:0:0:0:
456,184,25020,5,0,3:0:0:0:
472,312,25207,1,0,0:0:0:0:
346,332,25395,1,2,1:2:0:0:
218,340,25582,1,0,3:0:0:0:
144,236,25770,5,0,3:0:0:0:
239,321,25957,1,0,0:0:0:0:
366,317,26145,1,2,1:2:0:0:
242,285,26332,1,0,3:0:0:0:
260,158,26520,5,0,3:0:0:0:
34,171,26895,1,2,1:2:0:0:
101,15,27082,5,0,3:0:0:0:
101,15,27145,1,0,0:0:0:0:
101,15,27207,1,0,0:0:0:0:
101,15,27270,1,0,3:0:0:0:
238,229,27645,1,2,3:2:0:0:
377,41,28020,5,0,3:0:0:0:
296,192,28207,1,0,0:0:0:0:
384,64,28395,5,2,1:2:0:0:
312,216,28582,1,0,3:0:0:0:
253,95,28770,5,0,3:0:0:0:
405,159,28957,1,0,0:0:0:0:
229,111,29145,5,2,1:2:0:0:
381,167,29332,1,0,3:0:0:0:
209,126,29520,5,0,3:0:0:0:
119,215,29707,1,0,0:0:0:0:
28,305,29895,1,2,1:2:0:0:
174,281,30082,5,0,3:0:0:0:
174,281,30145,1,0,0:0:0:0:
174,281,30207,1,0,0:0:0:0:
174,281,30270,1,0,3:0:0:0:
309,351,30457,1,2,1:2:0:0:
156,364,30645,1,2,1:2:0:0:
228,229,30832,1,2,1:2:0:0:
446,189,31020,5,0,3:0:0:0:
271,68,31207,1,0,0:0:0:0:
483,47,31395,5,2,1:2:0:0:
240,216,31582,1,0,0:0:0:0:
378,43,31770,5,4,0:0:0:0:
256,192,31863,12,0,33270,0:0:0:0:
