osu file format v14

[General]
AudioFilename: 16 I Am Only a Man (feat. Disasterpeace).mp3
AudioLeadIn: 0
PreviewTime: -1
Countdown: 0
SampleSet: Soft
StackLeniency: 0.7
Mode: 3
LetterboxInBreaks: 0
SpecialStyle: 0
WidescreenStoryboard: 0

[Editor]
DistanceSpacing: 1
BeatDivisor: 4
GridSize: 4
TimelineZoom: 1.7

[Metadata]
Title:I Am Only a Man
TitleUnicode:I Am Only a Man
Artist:Disasterpeace
ArtistUnicode:Disasterpeace
Creator:FGSky
Version:Hard
Source:Bit.Trip Presents Runner2: Future Legend of Rhythm Alien
Tags:8bit
BeatmapID:516323
BeatmapSetID:220637

[Difficulty]
HPDrainRate:8
CircleSize:7
OverallDifficulty:8
ApproachRate:5
SliderMultiplier:1.4
SliderTickRate:1

[Events]
//Background and Video events
0,0,"bg6mmS.jpg",0,0
//Break Periods
//Storyboard Layer 0 (Background)
//Storyboard Layer 1 (Fail)
//Storyboard Layer 2 (Pass)
//Storyboard Layer 3 (Foreground)
//Storyboard Sound Samples

[TimingPoints]
1032,375,4,2,1,20,1,0
16020,-100,4,2,1,20,0,1
18270,-100,4,2,1,20,0,0

[HitObjects]
36,192,1032,5,0,0:0:0:0:
256,192,1032,1,0,0:0:0:0:
182,192,1219,1,0,0:0:0:0:
329,192,1407,1,0,0:0:0:0:
475,192,1407,1,0,0:0:0:0:
256,192,1594,1,0,0:0:0:0:
36,192,1782,128,0,2344:0:0:0:0:
182,192,2344,1,0,0:0:0:0:
256,192,2532,128,0,3282:0:0:0:0:
36,192,3094,1,0,0:0:0:0:
109,192,3157,1,0,0:0:0:0:
182,192,3219,1,0,0:0:0:0:
329,192,3282,1,2,0:0:0:0:
475,192,3282,1,2,0:0:0:0:
182,192,3657,128,0,4032:0:0:0:0:
36,192,3657,1,4,0:0:0:0:
475,192,3657,1,4,0:0:0:0:
256,192,3657,1,4,0:0:0:0:
109,192,4032,1,0,0:0:0:0:
329,192,4032,1,0,0:0:0:0:
475,192,4219,128,0,4407:0:0:0:0:
36,192,4407,1,8,0:0:0:0:
329,192,4407,1,8,0:0:0:0:
182,192,4407,1,8,0:0:0:0:
109,192,4594,1,0,0:0:0:0:
329,192,4594,1,0,0:0:0:0:
256,192,4782,1,0,0:0:0:0:
402,192,4782,1,0,0:0:0:0:
182,192,4969,1,0,0:0:0:0:
475,192,5157,1,8,0:0:0:0:
109,192,5157,1,8,0:0:0:0:
329,192,5157,1,8,0:0:0:0:
256,192,5344,1,0,0:0:0:0:
109,192,5532,1,0,0:0:0:0:
256,192,5532,128,0,5719:0:0:0:0:
36,192,5719,1,0,0:0:0:0:
402,192,5719,128,0,5907:0:0:0:0:
475,192,5907,128,8,6094:0:0:0:0:
256,192,5907,1,8,0:0:0:0:
109,192,5907,1,8,0:0:0:0:
109,192,6094,128,0,6282:0:0:0:0:
256,192,6094,128,0,6282:0:0:0:0:
182,192,6282,128,0,6657:0:0:0:0:
36,192,6282,128,0,6657:0:0:0:0:
475,192,6657,128,4,7032:0:0:0:0:
329,192,6657,128,4,7032:0:0:0:0:
109,192,6657,1,4,0:0:0:0:
36,192,7032,1,0,0:0:0:0:
256,192,7032,1,0,0:0:0:0:
109,192,7219,1,0,0:0:0:0:
182,192,7219,1,0,0:0:0:0:
256,192,7407,1,8,0:0:0:0:
402,192,7407,1,8,0:0:0:0:
36,192,7594,1,0,0:0:0:0:
182,192,7594,1,0,0:0:0:0:
256,192,7782,128,0,8532:0:0:0:0:
475,192,7782,128,0,8532:0:0:0:0:
329,192,7969,1,0,0:0:0:0:
36,192,8157,1,8,0:0:0:0:
182,192,8157,1,8,0:0:0:0:
109,192,8344,1,0,0:0:0:0:
402,192,8532,128,0,9282:0:0:0:0:
109,192,8719,1,0,0:0:0:0:
182,192,8907,1,8,0:0:0:0:
36,192,8907,1,8,0:0:0:0:
256,192,9094,1,0,0:0:0:0:
182,192,9188,1,0,0:0:0:0:
109,192,9282,128,0,9657:0:0:0:0:
329,192,9282,128,0,9657:0:0:0:0:
182,192,9469,1,0,0:0:0:0:
256,192,9657,1,4,0:0:0:0:
36,192,9657,1,4,0:0:0:0:
475,192,9657,1,4,0:0:0:0:
182,192,9844,1,0,0:0:0:0:
256,192,10032,128,0,10219:0:0:0:0:
402,192,10219,128,0,10407:0:0:0:0:
329,192,10407,128,8,10594:0:0:0:0:
182,192,10407,1,8,0:0:0:0:
256,192,10594,128,0,10782:0:0:0:0:
109,192,10782,128,0,10969:0:0:0:0:
182,192,10969,128,0,11157:0:0:0:0:
329,192,11157,128,8,11344:0:0:0:0:
36,192,11157,1,8,0:0:0:0:
475,192,11157,1,8,0:0:0:0:
402,192,11344,128,0,11532:0:0:0:0:
256,192,11532,128,0,11719:0:0:0:0:
182,192,11719,128,0,11907:0:0:0:0:
109,192,11907,128,8,12094:0:0:0:0:
475,192,11907,1,8,0:0:0:0:
36,192,12094,128,0,12282:0:0:0:0:
182,192,12282,128,0,12657:0:0:0:0:
329,192,12282,128,0,12657:0:0:0:0:
109,192,12657,128,4,13032:0:0:0:0:
256,192,12657,128,4,13032:0:0:0:0:
475,192,12657,1,4,0:0:0:0:
36,192,13032,1,0,0:0:0:0:
475,192,13032,1,0,0:0:0:0:
329,192,13219,1,0,0:0:0:0:
109,192,13407,1,8,0:0:0:0:
402,192,13407,1,8,0:0:0:0:
182,192,13594,1,0,0:0:0:0:
36,192,13782,128,0,14157:0:0:0:0:
329,192,13782,128,0,14157:0:0:0:0:
182,192,14157,1,8,0:0:0:0:
475,192,14157,1,8,0:0:0:0:
402,192,14157,128,0,14907:0:0:0:0:
109,192,14344,1,0,0:0:0:0:
36,192,14907,1,8,0:0:0:0:
182,192,14907,1,8,0:0:0:0:
256,192,15094,1,0,0:0:0:0:
182,192,15188,1,0,0:0:0:0:
109,192,15282,1,0,0:0:0:0:
256,192,15469,1,0,0:0:0:0:
36,192,15657,1,8,0:0:0:0:
329,192,15657,1,8,0:0:0:0:
182,192,15844,1,0,0:0:0:0:
475,192,16032,1,8,0:0:0:0:
402,192,16125,1,0,0:0:0:0:
182,192,16219,1,0,0:0:0:0:
256,192,16313,1,0,0:0:0:0:
36,192,16407,1,8,0:0:0:0:
329,192,16407,1,8,0:0:0:0:
109,192,16500,1,0,0:0:0:0:
402,192,16594,1,0,0:0:0:0:
182,192,16688,1,0,0:0:0:0:
329,192,16782,1,8,0:0:0:0:
36,192,16782,1,8,0:0:0:0:
402,192,16875,1,0,0:0:0:0:
182,192,16969,1,0,0:0:0:0:
109,192,17063,1,0,0:0:0:0:
329,192,17157,1,8,0:0:0:0:
475,192,17157,1,8,0:0:0:0:
256,192,17250,1,0,0:0:0:0:
182,192,17344,1,0,0:0:0:0:
402,192,17438,1,0,0:0:0:0:
475,192,17532,1,8,0:0:0:0:
36,192,17532,1,8,0:0:0:0:
256,192,17625,1,0,0:0:0:0:
402,192,17719,1,0,0:0:0:0:
109,192,17813,1,0,0:0:0:0:
36,192,17907,1,8,0:0:0:0:
329,192,17907,1,8,0:0:0:0:
182,192,18000,1,0,0:0:0:0:
109,192,18094,1,8,0:0:0:0:
402,192,18094,1,8,0:0:0:0:
182,192,18188,1,0,0:0:0:0:
256,192,18282,128,4,18657:0:0:0:0:
475,192,18282,128,4,18657:0:0:0:0:
109,192,18657,128,8,19032:0:0:0:0:
402,192,18657,128,8,19032:0:0:0:0:
36,192,19032,1,0,0:0:0:0:
329,192,19032,1,0,0:0:0:0:
182,192,19219,1,0,0:0:0:0:
256,192,19407,1,8,0:0:0:0:
402,192,19407,1,8,0:0:0:0:
109,192,19594,1,0,0:0:0:0:
182,192,19782,128,0,20157:0:0:0:0:
329,192,19782,1,0,0:0:0:0:
256,192,19969,1,0,0:0:0:0:
329,192,20157,1,8,0:0:0:0:
109,192,20344,128,8,21094:0:0:0:0:
256,192,20344,1,0,0:0:0:0:
402,192,20532,1,0,0:0:0:0:
256,192,20719,1,0,0:0:0:0:
182,192,20907,1,8,0:0:0:0:
329,192,21094,1,0,0:0:0:0:
256,192,21157,1,0,0:0:0:0:
182,192,21219,1,0,0:0:0:0:
402,192,21282,128,8,21657:0:0:0:0:
109,192,21282,1,0,0:0:0:0:
182,192,21469,1,0,0:0:0:0:
329,192,21657,128,4,22032:0:0:0:0:
36,192,21657,1,4,0:0:0:0:
475,192,21657,1,4,0:0:0:0:
256,192,21844,1,0,0:0:0:0:
182,192,22032,1,0,0:0:0:0:
475,192,22032,128,0,22219:0:0:0:0:
109,192,22219,1,0,0:0:0:0:
402,192,22219,128,0,22407:0:0:0:0:
36,192,22407,1,8,0:0:0:0:
329,192,22407,128,8,22594:0:0:0:0:
109,192,22594,1,0,0:0:0:0:
402,192,22594,128,0,22782:0:0:0:0:
182,192,22782,1,0,0:0:0:0:
256,192,22782,128,0,22969:0:0:0:0:
109,192,22969,1,0,0:0:0:0:
329,192,22969,128,0,23157:0:0:0:0:
182,192,23157,1,8,0:0:0:0:
475,192,23157,128,8,23344:0:0:0:0:
109,192,23344,128,0,23532:0:0:0:0:
256,192,23344,128,0,23532:0:0:0:0:
182,192,23532,128,0,23907:0:0:0:0:
402,192,23532,128,0,23907:0:0:0:0:
329,192,23719,1,0,0:0:0:0:
475,192,23907,1,8,0:0:0:0:
256,192,23907,128,8,24282:0:0:0:0:
36,192,24094,1,0,0:0:0:0:
402,192,24094,1,0,0:0:0:0:
109,192,24188,1,0,0:0:0:0:
475,192,24188,1,0,0:0:0:0:
182,192,24282,128,0,24657:0:0:0:0:
329,192,24282,128,0,24657:0:0:0:0:
109,192,24469,1,0,0:0:0:0:
402,192,24657,128,4,25032:0:0:0:0:
36,192,24657,128,4,25032:0:0:0:0:
256,192,24844,1,0,0:0:0:0:
109,192,25032,1,0,0:0:0:0:
329,192,25032,1,0,0:0:0:0:
109,192,25219,1,0,0:0:0:0:
329,192,25219,1,0,0:0:0:0:
182,192,25407,1,8,0:0:0:0:
402,192,25407,1,8,0:0:0:0:
109,192,25594,1,0,0:0:0:0:
329,192,25594,1,0,0:0:0:0:
182,192,25782,1,0,0:0:0:0:
402,192,25782,1,0,0:0:0:0:
36,192,25969,1,0,0:0:0:0:
329,192,25969,1,0,0:0:0:0:
109,192,26157,1,8,0:0:0:0:
402,192,26157,1,8,0:0:0:0:
256,192,26344,1,0,0:0:0:0:
182,192,26532,128,0,26907:0:0:0:0:
475,192,26532,128,0,26907:0:0:0:0:
329,192,26719,1,0,0:0:0:0:
36,192,26907,128,8,27282:0:0:0:0:
256,192,26907,128,8,27282:0:0:0:0:
109,192,27094,1,0,0:0:0:0:
182,192,27157,1,0,0:0:0:0:
329,192,27219,1,0,0:0:0:0:
402,192,27282,1,8,0:0:0:0:
475,192,27282,1,8,0:0:0:0:
109,192,27469,1,0,0:0:0:0:
182,192,27657,1,12,0:0:0:0:
329,192,27657,1,12,0:0:0:0:
109,192,27844,1,0,0:0:0:0:
256,192,28032,1,0,0:0:0:0:
329,192,28219,1,0,0:0:0:0:
182,192,28407,1,8,0:0:0:0:
402,192,28407,1,8,0:0:0:0:
109,192,28594,1,0,0:0:0:0:
36,192,28782,128,0,29157:0:0:0:0:
256,192,28782,128,0,29157:0:0:0:0:
109,192,29157,128,8,29532:0:0:0:0:
329,192,29157,128,8,29532:0:0:0:0:
402,192,29532,128,4,29907:0:0:0:0:
256,192,29907,1,0,0:0:0:0:
36,192,29907,1,0,0:0:0:0:
402,192,30094,1,8,0:0:0:0:
182,192,30094,1,8,0:0:0:0:
109,192,30282,1,0,0:0:0:0:
36,192,30282,1,8,0:0:0:0:
182,192,30375,1,8,0:0:0:0:
256,192,30469,1,0,0:0:0:0:
329,192,30563,1,0,0:0:0:0:
36,192,30657,1,8,0:0:0:0:
402,192,30657,1,8,0:0:0:0:
109,192,30719,1,0,0:0:0:0:
182,192,30782,1,0,0:0:0:0:
256,192,30844,1,0,0:0:0:0:
475,192,30907,1,0,0:0:0:0:
402,192,30969,1,0,0:0:0:0:
36,192,31032,1,8,0:0:0:0:
329,192,31032,1,8,0:0:0:0:
109,192,31219,1,0,0:0:0:0:
256,192,31407,1,8,0:0:0:0:
402,192,31407,1,8,0:0:0:0:
182,192,31594,1,0,0:0:0:0:
36,192,31782,128,8,33282:0:0:0:0:
256,192,31782,128,8,33282:0:0:0:0:
