osu file format v14

[General]
AudioFilename: audio.mp3
AudioLeadIn: 0
PreviewTime: 29503
Countdown: 0
SampleSet: Soft
StackLeniency: 0.7
Mode: 0
LetterboxInBreaks: 0
EpilepsyWarning: 1
WidescreenStoryboard: 1

[Editor]
Bookmarks: 7464,93056
DistanceSpacing: 1.5
BeatDivisor: 4
GridSize: 16
TimelineZoom: 1

[Metadata]
Title:Home
TitleUnicode:Home
Artist:Disasterpeace
ArtistUnicode:Disasterpeace
Creator:BowLL
Version:simple world..
Source:FEZ
Tags:offical chiptune OST FA Featured Artist Electronic Instrumental Shiyzo hakashii video game osu! original soundtrack VGM videogame [-Evil-]
BeatmapID:3137397
BeatmapSetID:1191595

[Difficulty]
HPDrainRate:5
CircleSize:5
OverallDifficulty:6
ApproachRate:7
SliderMultiplier:1.55
SliderTickRate:1

[Events]
//Background and Video events
0,0,"currentbackground.jpg",0,0
//Break Periods
//Storyboard Layer 0 (Background)
//Storyboard Layer 1 (Fail)
//Storyboard Layer 2 (Pass)
//Storyboard Layer 3 (Foreground)
//Storyboard Layer 4 (Overlay)
//Storyboard Sound Samples

[TimingPoints]
80,461.538461538462,4,2,1,35,1,0
80,-125,4,2,1,35,0,0
7464,-142.857142857143,4,2,1,35,0,0
14849,-111.111111111111,4,2,1,35,0,0
29618,-100,4,2,1,35,0,0
29676,-100,4,2,1,35,0,0
38618,-100,4,2,2,35,0,0
44387,-100,4,2,2,35,0,0
45080,-100,4,2,1,35,0,0
53387,-100,4,2,2,35,0,0
54541,-100,4,2,3,35,0,0
55695,-100,4,2,1,35,0,0
59156,-86.9565217391304,4,2,2,35,0,0
59300,-86.9565217391304,4,2,2,35,0,0
69310,-86.9565217391304,4,2,3,35,0,0
73926,-86.9565217391304,4,2,2,35,0,0
80387,-90.9090909090909,4,2,1,35,0,0
81080,-86.9565217391304,4,2,2,35,0,0
88695,468.750000000001,4,2,1,35,1,0
89163,491.803278688525,4,2,1,33,1,0
89654,495.867768595042,4,2,1,31,1,0
90149,517.241379310346,4,2,1,29,1,0
90666,560.747663551403,4,2,1,27,1,0
91226,645.161290322581,4,2,1,25,1,0
91871,759.493670886077,4,2,1,23,1,0
92630,454.545454545455,4,2,1,22,1,0
92630,-200,4,2,1,21,0,0
93084,800,4,2,1,20,1,0
94484,-100,4,2,1,5,0,0

[Colours]
Combo1 : 192,192,192
Combo2 : 255,128,128
Combo3 : 255,255,128
Combo4 : 255,168,125

[HitObjects]
39,150,80,6,0,L|39:67,1,62,2|0,0:0|0:0,0:0:0:0:
105,54,541,2,0,L|105:116,1,62,2|0,0:0|0:0,0:0:0:0:
124,188,1003,6,0,P|157:199|192:192,1,62,2|0,0:0|0:0,0:0:0:0:
254,171,1464,2,0,P|258:201|247:230,1,62,2|0,0:0|0:0,0:0:0:0:
196,285,1926,6,0,B|156:294|156:294|109:288,1,62,2|0,0:0|0:0,0:0:0:0:
63,272,2387,2,0,B|54:312|54:312|60:359,1,62,2|0,0:0|0:0,0:0:0:0:
121,370,2849,6,0,L|182:375,1,62,2|0,0:0|0:0,0:0:0:0:
247,338,3310,2,0,L|308:343,1,62,2|0,0:0|0:0,0:0:0:0:
378,371,3772,6,0,L|453:353,1,62,2|0,0:0|0:0,0:0:0:0:
450,283,4233,2,0,L|389:297,1,62,2|0,0:0|0:0,0:0:0:0:
317,279,4695,6,0,P|300:253|294:222,1,62,2|0,0:0|0:0,0:0:0:0:
356,181,5156,2,0,P|358:150|373:123,1,62,2|0,0:0|0:0,0:0:0:0:
410,58,5618,6,0,B|381:47|381:47|351:58,1,62,2|0,0:0|0:0,0:0:0:0:
286,94,6080,2,0,B|297:124|297:124|286:152,1,62,2|0,0:0|0:0,0:0:0:0:
243,212,6541,6,0,L|176:205,1,62,2|0,0:0|0:0,0:0:0:0:
106,212,7003,2,0,L|99:279,1,62,2|0,0:0|0:0,0:0:0:0:
187,354,7464,6,0,L|117:354,2,54.2499983444214,2|0|2,0:0|0:0|0:0,0:0:0:0:
252,351,8156,1,0,0:0:0:0:
317,355,8387,6,0,L|387:355,2,54.2499983444214,2|0|2,0:0|0:0|0:0,0:0:0:0:
252,351,9080,1,0,0:0:0:0:
221,293,9310,5,2,0:0:0:0:
177,260,9541,1,0,0:0:0:0:
113,291,9772,1,2,0:0:0:0:
30,263,10003,2,0,L|34:208,1,54.2499983444214,0|2,0:0|0:0,0:0:0:0:
58,172,10464,5,0,0:0:0:0:
121,190,10695,1,2,0:0:0:0:
179,140,10926,1,0,0:0:0:0:
258,173,11156,6,0,P|265:197|264:225,2,54.2499983444214,2|0|0,0:0|0:0|0:0,0:0:0:0:
237,110,11849,1,0,0:0:0:0:
205,52,12080,6,0,P|197:25|199:-1,2,54.2499983444214,2|0|0,0:0|0:0|0:0,0:0:0:0:
237,110,12772,1,0,0:0:0:0:
298,89,13003,6,0,P|325:85|352:91,2,54.2499983444214,2|0|0,0:0|0:0|0:0,0:0:0:0:
237,110,13695,1,0,0:0:0:0:
179,140,13926,6,0,P|151:143|124:137,2,54.2499983444214,2|0|0,0:0|0:0|0:0,0:0:0:0:
237,110,14618,1,0,0:0:0:0:
270,201,14849,6,0,B|283:238|283:238|251:292|251:292|228:238,1,139.499995742798,2|2,1:2|0:0,0:0:0:0:
237,258,15541,1,0,1:2:0:0:
188,207,15772,2,0,P|150:195|108:205,1,69.749997871399,10|0,0:0|0:0,0:0:0:0:
57,229,16233,2,0,P|48:261|59:311,1,69.749997871399,2|0,0:0|0:0,0:0:0:0:
74,363,16695,1,2,0:0:0:0:
143,344,16926,5,0,1:2:0:0:
143,344,17156,2,0,L|307:329,1,139.499995742798,2|10,1:2|0:0,0:0:0:0:
345,302,17849,2,0,L|356:228,2,69.749997871399,0|2|0,0:0|0:0|0:0,0:0:0:0:
268,240,18541,6,0,B|273:173|273:173|294:137|294:137|291:192,1,139.499995742798,2|2,1:2|0:0,0:0:0:0:
292,167,19233,1,0,1:2:0:0:
361,156,19464,2,0,L|444:140,1,69.749997871399,10|0,0:0|0:0,0:0:0:0:
452,76,19926,2,0,L|383:89,1,69.749997871399,2|0,0:0|0:0,0:0:0:0:
315,103,20387,1,2,0:0:0:0:
253,80,20618,5,0,1:2:0:0:
253,80,20849,2,0,L|237:234,1,139.499995742798,2|10,1:2|0:0,0:0:0:0:
200,277,21541,2,0,L|117:262,2,69.749997871399,0|2|0,0:0|0:0|0:0,0:0:0:0:
123,337,22233,6,0,B|57:352|57:352|8:372|8:372|21:342,1,139.499995742798,2|2,1:2|0:0,0:0:0:0:
15,354,22926,1,0,0:0:0:0:
31,287,23156,2,0,L|54:207,1,69.749997871399,10|0,0:0|0:0,0:0:0:0:
42,150,23618,2,0,L|65:70,1,69.749997871399,2|0,0:0|0:0,0:0:0:0:
106,29,24080,5,2,0:0:0:0:
173,58,24310,1,0,1:2:0:0:
173,58,24541,2,0,L|154:206,1,139.499995742798,2|10,1:2|0:0,0:0:0:0:
165,265,25233,2,0,L|242:257,2,69.749997871399,0|2|0,0:0|0:0|0:0,0:0:0:0:
115,349,25926,6,0,B|153:372|199:377|224:361|224:361|184:336,1,139.499995742798,2|2,1:2|0:0,0:0:0:0:
202,348,26618,1,0,0:0:0:0:
254,302,26849,2,0,P|300:286|340:300,1,69.749997871399,10|0,0:0|0:0,0:0:0:0:
383,318,27310,2,0,P|418:314|447:296,1,69.749997871399,2|0,0:0|0:0,0:0:0:0:
474,231,27772,1,2,0:0:0:0:
450,169,28003,5,0,1:2:0:0:
450,169,28233,2,0,L|300:149,1,139.499995742798,2|10,1:2|0:0,0:0:0:0:
242,145,28926,1,0,1:2:0:0:
139,159,29156,1,2,0:0:0:0:
249,245,29387,1,0,0:0:0:0:
139,302,29618,6,0,P|79:297|38:209,1,155,4|0,1:2|0:0,0:0:0:0:
39,134,30310,1,0,1:0:0:0:
72,54,30541,1,8,0:0:0:0:
148,16,30772,2,0,P|185:16|220:33,2,77.5,2|2|2,0:0|0:0|0:0,0:0:0:0:
72,54,31464,1,0,0:0:0:0:
147,100,31695,5,0,1:0:0:0:
147,100,31926,2,0,P|180:118|222:121,1,77.5,0|0,1:0|2:0,2:0:0:0:
298,89,32387,1,8,0:0:0:0:
387,115,32618,1,0,0:0:0:0:
297,160,32848,1,0,0:0:0:0:
379,231,33080,1,0,0:0:0:0:
296,323,33310,6,0,B|260:338|260:338|234:334|213:315|213:315|200:282|193:237,1,155,0|0,1:2|0:0,0:0:0:0:
169,173,34003,1,0,1:2:0:0:
90,206,34233,1,8,0:0:0:0:
79,290,34464,2,0,P|86:327|109:359,2,77.5,2|2|2,0:0|0:0|0:0,0:0:0:0:
90,206,35156,1,0,0:0:0:0:
55,128,35387,5,0,1:0:0:0:
55,128,35618,2,0,B|35:116|35:116|102:106,1,77.5,0|0,1:0|0:0,0:0:0:0:
167,73,36080,1,8,0:0:0:0:
251,34,36310,1,0,0:0:0:0:
308,116,36540,1,0,0:0:0:0:
410,80,36771,1,0,0:0:0:0:
480,182,37003,6,0,B|458:222|458:222|384:228|360:173,1,155,0|0,1:2|0:0,0:0:0:0:
308,116,37695,1,0,0:0:0:0:
223,127,37926,2,0,B|175:145|175:145|166:168|166:168|186:192|185:271,1,155,8|0,0:0|0:0,0:0:0:0:
242,345,38618,2,0,L|248:374,3,25.8333333333333,2|2|2|2,1:2|0:0|0:0|0:0,0:0:0:0:
319,321,39080,5,0,1:0:0:0:
319,321,39310,2,0,B|339:296|339:296|431:310|431:310|414:278,2,155,0|10|0,1:0|0:0|0:0,0:0:0:0:
269,252,40464,1,0,0:0:0:0:
320,139,40695,6,0,B|338:139|338:139|389:109|389:109|444:138|444:138|480:137,1,155,2|2,1:2|0:0,0:0:0:0:
510,59,41387,1,0,0:0:0:0:
425,19,41618,2,0,L|326:19,1,77.5,10|0,0:0|0:0,0:0:0:0:
264,61,42080,2,0,L|187:61,1,77.5,2|0,0:0|0:0,0:0:0:0:
94,48,42541,1,2,0:0:0:0:
143,132,42772,1,0,1:2:0:0:
143,132,43003,2,0,B|149:146|149:146|138:193|138:193|127:205,1,77.5,2|0,1:2|0:0,0:0:0:0:
56,262,43464,5,10,0:0:0:0:
35,303,43695,1,0,1:2:0:0:
90,357,43926,1,2,0:0:0:0:
196,331,44156,1,0,0:0:0:0:
315,366,44387,6,0,B|342:380|342:380|320:349|320:349|295:308|318:255,1,155,6|0,1:2|0:0,0:0:0:0:
335,174,45080,1,0,1:0:0:0:
409,132,45310,1,8,0:0:0:0:
454,203,45541,2,0,P|456:239|439:284,2,77.5,2|2|2,0:0|0:0|0:0,0:0:0:0:
409,132,46233,1,0,0:0:0:0:
426,48,46464,5,0,1:0:0:0:
426,48,46695,2,0,P|356:51|327:36,1,77.5,0|0,1:0|0:0,0:0:0:0:
273,11,47156,1,8,0:0:0:0:
205,75,47387,1,0,0:0:0:0:
110,39,47618,1,0,0:0:0:0:
131,144,47848,1,0,0:0:0:0:
59,246,48080,6,0,B|37:262|37:262|105:279|105:279|120:300|120:300|160:309,1,155,0|0,1:0|0:0,0:0:0:0:
237,300,48772,1,0,1:0:0:0:
301,356,49003,1,8,0:0:0:0:
380,325,49233,2,0,P|416:316|454:326,2,77.5,2|2|2,0:0|0:0|0:0,0:0:0:0:
301,356,49926,1,0,0:0:0:0:
330,278,50156,5,0,1:0:0:0:
330,278,50387,2,0,B|355:215|355:215|342:200,1,77.5,0|0,1:0|0:0,0:0:0:0:
277,160,50849,1,8,0:0:0:0:
186,181,51080,1,0,0:0:0:0:
97,132,51310,1,0,0:0:0:0:
110,24,51541,1,0,0:0:0:0:
232,6,51772,6,0,B|287:-2|325:30|325:30|329:80|302:95,1,155,0|0,1:0|0:0,0:0:0:0:
277,160,52464,1,0,0:0:0:0:
240,237,52695,2,0,P|283:312|365:313,1,155,8|0,0:0|0:0,0:0:0:0:
449,269,53387,2,0,L|481:249,3,25.8333333333333,2|2|2|2,1:2|0:0|0:0|0:0,0:0:0:0:
407,204,53849,5,0,1:0:0:0:
407,204,54080,2,0,B|427:189|427:189|427:127,1,77.5,0|0,1:0|0:0,0:0:0:0:
424,51,54541,1,10,0:0:0:0:
258,8,55003,1,0,0:0:0:0:
119,106,55464,6,0,B|88:117|88:117|142:142|142:142|185:134|210:166,1,155,2|0,1:2|0:0,0:0:0:0:
232,235,56156,1,0,0:0:0:0:
154,270,56387,2,0,L|72:276,2,77.5,8|0|0,0:0|0:0|0:0,0:0:0:0:
232,235,57080,1,0,0:0:0:0:
292,174,57310,1,0,0:0:0:0:
379,192,57541,5,0,1:0:0:0:
379,192,57772,2,0,B|406:223|406:223|415:282|415:282|347:342,1,155,0|8,1:0|0:0,0:0:0:0:
303,365,58464,1,0,1:0:0:0:
219,382,58694,1,0,0:0:0:0:
134,370,58925,1,0,1:2:0:0:
60,207,59156,6,0,P|141:70|288:149,1,356.500006799698,6|8,1:2|0:0,0:0:0:0:
273,336,60772,5,0,0:0:0:0:
273,336,61003,2,0,P|217:348|182:327,1,89.1250016999245,0|0,0:0|1:0,0:0:0:0:
133,361,61464,2,0,P|81:337|66:297,1,89.1250016999245,0|0,1:0|0:0,0:0:0:0:
52,248,61926,5,10,0:0:0:0:
60,205,62156,1,2,0:0:0:0:
9,155,62387,1,2,0:0:0:0:
60,78,62618,1,2,0:0:0:0:
209,50,62849,6,0,B|198:47|184:61|184:61|171:38|200:11|260:-17|360:34|347:115|250:85|302:225,1,356.500006799698,2|8,1:2|0:0,0:0:0:0:
446,341,64464,5,0,0:0:0:0:
446,341,64695,2,0,B|420:363|420:363|364:363,1,89.1250016999245,0|0,0:0|1:0,0:0:0:0:
309,333,65156,2,0,B|283:311|283:311|227:311,1,89.1250016999245,0|0,1:0|0:0,0:0:0:0:
167,327,65618,5,10,0:0:0:0:
127,347,65849,1,2,1:2:0:0:
60,321,66080,1,2,0:0:0:0:
26,229,66310,1,2,0:0:0:0:
62,81,66541,6,0,B|35:78|67:59|67:59|181:52|268:159|381:123,1,356.500006799698,2|8,1:2|0:0,0:0:0:0:
483,275,68156,5,0,1:0:0:0:
435,315,68387,2,0,L|327:337,1,89.1250016999245,0|0,0:0|1:0,0:0:0:0:
293,364,68849,2,0,L|178:376,1,89.1250016999245,0|0,1:0|0:0,0:0:0:0:
142,363,69310,5,10,0:0:0:0:
49,278,69541,1,2,0:0:0:0:
27,182,69772,1,2,0:0:0:0:
63,120,70003,1,2,0:0:0:0:
105,106,70233,6,0,B|160:219|160:219|271:216|254:118|201:52|142:92,1,356.500006799698,2|8,1:2|0:0,0:0:0:0:
461,158,72080,6,0,B|426:123|370:140|340:197|368:228|405:240|453:231|492:250|495:296|474:351|413:362|373:288,1,356.500006799698,2|8,0:0|0:0,0:0:0:0:
340,272,73233,1,0,0:0:0:0:
280,255,73464,1,2,0:0:0:0:
229,292,73695,1,0,0:0:0:0:
116,264,73926,6,0,L|7:242,2,89.1250016999245,4|0|0,1:2|0:0|0:0,0:0:0:0:
157,310,74618,1,0,0:0:0:0:
197,357,74849,2,0,L|314:346,2,89.1250016999245,8|0|0,0:0|0:0|0:0,0:0:0:0:
151,190,75541,5,2,1:2:0:0:
151,190,75772,2,0,B|214:165|214:165|264:148|289:229|289:229|315:308|193:357,1,356.500006799698,2|8,1:2|0:0,0:0:0:0:
397,13,77387,5,2,0:0:0:0:
397,13,77618,2,0,B|335:40|335:40|288:64|329:138|329:138|369:212|488:158,1,356.500006799698,2|8,1:2|0:0,0:0:0:0:
475,98,78772,1,0,0:0:0:0:
416,77,79003,1,0,0:0:0:0:
339,121,79233,5,2,1:2:0:0:
254,148,79464,2,0,B|223:156|223:156|188:143|188:143|139:153|139:153|152:158,1,133.687502549887,2|0,1:2|1:0,0:0:0:0:
180,171,79926,1,0,0:0:0:0:
127,243,80156,1,0,1:0:0:0:
127,243,80387,2,0,P|75:247|47:221,1,85.2500026016236,8|0,0:0|0:0,0:0:0:0:
5,294,81080,5,2,1:2:0:0:
5,294,81310,2,0,P|86:337|181:309,1,178.250003399849,2|0,1:2|0:0,0:0:0:0:
215,266,82003,1,0,1:0:0:0:
261,211,82233,2,0,B|283:193|283:193|362:230|442:203,1,178.250003399849,8|0,0:0|0:0,0:0:0:0:
494,178,82926,1,0,1:0:0:0:
509,108,83156,6,0,B|530:77|459:33|405:36|362:82,2,178.250003399849,0|0|8,1:0|0:0|0:0,0:0:0:0:
494,178,84310,1,2,1:2:0:0:
428,206,84541,1,2,0:0:0:0:
484,249,84772,1,2,0:0:0:0:
423,286,85003,6,0,B|398:301|398:301|330:304,1,89.1250016999245,2|0,1:2|0:0,0:0:0:0:
271,278,85464,2,0,B|211:280|211:280|186:295,1,89.1250016999245
124,332,85926,6,0,L|117:231,1,89.1250016999245,8|0,0:0|0:0,0:0:0:0:
74,186,86387,2,0,L|77:84,1,89.1250016999245,0|0,0:0|1:0,0:0:0:0:
118,38,86849,6,0,P|158:26|218:35,1,89.1250016999245,2|0,0:0|1:0,0:0:0:0:
270,56,87310,2,0,P|314:60|356:48,1,89.1250016999245,0|0,1:0|0:0,0:0:0:0:
422,19,87772,1,8,0:0:0:0:
480,43,88003,1,0,0:0:0:0:
496,65,88233,1,0,0:0:0:0:
498,73,88464,1,0,0:0:0:0:
466,137,88695,6,0,P|430:151|375:152,1,77.5,2|2,0:0|0:0,0:0:0:0:
325,145,89163,2,0,L|228:134,1,77.5,2|2,0:0|0:0,0:0:0:0:
155,172,89654,6,0,P|186:194|236:209,1,77.5,2|2,0:0|0:0,0:0:0:0:
283,218,90149,2,0,L|376:230,1,77.5,2|2,0:0|0:0,0:0:0:0:
436,290,90666,6,0,P|400:304|348:303,1,77.5,2|2,0:0|0:0,0:0:0:0:
323,302,91226,2,0,L|238:293,1,77.5,2|2,0:0|0:0,0:0:0:0:
165,301,91871,6,0,L|75:316,1,77.5,2|2,0:0|0:0,0:0:0:0:
14,329,92630,1,2,0:0:0:0:
58,195,93084,6,0,B|82:116|82:116|161:140|161:140|137:219|137:219|60:196,1,310,2|0,0:0|0:0,0:0:0:0:
