osu file format v14

[General]
AudioFilename: audio.mp3
AudioLeadIn: 0
PreviewTime: 29503
Countdown: 0
SampleSet: Soft
StackLeniency: 0.7
Mode: 0
LetterboxInBreaks: 0
EpilepsyWarning: 1
WidescreenStoryboard: 1

[Editor]
Bookmarks: 7464,93056
DistanceSpacing: 1
BeatDivisor: 4
GridSize: 8
TimelineZoom: 1

[Metadata]
Title:Home
TitleUnicode:Home
Artist:Disasterpeace
ArtistUnicode:Disasterpeace
Creator:BowLL
Version:easy
Source:FEZ
Tags:offical chiptune OST FA Featured Artist Electronic Instrumental Shiyzo hakashii video game osu! original soundtrack VGM videogame [-Evil-]
BeatmapID:2549856
BeatmapSetID:1191595

[Difficulty]
HPDrainRate:1.6
CircleSize:3
OverallDifficulty:2
ApproachRate:3.5
SliderMultiplier:1.15
SliderTickRate:1

[Events]
//Background and Video events
0,0,"currentbackground.jpg",0,0
//Break Periods
//Storyboard Layer 0 (Background)
//Storyboard Layer 1 (Fail)
//Storyboard Layer 2 (Pass)
//Storyboard Layer 3 (Foreground)
//Storyboard Layer 4 (Overlay)
//Storyboard Sound Samples

[TimingPoints]
80,461.538461538462,4,2,1,35,1,0
80,-100,4,2,1,35,0,0
7464,-100,4,2,1,35,0,0
14849,-100,4,2,1,35,0,0
29618,-100,4,2,1,35,0,0
29676,-100,4,2,1,35,0,0
38618,-100,4,2,2,35,0,0
44387,-100,4,2,2,35,0,0
45080,-100,4,2,1,35,0,0
53387,-100,4,2,2,35,0,0
54541,-100,4,2,3,35,0,0
55695,-100,4,2,1,35,0,0
59156,-100,4,2,2,35,0,0
59300,-100,4,2,2,35,0,0
69310,-100,4,2,3,35,0,0
73926,-100,4,2,2,35,0,0
80387,-100,4,2,1,35,0,0
81080,-100,4,2,2,35,0,0
88695,468.750000000001,4,2,1,35,1,0
89163,491.803278688525,4,2,1,32,1,0
89654,495.867768595042,4,2,1,29,1,0
90149,517.241379310346,4,2,1,26,1,0
90666,560.747663551403,4,2,1,23,1,0
91226,645.161290322581,4,2,1,20,1,0
91871,759.493670886077,4,2,1,17,1,0
92630,454.545454545455,4,2,1,14,1,0
92630,-100,4,2,1,14,0,0
93084,800,4,2,1,11,1,0

[Colours]
Combo1 : 192,192,192
Combo2 : 255,128,128
Combo3 : 255,255,128
Combo4 : 255,168,125

[HitObjects]
235,168,7464,6,0,B|212:322|212:322|144:358,1,230,2|2,0:0|0:0,0:0:0:0:
34,155,9310,2,0,L|33:22,2,115,2|2|2,0:0|0:0|0:0,0:0:0:0:
172,338,11156,6,0,B|290:365|290:365|397:345,1,230,2|2,0:0|0:0,0:0:0:0:
464,124,13003,2,0,L|474:7,2,115,2|2|2,0:0|0:0|0:0,0:0:0:0:
391,342,14849,6,0,P|285:360|230:267,1,230,2|10,1:2|0:0,0:0:0:0:
203,154,16233,2,0,B|131:120|82:179,1,115,2|2,0:0|0:0,0:0:0:0:
39,251,17156,1,2,1:2:0:0:
94,338,17618,1,10,0:0:0:0:
246,198,18541,6,0,P|311:109|425:117,1,230,2|10,1:2|0:0,0:0:0:0:
482,198,19926,2,0,P|487:254|457:307,1,115,2|2,0:0|0:0,0:0:0:0:
365,347,20849,1,2,1:2:0:0:
277,291,21310,1,10,0:0:0:0:
354,98,22233,6,0,P|335:55|157:44,1,230,2|10,1:2|0:0,0:0:0:0:
86,86,23618,1,2,0:0:0:0:
137,175,24080,2,0,B|171:208|171:208|259:207,2,115,2|2|10,0:0|1:2|0:0,0:0:0:0:
296,42,25926,6,0,P|427:41|485:118,1,230,2|10,1:2|0:0,0:0:0:0:
506,212,27310,2,0,B|524:271|499:327,1,115,2|2,0:0|0:0,0:0:0:0:
405,366,28233,1,2,1:2:0:0:
297,324,28695,2,0,P|258:296|182:317,1,115,10|0,0:0|0:0,0:0:0:0:
91,358,29618,6,0,B|86:309|86:309|51:295|51:295|40:134,1,230,4|8,1:2|0:0,0:0:0:0:
42,37,31003,2,0,P|97:22|157:29,1,115,2|0,0:0|0:0,0:0:0:0:
263,63,31926,1,0,1:0:0:0:
376,44,32387,2,0,B|393:99|393:99|384:156,1,115,8|0,0:0|0:0,0:0:0:0:
331,258,33310,6,0,B|281:231|281:231|173:276|173:276|106:255,1,230,0|8,1:2|0:0,0:0:0:0:
39,176,34695,2,0,P|32:122|82:62,1,115,2|0,0:0|0:0,0:0:0:0:
164,17,35618,1,0,1:0:0:0:
263,75,36080,2,0,B|323:103|323:103|374:101,1,115,8|0,0:0|0:0,0:0:0:0:
485,84,37003,6,0,B|515:125|515:125|522:165|522:165|469:312,1,230,0|8,1:2|0:0,0:0:0:0:
253,361,38849,6,0,P|173:305|198:167,1,230,2|10,0:0|0:0,0:0:0:0:
401,114,40695,6,0,L|408:0,2,115,2|2|10,1:2|0:0|0:0,0:0:0:0:
323,198,42080,1,2,0:0:0:0:
397,285,42541,2,0,L|529:302,2,115,2|2|10,0:0|1:2|0:0,0:0:0:0:
323,198,43926,1,2,0:0:0:0:
255,290,44387,6,0,B|192:331|192:331|105:309|105:309|75:231,1,230,6|8,1:2|0:0,0:0:0:0:
54,136,45772,2,0,P|111:117|179:132,1,115,2|0,0:0|0:0,0:0:0:0:
267,176,46695,1,0,1:0:0:0:
367,120,47156,2,0,B|426:105|426:105|485:119,1,115,8|0,0:0|0:0,0:0:0:0:
506,229,48080,6,0,B|435:219|435:219|368:246|368:246|298:335,1,230,0|8,1:0|0:0,0:0:0:0:
208,357,49464,2,0,P|185:309|194:235,1,115,2|0,0:0|0:0,0:0:0:0:
241,145,50387,1,0,1:0:0:0:
208,34,50849,2,0,P|146:18|79:40,1,115,8|0,0:0|0:0,0:0:0:0:
27,121,51772,6,0,B|-8:176|-8:176|69:271|69:271|85:328,1,230,0|8,1:0|0:0,0:0:0:0:
303,367,53618,6,0,B|385:370|428:345,1,115,2|0,0:0|1:0,0:0:0:0:
505,278,54541,1,10,0:0:0:0:
348,109,55464,6,0,B|334:223,1,115,2|0,1:2|0:0,0:0:0:0:
319,337,56387,2,0,B|204:331,1,115,8|0,0:0|0:0,0:0:0:0:
89,321,57310,1,0,0:0:0:0:
41,215,57772,2,0,B|32:142|32:142|47:100,2,115,0|8|0,1:0|0:0|0:0,0:0:0:0:
155,223,59156,6,0,P|270:236|376:196,1,230,6|8,1:2|0:0,0:0:0:0:
497,1,61003,2,0,L|368:-1,1,115,0|0,0:0|1:0,0:0:0:0:
267,7,61926,1,10,0:0:0:0:
212,108,62387,1,2,0:0:0:0:
307,173,62849,6,0,P|369:242|306:349,1,230,2|8,1:2|0:0,0:0:0:0:
81,380,64695,2,0,B|74:254,1,115,0|0,0:0|1:0,0:0:0:0:
77,150,65618,1,10,0:0:0:0:
47,38,66080,1,2,0:0:0:0:
160,23,66541,6,0,P|232:54|209:188,1,230,2|8,1:2|0:0,0:0:0:0:
42,337,68387,2,0,L|172:336,1,115,0|0,0:0|1:0,0:0:0:0:
270,314,69310,1,10,0:0:0:0:
327,214,69772,1,2,0:0:0:0:
287,106,70233,6,0,B|247:52|247:52|82:51,1,230,2|8,1:2|0:0,0:0:0:0:
135,275,72080,6,0,B|175:329|175:329|337:329,1,230,2|8,0:0|0:0,0:0:0:0:
443,284,73464,1,2,0:0:0:0:
489,178,73926,6,0,L|492:57,1,115,4|0,1:2|0:0,0:0:0:0:
390,8,74849,2,0,L|389:131,1,115,8|0,0:0|0:0,0:0:0:0:
349,231,75772,2,0,B|258:158|159:163|159:163|136:194,1,230,2|8,1:2|0:0,0:0:0:0:
14,371,77618,6,0,B|152:364|204:303|204:303|207:269,1,230,2|8,1:2|0:0,0:0:0:0:
167,171,79003,1,0,0:0:0:0:
192,58,79464,2,0,B|203:40|203:40|286:32|286:32|298:16,2,115,2|0|8,1:2|0:0|0:0,0:0:0:0:
307,257,81310,6,0,B|364:292|425:271,1,115,2|0,1:2|0:0,0:0:0:0:
496,190,82233,2,0,B|507:138|507:138|493:78,1,115,8|0,0:0|0:0,0:0:0:0:
409,3,83156,2,0,B|348:-6|348:-6|288:10,2,115,0|0|8,1:0|0:0|0:0,0:0:0:0:
492,77,84541,1,2,0:0:0:0:
417,164,85003,6,0,P|371:178|306:161,1,115,2|0,1:2|0:0,0:0:0:0:
213,96,85926,2,0,B|157:83|157:83|101:94,1,115,8|0,0:0|0:0,0:0:0:0:
9,165,86849,2,0,B|-2:221|-2:221|17:292,2,115,2|0|8,0:0|0:0|0:0,0:0:0:0:
256,192,88695,12,2,93084,0:0:0:0:
