osu file format v14

[General]
AudioFilename: audio.mp3
AudioLeadIn: 0
PreviewTime: 635
Countdown: 0
SampleSet: Soft
StackLeniency: 0.7
Mode: 0
LetterboxInBreaks: 0
WidescreenStoryboard: 1

[Editor]
Bookmarks: 19921,34489
DistanceSpacing: 1
BeatDivisor: 4
GridSize: 32
TimelineZoom: 1.384

[Metadata]
Title:Adrift
TitleUnicode:Adrift
Artist:Disasterpeace
ArtistUnicode:Disasterpeace
Creator:Vulkin
Version:Normal
Source:osu!
Tags:Richard Vreeland Rise of the Obsidian Interstellar Chiptune Electronic Instrumental FA Featured Artist Wanpachi Cycopton -Joni- Mappers’ Guild MG
BeatmapID:2450242
BeatmapSetID:1171207

[Difficulty]
HPDrainRate:4.5
CircleSize:3.5
OverallDifficulty:4
ApproachRate:5
SliderMultiplier:1.05
SliderTickRate:1

[Events]
//Background and Video events
0,0,"StockSnap_DNGGMGAAP0.jpg",0,0
//Break Periods
//Storyboard Layer 0 (Background)
//Storyboard Layer 1 (Fail)
//Storyboard Layer 2 (Pass)
//Storyboard Layer 3 (Foreground)
//Storyboard Layer 4 (Overlay)
//Storyboard Sound Samples

[TimingPoints]
635,600,4,2,1,60,1,0
3035,601.503759398496,4,2,1,60,1,0
3937,-100,4,2,1,20,0,0
4238,-100,4,2,1,60,0,0
5441,603.015075376884,4,2,1,60,1,0
7853,603.015075376884,4,2,1,60,1,0
8757,-100,4,2,1,20,0,0
9059,-100,4,2,1,60,0,0
10265,602.409638554217,4,2,1,60,1,0
12674,603.621730382294,4,2,1,60,1,0
13579,-100,4,2,1,20,0,0
13881,-100,4,2,1,60,0,0
15088,604.534005037783,4,2,1,60,1,0
17506,604.534005037783,4,2,1,60,1,0
18412,-100,4,2,1,20,0,0
18715,-100,4,2,1,60,0,0
19924,604.534005037783,6,2,1,60,1,0
22644,-100,6,2,1,20,0,0
22946,-100,6,2,1,60,0,0
23248,-100,6,2,1,20,0,0
23551,607.287449392713,6,2,1,60,1,0
26283,-100,6,2,1,20,0,0
26587,-100,6,2,1,60,0,0
27194,607.348921955664,6,2,1,60,1,0
29927,-100,6,2,1,20,0,0
30230,-100,6,2,1,60,0,0
30534,-100,6,2,1,20,0,0
30838,609.137055837563,6,2,1,60,1,0
33579,-100,6,2,1,20,0,0
33883,-100,6,2,1,60,0,0
34492,610.376398779247,6,2,1,60,1,0
37238,-100,6,2,1,20,0,0
37543,-100,6,2,1,60,0,0
37849,-100,6,2,1,20,0,0
38154,609.756097560976,6,2,1,60,1,0
40897,-100,6,2,1,20,0,0
41202,-100,6,2,1,60,0,0
41812,612.244897959184,6,2,1,60,1,0
44567,-100,6,2,1,20,0,0
44873,-100,6,2,1,60,0,0
45485,618.556701030928,6,2,1,60,1,0
45794,-100,6,2,1,20,0,0
46103,645.161290322581,6,2,1,20,1,8
46748,666.666666666667,6,2,1,20,1,8
47414,683.760683760684,6,2,1,20,1,8
48097,729.483282674772,6,2,1,20,1,8
48826,714.285714285714,6,2,1,20,1,8
49540,750,6,2,1,60,1,0

[Colours]
Combo1 : 213,221,234
Combo2 : 71,99,141
Combo3 : 114,141,184
Combo4 : 170,187,213

[HitObjects]
70,296,635,6,0,P|121:288|171:303,1,105,2|2,0:0|0:0,0:0:0:0:
268,343,1835,2,0,P|317:357|369:349,1,105,2|2,0:0|0:0,0:0:0:0:
447,279,3035,1,2,0:0:0:0:
423,176,3636,2,0,L|372:160,1,52.5,2|0,0:0|0:0,0:0:0:0:
323,144,4238,1,2,0:0:0:0:
358,45,4839,1,2,0:0:0:0:
253,37,5441,6,0,P|213:68|155:78,1,105,2|2,0:0|0:0,0:0:0:0:
57,66,6647,2,0,L|71:180,1,105,2|2,0:0|0:0,0:0:0:0:
22,263,7853,1,2,0:0:0:0:
79,350,8456,2,0,L|132:346,1,52.5,2|0,0:0|0:0,0:0:0:0:
183,344,9059,1,2,0:0:0:0:
229,250,9662,1,2,0:0:0:0:
286,337,10265,6,0,L|395:349,1,105,2|2,0:0|0:0,0:0:0:0:
333,261,11469,2,0,L|224:249,1,105,2|2,0:0|0:0,0:0:0:0:
132,292,12674,1,2,0:0:0:0:
47,230,13277,2,0,L|52:177,1,52.5,2|0,0:0|0:0,0:0:0:0:
58,125,13881,1,2,0:0:0:0:
154,82,14484,1,2,0:0:0:0:
239,144,15088,6,0,P|254:188|268:252,1,105,2|2,0:0|0:0,0:0:0:0:
335,324,16297,2,0,P|346:272|362:222,1,105,2|2,0:0|0:0,0:0:0:0:
450,165,17506,1,2,0:0:0:0:
445,61,18110,2,0,L|398:37,1,52.5,2|0,0:0|0:0,0:0:0:0:
352,14,18715,1,2,0:0:0:0:
265,71,19319,1,2,0:0:0:0:
270,174,19924,6,0,B|158:166|189:242|74:230,1,210,2|2,0:0|0:0,0:0:0:0:
28,136,21737,1,2,0:0:0:0:
81,45,22342,2,0,L|141:40,1,52.5,2|0,0:0|0:0,0:0:0:0:
178,67,22946,2,0,L|230:71,1,52.5,2|0,0:0|0:0,0:0:0:0:
278,49,23551,6,0,B|339:55|339:55|393:122|393:122|454:129,1,210,2|2,0:0|0:0,0:0:0:0:
495,225,25372,1,2,0:0:0:0:
431,308,25980,2,0,L|379:300,1,52.5,2|0,0:0|0:0,0:0:0:0:
327,294,26587,1,2,0:0:0:0:
237,348,27194,6,0,B|192:363|133:355|133:355|110:303|110:252,1,210,2|2,0:0|0:0,0:0:0:0:
159,159,29016,1,2,0:0:0:0:
264,154,29623,2,0,L|326:165,1,52.5,2|0,0:0|0:0,0:0:0:0:
356,196,30230,2,0,L|407:186,1,52.5,2|0,0:0|0:0,0:0:0:0:
447,151,30838,6,0,P|445:257|494:352,1,210,2|2,0:0|0:0,0:0:0:0:
386,339,32665,1,2,0:0:0:0:
342,245,33274,2,0,L|289:239,1,52.5,2|0,0:0|0:0,0:0:0:0:
238,236,33883,1,2,0:0:0:0:
178,322,34492,6,0,B|87:334|108:282|28:289|28:289|20:265|26:232,1,210,2|2,0:0|0:0,0:0:0:0:
57,137,36323,1,2,0:0:0:0:
160,115,36933,2,0,L|212:121,1,52.5,2|0,0:0|0:0,0:0:0:0:
260,102,37543,2,0,L|312:95,1,52.5,2|0,0:0|0:0,0:0:0:0:
358,70,38154,6,0,B|365:130|365:130|433:184|433:184|441:245,1,210,2|2,0:0|0:0,0:0:0:0:
399,341,39983,1,2,0:0:0:0:
295,352,40593,2,0,L|264:310,1,52.5,2|0,0:0|0:0,0:0:0:0:
233,267,41202,1,2,0:0:0:0:
129,276,41812,6,0,B|139:166|56:200|79:81,1,210,2|2,0:0|0:0,0:0:0:0:
162,17,43648,1,2,0:0:0:0:
259,57,44260,2,0,L|311:50,1,52.5,2|0,0:0|0:0,0:0:0:0:
363,44,44873,1,2,0:0:0:0:
460,84,45485,5,2,0:0:0:0:
256,192,45794,12,0,49540,0:0:0:0:
