osu file format v14

[General]
AudioFilename: audio.mp3
AudioLeadIn: 0
PreviewTime: 635
Countdown: 0
SampleSet: Soft
StackLeniency: 1
Mode: 1
LetterboxInBreaks: 0
WidescreenStoryboard: 1

[Editor]
Bookmarks: 19921,34489
DistanceSpacing: 1.2
BeatDivisor: 2
GridSize: 32
TimelineZoom: 0.5839999

[Metadata]
Title:Adrift
TitleUnicode:Adrift
Artist:Disasterpeace
ArtistUnicode:Disasterpeace
Creator:Vulkin
Version:Futsuu
Source:osu!
Tags:Richard Vreeland Rise of the Obsidian Interstellar Chiptune Electronic Instrumental FA Featured Artist Wanpachi Cycopton -Joni- Mappers’ Guild MG
BeatmapID:2450331
BeatmapSetID:1171207

[Difficulty]
HPDrainRate:9
CircleSize:7
OverallDifficulty:3
ApproachRate:10
SliderMultiplier:1.4
SliderTickRate:1

[Events]
//Background and Video events
0,0,"StockSnap_DNGGMGAAP0.jpg",0,0
//Break Periods
//Storyboard Layer 0 (Background)
//Storyboard Layer 1 (Fail)
//Storyboard Layer 2 (Pass)
//Storyboard Layer 3 (Foreground)
//Storyboard Layer 4 (Overlay)
//Storyboard Sound Samples

[TimingPoints]
635,600,4,2,1,60,1,0
635,-100,4,2,1,60,0,0
3035,601.503759398496,4,2,1,60,1,0
3035,-100,4,2,1,60,0,0
5441,603.015075376884,4,2,1,60,1,0
5441,-99.009900990099,4,2,1,60,0,0
7853,603.015075376884,4,2,1,60,1,0
7853,-99.009900990099,4,2,1,60,0,0
10265,602.409638554217,4,2,1,60,1,0
10265,-100,4,2,1,60,0,0
12674,603.621730382294,4,2,1,60,1,0
12674,-99.009900990099,4,2,1,60,0,0
15088,604.534005037783,4,2,1,60,1,0
15088,-99.009900990099,4,2,1,60,0,0
17506,604.534005037783,4,2,1,60,1,0
17506,-99.009900990099,4,2,1,60,0,0
19924,604.534005037783,6,2,1,60,1,0
19924,-99.009900990099,6,2,1,60,0,0
23551,607.287449392713,6,2,1,60,1,0
23551,-99.009900990099,6,2,1,60,0,0
27194,607.348921955664,6,2,1,60,1,0
27194,-99.009900990099,6,2,1,60,0,0
30838,609.137055837563,6,2,1,60,1,0
30838,-98.0392156862745,6,2,1,60,0,0
34492,610.376398779247,6,2,1,60,1,0
34492,-98.0392156862745,6,2,1,60,0,0
38154,609.756097560976,6,2,1,60,1,0
38154,-98.0392156862745,6,2,1,60,0,0
41812,612.244897959184,6,2,1,60,1,0
41812,-98.0392156862745,6,2,1,60,0,0
45485,618.556701030928,6,2,1,60,1,0
45485,-97.0873786407767,6,2,1,60,0,0
46103,645.161290322581,6,2,1,60,1,8
46103,-92.5925925925926,6,2,1,60,0,8
46748,666.666666666667,6,2,1,60,1,8
46748,-90.0900900900901,6,2,1,60,0,8
47414,683.760683760684,6,2,1,60,1,8
47414,-87.719298245614,6,2,1,60,0,8
48097,729.483282674772,6,2,1,20,1,8
48097,-81.9672131147541,6,2,1,20,0,8
48826,714.285714285714,6,2,1,20,1,8
48826,-84.0336134453782,6,2,1,20,0,8
49183,-84.0336134453782,6,2,1,60,0,0
49540,750,6,2,1,60,1,0
49540,-80,6,2,1,60,0,0

[Colours]
Combo1 : 213,221,234
Combo2 : 71,99,141
Combo3 : 114,141,184
Combo4 : 170,187,213

[HitObjects]
256,192,635,5,0,0:0:0:0:
256,192,1235,1,0,0:0:0:0:
256,192,1835,1,8,0:0:0:0:
256,192,3035,1,8,0:0:0:0:
256,192,3636,1,8,0:0:0:0:
256,192,4238,1,0,0:0:0:0:
256,192,4839,1,8,0:0:0:0:
256,192,5441,1,8,0:0:0:0:
256,192,6044,1,8,0:0:0:0:
256,192,6647,1,0,0:0:0:0:
256,192,7853,1,0,0:0:0:0:
256,192,8456,1,8,0:0:0:0:
256,192,9059,1,0,0:0:0:0:
256,192,10265,1,8,0:0:0:0:
256,192,10867,1,8,0:0:0:0:
256,192,11469,1,0,0:0:0:0:
256,192,12674,1,0,0:0:0:0:
256,192,13277,1,8,0:0:0:0:
256,192,13881,1,8,0:0:0:0:
256,192,14484,1,0,0:0:0:0:
256,192,15088,1,8,0:0:0:0:
256,192,15692,1,8,0:0:0:0:
256,192,16297,1,0,0:0:0:0:
256,192,17506,1,8,0:0:0:0:
256,192,18110,1,8,0:0:0:0:
256,192,18715,1,8,0:0:0:0:
256,192,19319,1,0,0:0:0:0:
256,192,19924,1,8,0:0:0:0:
256,192,21737,1,0,0:0:0:0:
256,192,22342,1,8,0:0:0:0:
256,192,22946,1,8,0:0:0:0:
256,192,23551,1,0,0:0:0:0:
256,192,25372,1,8,0:0:0:0:
256,192,25980,1,8,0:0:0:0:
256,192,26587,1,0,0:0:0:0:
256,192,27194,1,8,0:0:0:0:
256,192,29016,1,0,0:0:0:0:
256,192,29623,1,8,0:0:0:0:
256,192,30230,1,8,0:0:0:0:
256,192,30838,1,0,0:0:0:0:
256,192,32665,1,8,0:0:0:0:
256,192,33274,1,8,0:0:0:0:
256,192,33883,1,0,0:0:0:0:
256,192,34492,1,8,0:0:0:0:
256,192,36323,1,0,0:0:0:0:
256,192,36933,1,8,0:0:0:0:
256,192,37543,1,0,0:0:0:0:
256,192,38154,1,0,0:0:0:0:
256,192,39373,1,0,0:0:0:0:
256,192,39983,1,8,0:0:0:0:
256,192,40593,1,0,0:0:0:0:
256,192,41202,1,8,0:0:0:0:
256,192,41812,1,8,0:0:0:0:
256,192,43648,1,0,0:0:0:0:
256,192,44260,1,8,0:0:0:0:
256,192,44873,1,0,0:0:0:0:
256,192,45485,1,0,0:0:0:0:
256,192,46103,1,8,0:0:0:0:
256,192,46748,1,0,0:0:0:0:
256,192,47414,1,8,0:0:0:0:
256,192,49540,1,0,0:0:0:0:
