osu file format v14

[General]
AudioFilename: audio.mp3
AudioLeadIn: 0
PreviewTime: 42656
Countdown: 0
SampleSet: Soft
StackLeniency: 1
Mode: 0
LetterboxInBreaks: 0
WidescreenStoryboard: 0

[Editor]
Bookmarks: 42656,85323,170656
DistanceSpacing: 1
BeatDivisor: 4
GridSize: 4
TimelineZoom: 3.099999

[Metadata]
Title:Hammer
TitleUnicode:Hammer
Artist:Dirtyphonics & Sullivan King
ArtistUnicode:Dirtyphonics & Sullivan King
Creator:depzdai
Version:JACK
Source:Vantablack EP
Tags:metalstep metal drumstep dubstep brostep dnb rock edm dirtyphonics sullivan king monstercat
BeatmapID:1927707
BeatmapSetID:923118

[Difficulty]
HPDrainRate:5
CircleSize:4.5
OverallDifficulty:9
ApproachRate:9.5
SliderMultiplier:2.9
SliderTickRate:2

[Events]
//Background and Video events
0,0,"VantablackEP.png",0,0
//Break Periods
//Storyboard Layer 0 (Background)
//Storyboard Layer 1 (Fail)
//Storyboard Layer 2 (Pass)
//Storyboard Layer 3 (Foreground)
//Storyboard Sound Samples

[TimingPoints]
-20,333.333333333333,4,2,1,80,1,0
7896,-166.666666666667,4,2,1,5,0,0
7979,-166.666666666667,4,2,1,80,0,0
10313,-212.765957446809,4,2,1,80,0,0
10646,-166.666666666667,4,2,1,80,0,0
20979,-212.765957446809,4,2,1,80,0,0
21313,-111.111111111111,4,2,1,80,0,0
21479,-166.666666666667,4,2,1,80,0,0
22229,-166.666666666667,4,2,1,5,0,0
22313,-166.666666666667,4,2,1,80,0,0
22896,-166.666666666667,4,2,1,5,0,0
22979,-166.666666666667,4,2,1,80,0,0
24896,-166.666666666667,4,2,1,5,0,0
24979,-166.666666666667,4,2,1,80,0,0
25563,-166.666666666667,4,2,1,5,0,0
25646,-166.666666666667,4,2,1,80,0,0
28646,-166.666666666667,4,2,1,80,0,0
29313,-166.666666666667,4,2,1,80,0,0
31979,-133.333333333333,4,2,1,80,0,0
37646,-333.333333333333,4,2,1,80,0,0
37979,-250,4,2,1,80,0,0
38313,-200,4,2,1,80,0,0
38646,-133.333333333333,4,2,1,80,0,0
38979,-166.666666666667,4,2,1,80,0,0
39313,-142.857142857143,4,2,1,80,0,0
39646,-125,4,2,1,80,0,0
39979,-111.111111111111,4,2,1,80,0,0
42646,-83.3333333333333,4,2,1,80,0,1
63646,-111.111111111111,4,2,1,80,0,0
63813,-166.666666666667,4,2,1,80,0,0
63979,-333.333333333333,4,2,1,40,0,0
65813,-333.333333333333,4,2,1,80,0,0
65979,-83.3333333333333,4,2,1,80,0,0
84979,-111.111111111111,4,2,1,80,0,0
85146,-166.666666666667,4,2,1,80,0,0
85313,-333.333333333333,4,2,1,20,0,0
95979,-333.333333333333,4,2,1,40,0,0
105646,-333.333333333333,4,2,1,60,0,0
106646,-166.666666666667,4,2,1,60,0,0
114646,-333.333333333333,4,2,1,10,0,0
114979,-222.222222222222,4,2,1,20,0,0
115313,-166.666666666667,4,2,1,40,0,0
115646,-133.333333333333,4,2,1,60,0,0
115979,-111.111111111111,4,2,1,40,0,0
116646,-83.3333333333333,4,2,1,80,0,0
117313,-166.666666666667,4,2,1,60,0,0
119813,-133.333333333333,4,2,1,80,0,0
122979,-333.333333333333,4,2,1,80,0,0
123313,-250,4,2,1,80,0,0
123646,-200,4,2,1,80,0,0
123979,-133.333333333333,4,2,1,80,0,0
124313,-166.666666666667,4,2,1,80,0,0
124646,-142.857142857143,4,2,1,80,0,0
124979,-125,4,2,1,80,0,0
125313,-111.111111111111,4,2,1,80,0,0
127979,-83.3333333333333,4,2,1,80,0,1
148646,-133.333333333333,4,2,1,80,0,0
149313,-333.333333333333,4,2,1,20,0,0
151146,-83.3333333333333,4,2,1,80,0,0
151313,-83.3333333333333,4,2,1,80,0,0
170646,-166.666666666667,4,2,1,80,0,0
171979,-111.111111111111,4,2,1,80,0,0
172313,-166.666666666667,4,2,1,80,0,0
174646,-111.111111111111,4,2,1,80,0,0
174979,-166.666666666667,4,2,1,80,0,0
177313,-111.111111111111,4,2,1,80,0,0
177646,-166.666666666667,4,2,1,80,0,0
185313,-166.666666666667,4,2,1,60,0,0
187313,-166.666666666667,4,2,1,5,0,0
187413,-166.666666666667,4,2,1,80,0,0

[Colours]
Combo1 : 232,179,17
Combo2 : 255,218,140

[HitObjects]
256,192,5313,12,0,7896,0:0:0:0:
408,37,7979,5,0,1:0:0:0:
421,140,8146,1,0,1:0:0:0:
434,243,8313,1,0,1:0:0:0:
447,346,8479,1,0,1:0:0:0:
104,37,8979,5,0,1:0:0:0:
91,140,9146,1,0,1:0:0:0:
78,243,9313,1,0,1:0:0:0:
65,346,9479,1,0,1:0:0:0:
256,223,9979,5,0,1:0:0:0:
256,327,10146,1,0,1:0:0:0:
256,119,10313,2,0,L|256:3,1,102.22499844017,0|0,1:0|0:0,0:0:0:0:
256,16,10646,6,0,B|282:29|308:29|308:29|329:0|390:-10,1,130.499996017456,4|0,1:0|0:0,0:0:0:0:
395,59,10979,2,0,P|347:91|435:84,1,217.499993362427,8|0,0:3|0:0,0:0:0:0:
297,171,11479,2,0,P|349:213|499:151,1,217.499993362427,4|0,0:3|0:0,0:0:0:0:
319,273,11979,2,0,B|271:254|242:207|242:207|229:214|216:211,1,130.499996017456,8|0,0:3|0:0,0:0:0:0:
199,146,12313,2,0,B|155:148|131:189|129:260|201:283|201:283|171:291|155:308,1,217.499993362427,4|0,0:3|0:0,0:0:0:0:
168,357,12813,2,0,P|198:354|230:339,1,43.4999986724854,4|0,0:3|0:0,0:0:0:0:
78,217,12979,2,0,P|81:247|96:279,1,43.4999986724854,4|0,0:3|0:0,0:0:0:0:
100,335,13146,2,0,P|70:332|38:317,1,43.4999986724854,4|0,0:3|0:0,0:0:0:0:
105,149,13313,6,0,B|105:118|120:88|120:88|135:60|134:7,1,130.499996017456,4|0,0:3|0:0,0:0:0:0:
184,117,13646,2,0,P|180:183|312:170,1,217.499993362427,8|0,0:3|0:0,0:0:0:0:
361,228,14146,2,0,P|365:162|233:175,1,217.499993362427,4|0,0:3|0:0,0:0:0:0:
228,278,14646,2,0,B|242:254|237:225|237:225|281:224|302:192,1,130.499996017456,8|0,0:3|0:0,0:0:0:0:
167,245,14979,2,0,B|153:269|158:298|158:298|114:299|93:331,1,130.499996017456,4|0,0:3|0:0,0:0:0:0:
153,368,15313,2,0,P|181:364|212:350,1,43.4999986724854,4|0,0:3|0:0,0:0:0:0:
228,278,15479,2,0,P|248:284|270:287,1,43.4999986724854,4|0,0:3|0:0,0:0:0:0:
341,333,15646,2,0,P|345:361|359:392,1,43.4999986724854,4|0,0:3|0:0,0:0:0:0:
269,204,15813,2,0,P|273:176|287:145,1,43.4999986724854,4|0,0:3|0:0,0:0:0:0:
360,160,15979,6,0,P|405:256|402:298,1,130.499996017456,4|0,1:0|0:0,0:0:0:0:
487,286,16313,2,0,P|473:192|399:88,1,217.499993362427,8|0,0:3|0:0,0:0:0:0:
308,55,16813,2,0,B|323:55|329:68|329:68|319:95|324:139|360:160,1,130.499996017456,4|0,0:3|0:0,0:0:0:0:
241,5,17146,2,0,B|216:50|235:95|235:95|245:126|228:146|228:146|213:166|225:191|225:191|224:171|237:162,1,217.499993362427,4|0,0:3|0:0,0:0:0:0:
177,261,17646,2,0,B|148:237|140:189|140:189|113:184|82:153,1,130.499996017456,4|0,0:3|0:0,0:0:0:0:
69,244,17979,1,4,0:3:0:0:
40,320,18146,2,0,P|61:324|83:326,1,43.4999986724854,4|0,0:3|0:0,0:0:0:0:
69,244,18313,2,0,P|50:231|25:207,1,43.4999986724854,4|0,0:3|0:0,0:0:0:0:
81,127,18479,2,0,P|88:148|98:168,1,43.4999986724854,4|0,0:3|0:0,0:0:0:0:
159,113,18646,5,0,1:0:0:0:
334,95,18813,1,0,1:0:0:0:
352,270,18979,1,0,1:0:0:0:
177,288,19146,1,0,1:0:0:0:
116,205,19646,5,0,1:0:0:0:
240,51,19813,1,0,1:0:0:0:
396,178,19979,1,0,1:0:0:0:
271,332,20146,1,0,1:0:0:0:
129,345,20646,5,0,1:0:0:0:
129,38,20813,1,0,1:0:0:0:
200,193,20979,2,0,L|98:193,1,102.22499844017,0|0,1:0|0:0,0:0:0:0:
98,193,21313,6,0,B|110:217|110:217|110:278,1,65.2499980087281,4|0,1:0|0:0,0:0:0:0:
141,363,21479,1,0,0:0:0:0:
289,261,21646,1,0,0:0:0:0:
253,366,21813,1,0,0:0:0:0:
200,193,21979,6,2,B|204:149|204:149|239:135|239:135|257:82,1,130.499996017456,0|0,0:0|0:0,0:0:0:0:
324,71,22313,5,0,0:0:0:0:
431,167,22479,1,0,0:0:0:0:
426,66,22646,1,0,0:0:0:0:
329,172,22813,2,2,L|289:187,1,43.4999986724854,0|0,0:0|0:0,0:0:0:0:
334,273,22979,5,0,0:0:0:0:
436,268,23146,1,0,0:0:0:0:
192,293,23313,2,2,B|154:308|154:308|108:268|108:268|84:292|84:292|74:213|74:213|49:168|49:168|60:109,1,304.499990707398,0|0,0:0|0:0,0:0:0:0:
99,74,23979,5,4,1:0:0:0:
243,65,24146,1,0,0:0:0:0:
199,121,24313,1,0,0:0:0:0:
343,112,24480,1,0,0:0:0:0:
387,56,24646,2,2,B|410:27|410:27|426:94|426:94|461:122,1,130.499996017456,0|0,0:0|0:0,0:0:0:0:
491,54,24979,5,0,0:0:0:0:
478,173,25146,1,0,0:0:0:0:
465,292,25313,1,0,0:0:0:0:
388,233,25479,2,2,L|432:228,1,43.4999986724854,0|0,0:0|0:0,0:0:0:0:
355,169,25646,5,0,0:0:0:0:
232,165,25813,1,0,0:0:0:0:
300,295,25979,1,0,0:0:0:0:
256,300,26063,1,0,0:0:0:0:
212,305,26146,6,0,P|207:291|204:275,1,21.7499993362427,0|0,0:0|1:0,1:0:0:0:
164,266,26229,2,0,P|166:251|172:236,1,21.7499993362427,0|0,1:0|1:0,1:0:0:0:
155,191,26313,5,8,0:0:0:0:
155,157,26396,1,0,0:0:0:0:
159,131,26479,1,0,1:0:0:0:
162,113,26563,1,0,0:0:0:0:
165,104,26646,5,4,1:0:0:0:
63,66,26813,1,0,1:0:0:0:
249,49,26979,1,0,1:0:0:0:
147,11,27146,1,0,1:0:0:0:
81,159,27313,2,2,L|94:257,1,86.9999973449708,0|0,1:0|1:0,0:0:0:0:
110,338,27646,5,0,1:0:0:0:
176,190,27813,1,0,1:0:0:0:
194,283,27979,1,0,1:0:0:0:
296,321,28146,2,2,L|290:277,1,43.4999986724854,0|0,1:0|0:0,0:0:0:0:
260,135,28313,5,0,1:0:0:0:
374,222,28479,1,0,1:0:0:0:
440,74,28646,2,0,L|376:67,1,43.4999986724854,8|0,0:0|0:0,0:0:0:0:
260,135,28813,2,0,L|324:142,1,43.4999986724854,8|0,0:0|0:0,0:0:0:0:
421,230,28979,2,0,L|357:223,1,43.4999986724854,8|0,0:0|0:0,0:0:0:0:
241,291,29146,2,0,L|305:298,1,43.4999986724854,8|0,0:0|0:0,0:0:0:0:
166,204,29313,5,0,1:0:0:0:
185,48,29479,1,0,1:0:0:0:
92,118,29646,1,0,1:0:0:0:
73,274,29813,1,0,1:0:0:0:
147,360,29979,2,2,L|159:255,1,86.9999973449708,0|0,1:0|1:0,0:0:0:0:
174,134,30313,5,0,1:0:0:0:
185,48,30479,1,0,1:0:0:0:
327,47,30646,2,0,L|335:117,1,43.4999986724854,8|8,0:2|0:0,0:0:0:0:
354,273,30813,2,0,L|363:343,1,43.4999986724854,0|0,1:0|0:0,0:0:0:0:
343,181,30979,5,0,1:0:0:0:
430,171,31146,1,0,1:0:0:0:
256,191,31313,1,8,0:0:0:0:
217,209,31396,1,8,0:0:0:0:
201,249,31479,1,8,0:0:0:0:
214,290,31563,1,8,0:0:0:0:
178,265,31646,5,0,1:0:0:0:
165,287,31729,1,0,1:0:0:0:
141,299,31813,1,0,1:0:0:0:
115,300,31896,1,0,1:0:0:0:
92,249,31979,6,0,L|209:249,1,108.750004148483,12|0,0:0|0:0,0:0:0:0:
420,316,32313,1,8,0:0:0:0:
312,316,32480,1,0,1:0:0:0:
92,249,32646,1,8,0:0:0:0:
200,249,32813,1,0,1:0:0:0:
420,182,32979,1,8,0:0:0:0:
312,182,33146,1,0,1:0:0:0:
92,115,33313,6,0,L|92:-2,1,108.750004148483,8|0,0:0|0:0,0:0:0:0:
159,269,33646,1,8,0:0:0:0:
159,377,33813,1,0,1:0:0:0:
226,115,33979,1,8,0:0:0:0:
226,7,34146,1,0,1:0:0:0:
226,61,34229,1,0,1:0:0:0:
226,115,34313,1,8,0:0:0:0:
293,377,34479,1,0,1:0:0:0:
293,323,34562,1,0,1:0:0:0:
293,269,34646,6,0,L|410:269,1,108.750004148483,12|0,0:0|0:0,0:0:0:0:
219,202,34980,1,8,0:0:0:0:
111,202,35147,1,0,1:0:0:0:
293,136,35313,1,8,0:0:0:0:
401,136,35479,1,0,1:0:0:0:
219,69,35646,1,8,0:0:0:0:
111,69,35813,1,0,1:0:0:0:
293,2,35979,6,0,L|293:119,1,108.750004148483,8|0,0:0|0:0,0:0:0:0:
382,382,36313,1,8,0:0:0:0:
382,273,36479,1,0,1:0:0:0:
293,1,36646,1,8,0:0:0:0:
293,110,36813,1,0,1:0:0:0:
293,56,36896,1,0,1:0:0:0:
293,1,36979,1,12,0:0:0:0:
239,1,37063,2,0,B|215:28|215:28|123:28,1,108.750004148483,8|0,0:0|0:0,0:0:0:0:
1,194,37313,5,12,0:0:0:0:
39,155,37396,1,8,0:0:0:0:
93,155,37479,1,8,0:0:0:0:
142,103,37646,2,0,L|186:132,1,43.4999986724854,0|0,1:0|0:0,0:0:0:0:
247,109,37979,2,0,L|277:177,1,58,0|0,1:0|0:0,0:0:0:0:
337,183,38313,2,0,B|328:239|328:239|350:280,1,72.5,0|12,1:0|0:0,0:0:0:0:
145,342,38646,5,12,0:0:0:0:
153,289,38729,1,8,0:0:0:0:
123,244,38813,1,8,0:0:0:0:
183,84,38979,2,0,L|137:158,1,86.9999973449708,0|0,1:0|0:0,0:0:0:0:
367,75,39313,2,0,L|267:61,1,101.499996902466,0|0,1:0|0:0,0:0:0:0:
442,212,39646,2,0,B|423:142|423:142|461:107,1,116,0|12,1:0|0:0,0:0:0:0:
361,272,39979,5,12,0:0:0:0:
376,323,40063,1,8,0:0:0:0:
335,354,40146,1,8,0:0:0:0:
291,191,40313,5,12,0:0:0:0:
275,137,40397,1,8,0:0:0:0:
318,104,40480,1,8,0:0:0:0:
211,264,40646,5,12,0:0:0:0:
227,320,40730,1,8,0:0:0:0:
181,355,40813,1,8,0:0:0:0:
140,170,40980,5,12,0:0:0:0:
122,111,41064,1,8,0:0:0:0:
171,74,41147,1,8,0:0:0:0:
61,256,41312,5,12,0:0:0:0:
79,317,41396,1,8,0:0:0:0:
28,356,41479,1,8,0:0:0:0:
10,295,41563,1,8,0:0:0:0:
61,256,41646,5,12,0:0:0:0:
130,278,41729,1,8,0:0:0:0:
79,317,41812,1,8,0:0:0:0:
10,295,41896,1,8,0:0:0:0:
43,195,41979,5,8,0:0:0:0:
469,189,42646,6,0,B|515:238|486:324|383:350|317:250|378:187|378:187|435:124|372:36|280:47|235:129|286:187,1,608.999981414795,4|0,1:0|0:0,0:0:0:0:
286,187,43313,6,0,B|235:129|280:47|372:36|435:124|378:187|378:187|317:250|383:350|486:324|515:238|469:189,1,608.999981414795,8|0,0:1|0:0,0:0:0:0:
469,189,43979,6,0,B|515:238|486:324|383:350|317:250|378:187|378:187|435:124|372:36|280:47|235:129|286:187,1,608.999981414795,0|0,1:0|0:0,0:0:0:0:
286,186,44646,6,0,B|235:127|280:46|372:34|435:123|377:186,1,260.999992034912,8|0,0:1|0:0,0:0:0:0:
469,189,44979,6,0,B|515:238|486:324|383:350|317:250|378:187,1,260.999992034912,0|0,1:0|0:0,0:0:0:0:
97,354,45313,6,0,B|168:337|192:260|157:180|69:183|69:183|37:186,1,260.999992034912,4|0,1:0|0:0,0:0:0:0:
48,179,45646,1,2,0:0:0:0:
51,139,45729,1,2,0:0:0:0:
32,101,45813,1,2,0:0:0:0:
63,63,45896,1,2,0:0:0:0:
204,64,45979,6,0,B|158:88|144:60|144:60|129:33|118:59|118:59|105:86|84:68|84:68|63:52|59:73|59:73|54:91|34:99|34:99|6:113|35:125|35:125|58:133|48:160|48:160|37:186|69:183|69:183|157:180|192:260|168:337|97:354,1,608.999981414795,8|0,0:1|0:0,0:0:0:0:
97,354,46646,6,0,B|168:337|192:260|157:180|69:183|69:183|37:186|48:160|48:160|58:133|35:125|35:125|6:113|34:99|34:99|54:91|59:73|59:73|63:52|84:68|84:68|105:86|118:59,1,434.999986724854,0|0,1:0|0:0,0:0:0:0:
130,46,47146,1,0,1:0:0:0:
155,71,47202,1,0,1:0:0:0:
181,73,47257,1,0,1:0:0:0:
204,64,47313,6,0,B|158:88|144:60|144:60|129:33|118:59|118:59|105:86|84:68|84:68|63:52|59:73|59:73|54:91|34:99|34:99|6:113|35:125,1,260.999992034912,8|0,0:1|0:0,0:0:0:0:
69,183,47646,6,0,B|157:180|192:260|168:337|97:354,1,260.999992034912,8|0,0:1|0:0,0:0:0:0:
453,83,47979,6,0,L|430:343,1,260.999992034912,4|0,1:0|0:0,0:0:0:0:
372,209,48313,6,2,B|271:182|268:51|381:-7|455:63,1,260.999992034912,0|0,0:0|0:0,0:1:0:0:
430,343,48646,6,0,B|455:63|455:63|381:-7|268:51|271:182|372:209,1,608.999981414795,8|0,0:1|0:0,0:0:0:0:
372,209,49313,6,0,B|271:182|268:51|381:-7|455:63|455:63|430:343,1,608.999981414795,0|0,1:0|0:0,0:0:0:0:
430,343,49979,6,0,L|453:83,1,260.999992034912,8|0,0:1|0:0,0:0:0:0:
372,209,50313,6,0,B|271:182|268:51|381:-7|455:63,1,260.999992034912,0|0,1:0|0:0,0:0:0:0:
379,121,50646,5,0,1:0:0:0:
356,295,50813,1,0,0:0:0:0:
296,174,50979,1,0,0:0:0:0:
248,323,51146,1,0,0:0:0:0:
213,227,51312,5,8,0:1:0:0:
218,85,51479,1,0,0:0:0:0:
130,174,51646,1,0,0:0:0:0:
109,17,51813,1,0,1:0:0:0:
47,121,51979,5,0,0:0:0:0:
24,295,52146,1,8,0:1:0:0:
151,331,52313,1,0,0:0:0:0:
180,299,52396,1,0,3:0:0:0:
219,280,52479,1,0,3:0:0:0:
262,274,52563,1,0,3:0:0:0:
297,226,52646,5,8,0:1:0:0:
304,283,52729,1,8,0:3:0:0:
339,334,52812,1,8,0:3:0:0:
391,364,52896,1,8,0:3:0:0:
375,330,52979,5,8,0:3:0:0:
357,332,53063,1,4,0:3:0:0:
321,336,53146,5,8,0:3:0:0:
303,338,53229,1,4,0:3:0:0:
267,342,53313,6,0,P|163:278|53:342,1,260.999992034912,4|0,1:0|0:0,0:0:0:0:
53,341,53646,2,0,P|117:237|53:127,1,260.999992034912,2|0,0:1|0:0,0:0:0:0:
67,128,53979,6,0,P|123:240|57:347,1,260.999992034912,8|0,0:1|0:0,0:0:0:0:
55,325,54311,2,0,P|167:271|273:338,1,260.999992034912,2|0,0:1|0:0,0:0:0:0:
279,334,54646,6,0,P|174:264|58:311,1,260.999992034912,0|0,1:0|0:0,0:0:0:0:
61,353,54979,2,0,P|130:248|83:132,1,260.999992034912,2|0,0:1|0:0,0:0:0:0:
97,136,55313,6,0,P|136:256|64:359,1,260.999992034912,8|0,0:1|0:0,0:0:0:0:
284,331,55646,6,0,P|182:258|62:297,1,260.999992034912,0|0,1:0|0:0,0:0:0:0:
229,157,55979,6,0,P|348:195|451:123,1,260.999992034912,4|0,1:0|0:0,0:0:0:0:
416,67,56313,1,2,0:0:0:0:
378,89,56396,1,2,0:0:0:0:
350,67,56479,1,2,0:0:0:0:
338,102,56563,1,2,0:0:0:0:
248,92,56646,6,0,B|285:116|300:91|300:91|312:68|328:92|328:92|343:117|343:79|343:79|343:48|369:83|369:83|380:101|381:74|381:74|383:56|395:68|395:68|407:82|415:67,1,260.999992034912,8|0,0:1|0:0,0:0:0:0:
458,124,56979,6,0,P|356:199|233:169,1,260.999992034912,2|0,0:1|0:0,0:0:0:0:
239,180,57313,6,0,P|363:204|464:127,1,260.999992034912,0|0,1:0|0:0,0:0:0:0:
408,66,57646,6,0,B|408:73|395:59|395:59|383:46|381:65|381:65|380:94|368:75|368:75|341:38,1,86.9999973449708,2|0,0:1|0:0,0:0:0:0:
298,80,57813,1,0,1:0:0:0:
272,97,57868,1,0,1:0:0:0:
253,91,57924,1,0,1:0:0:0:
247,84,57979,6,0,B|275:103|291:75|291:75|304:50|322:77|322:77|339:104|338:62|338:62|339:28|367:66|367:66|379:86|381:56|381:56|382:36|396:49|396:49|409:65|400:54,1,260.999992034912,8|0,0:1|0:0,0:0:0:0:
471,128,58313,6,0,P|371:208|245:192,1,260.999992034912,8|0,0:1|0:0,0:0:0:0:
30,14,58646,6,0,L|5:274,1,260.999992034912,0|0,1:0|0:0,0:0:0:0:
211,328,58979,2,2,P|131:228|147:102,1,260.999992034912,2|0,0:1|0:0,0:1:0:0:
136,109,59313,6,0,P|127:236|209:335,1,260.999992034912,8|0,0:1|0:0,0:0:0:0:
12,276,59646,2,0,L|37:16,1,260.999992034912,2|0,0:1|0:0,0:0:0:0:
44,18,59979,6,0,L|19:278,1,260.999992034912,0|0,1:0|0:0,0:0:0:0:
206,341,60313,2,0,P|122:244|124:116,1,260.999992034912,2|0,0:1|0:0,0:0:0:0:
113,124,60646,6,0,P|118:252|203:348,1,260.999992034912,8|0,0:1|0:0,0:0:0:0:
51,20,60979,6,0,L|26:280,1,260.999992034912,0|0,1:0|0:0,0:0:0:0:
78,326,61313,5,0,1:0:0:0:
207,256,61479,1,0,0:0:0:0:
388,233,61646,1,0,0:0:0:0:
253,322,61812,1,0,0:0:0:0:
449,320,61980,5,8,0:1:0:0:
311,210,62146,1,0,0:0:0:0:
130,187,62313,1,0,0:0:0:0:
264,276,62479,1,0,1:0:0:0:
78,234,62646,5,0,0:0:0:0:
207,164,62812,1,8,0:1:0:0:
388,141,62979,1,0,0:0:0:0:
392,123,63063,1,0,3:0:0:0:
392,111,63146,1,0,3:0:0:0:
388,105,63229,1,0,3:0:0:0:
328,69,63313,5,8,0:1:0:0:
333,184,63479,1,8,0:3:0:0:
341,196,63563,1,8,0:3:0:0:
355,203,63646,2,0,P|318:213|290:231,1,65.2499980087281,4|0,0:3|0:0,0:0:0:0:
264,134,63813,2,0,P|243:126|221:123,1,43.4999986724854,4|0,0:3|0:0,0:0:0:0:
219,28,63979,5,4,1:0:0:0:
126,52,64146,1,0,0:0:0:0:
219,28,64313,1,0,0:0:0:0:
126,52,64480,1,0,0:0:0:0:
114,147,64646,6,0,B|123:197|123:197|117:209,1,65.2499980087281
95,202,64979,5,0,0:0:0:0:
213,230,65146,1,0,0:0:0:0:
73,195,65313,1,0,0:0:0:0:
204,254,65479,1,0,0:0:0:0:
51,188,65646,1,0,0:0:0:0:
195,278,65813,1,0,1:0:0:0:
186,302,65868,1,0,1:0:0:0:
177,326,65924,1,0,1:0:0:0:
168,350,65979,6,0,B|115:75|115:75|149:10,1,347.999989379883,8|0,0:1|0:0,0:0:0:0:
146,14,66646,5,4,1:0:0:0:
314,51,66813,1,0,0:0:0:0:
183,98,66979,5,4,0:0:0:0:
346,46,67146,1,0,0:0:0:0:
371,25,67313,6,0,B|405:75|405:75|312:178|312:178|238:142,1,260.999992034912,8|0,0:1|0:0,0:0:0:0:
188,169,67646,5,4,0:0:0:0:
300,242,67813,1,0,0:0:0:0:
181,270,67979,5,0,1:0:0:0:
121,151,68146,1,0,0:0:0:0:
63,234,68312,5,4,0:0:0:0:
71,101,68479,1,0,0:0:0:0:
52,32,68646,6,0,L|138:20,1,86.9999973449708,8|0,0:1|0:0,0:0:0:0:
279,66,68813,2,0,L|193:78,1,86.9999973449708
333,124,68979,2,0,L|419:112,1,86.9999973449708
210,207,69146,6,0,L|296:195,1,86.9999973449708,0|0,1:0|0:0,0:0:0:0:
87,290,69313,5,4,1:0:0:0:
173,277,69479,1,0,0:0:0:0:
188,359,69646,5,4,0:0:0:0:
246,294,69812,1,0,0:0:0:0:
312,259,69979,6,0,B|391:248|391:248|364:268|364:268|327:375|327:375|305:339,1,260.999992034912,8|0,0:1|0:0,0:0:0:0:
426,314,70313,5,4,0:0:0:0:
291,191,70479,1,0,1:0:0:0:
325,186,70534,1,0,1:0:0:0:
359,181,70590,1,0,1:0:0:0:
394,176,70645,5,0,1:0:0:0:
246,294,70813,1,0,0:0:0:0:
428,171,70979,5,4,0:0:0:0:
220,103,71146,1,0,0:0:0:0:
389,38,71313,6,0,B|286:53|286:53|231:17|231:17|168:40|168:40|115:-5|115:-5|87:64,1,347.999989379883,8|4,0:1|0:0,0:0:0:0:
99,33,71979,5,0,1:0:0:0:
108,202,72146,1,0,1:0:0:0:
277,192,72313,1,4,1:2:0:0:
268,23,72479,1,0,1:0:0:0:
108,202,72646,6,0,L|238:194,1,86.9999973449708,8|0,0:1|0:0,0:0:0:0:
287,362,72813,2,0,L|417:354,1,86.9999973449708
456,352,72979,5,4,0:0:0:0:
277,192,73146,1,0,1:0:0:0:
118,372,73313,6,0,L|110:241,1,86.9999973449708
99,33,73479,2,0,L|106:163,1,86.9999973449708,8|0,0:1|0:0,0:0:0:0:
278,191,73646,5,4,0:2:0:0:
236,194,73730,1,0,3:0:0:0:
194,196,73813,1,0,3:0:0:0:
152,199,73896,1,0,3:0:0:0:
110,201,73979,6,0,L|3:206,1,86.9999973449708,8|0,0:1|0:0,0:0:0:0:
278,191,74146,1,8,0:3:0:0:
320,188,74230,1,8,0:3:0:0:
362,186,74313,1,8,0:3:0:0:
404,183,74396,1,8,0:3:0:0:
446,181,74479,1,4,0:3:0:0:
443,139,74563,1,4,0:3:0:0:
441,97,74646,5,4,1:0:0:0:
268,23,74813,1,0,0:0:0:0:
438,55,74979,5,4,0:0:0:0:
273,107,75146,1,0,0:0:0:0:
436,13,75313,6,0,B|378:41|378:41|335:170|335:170|267:195,1,260.999992034912,8|0,0:1|0:0,0:0:0:0:
199,222,75646,5,4,0:0:0:0:
396,229,75813,1,0,1:0:0:0:
407,196,75869,1,0,1:0:0:0:
418,163,75924,1,0,1:0:0:0:
429,130,75980,5,0,1:0:0:0:
267,275,76146,1,0,0:0:0:0:
441,97,76313,5,4,0:0:0:0:
335,327,76479,1,0,0:0:0:0:
403,379,76646,6,0,B|420:341|420:341|418:301|418:301|394:264|394:264|351:242|351:242|313:225|313:225|287:188|287:188|283:144|283:144|314:73,1,347.999989379883,8|4,0:1|0:0,0:0:0:0:
300,104,77313,5,4,1:0:0:0:
206,16,77479,1,0,0:0:0:0:
285,168,77646,5,4,0:0:0:0:
171,107,77812,1,0,0:0:0:0:
161,204,77979,6,0,B|130:231|130:231|299:277|299:277|280:206,1,260.999992034912,8|0,0:1|0:0,0:0:0:0:
248,337,78313,5,4,0:0:0:0:
285,168,78479,1,0,0:0:0:0:
358,323,78646,5,0,1:0:0:0:
306,159,78812,1,0,0:0:0:0:
446,256,78980,5,4,0:0:0:0:
319,140,79146,1,0,0:0:0:0:
320,117,79313,6,0,L|311:20,1,86.9999973449708,8|0,0:1|0:0,0:0:0:0:
197,148,79479,2,0,L|206:245,1,86.9999973449708
446,256,79646,6,0,L|437:159,1,86.9999973449708,8|0,0:1|0:0,0:0:0:0:
323,287,79812,2,0,L|332:384,1,86.9999973449708
90,351,79979,5,4,1:0:0:0:
82,265,80146,1,0,0:0:0:0:
169,314,80313,5,4,0:0:0:0:
205,234,80480,1,0,0:0:0:0:
327,269,80646,6,0,B|420:286|420:286|238:324,1,260.999992034912,8|0,0:1|0:0,0:0:0:0:
435,208,80979,5,4,0:0:0:0:
300,384,81146,1,0,1:0:0:0:
334,376,81201,1,0,1:0:0:0:
368,369,81257,1,0,1:0:0:0:
402,362,81312,5,0,1:0:0:0:
327,269,81479,1,0,0:0:0:0:
436,355,81646,5,4,0:0:0:0:
288,154,81813,1,0,0:0:0:0:
408,135,81979,6,0,B|473:146|473:146|371:181|371:181|317:231|317:231|243:221|243:221|183:244,1,347.999989379883,8|4,0:1|0:0,0:0:0:0:
218,230,82646,5,0,1:0:0:0:
201,11,82813,1,0,1:0:0:0:
131,186,82979,5,4,0:0:0:0:
122,76,83146,1,0,0:0:0:0:
43,141,83313,2,0,L|52:249,1,86.9999973449708,8|0,0:1|0:0,0:0:0:0:
297,165,83479,2,0,L|288:57,1,86.9999973449708
137,271,83646,5,4,1:2:0:0:
384,209,83813,1,0,1:0:0:0:
224,315,83979,6,0,L|310:307,1,86.9999973449708
283,21,84146,2,0,L|196:28,1,86.9999973449708,8|0,0:1|0:0,0:0:0:0:
167,177,84314,1,4,0:2:0:0:
210,173,84397,1,0,3:0:0:0:
253,169,84480,1,0,3:0:0:0:
297,165,84563,1,0,3:0:0:0:
340,161,84646,6,0,L|426:153,1,86.9999973449708,8|0,0:1|0:0,0:0:0:0:
405,374,84813,1,4,0:3:0:0:
423,334,84896,1,4,0:3:0:0:
440,294,84979,2,0,P|425:255|386:227,1,65.2499980087281,8|0,0:3|0:0,0:0:0:0:
310,306,85146,2,0,P|332:306|353:300,1,43.4999986724854,4|0,0:3|0:0,0:0:0:0:
324,239,85313,5,0,0:0:0:0:
224,235,85646,6,0,P|207:195|209:152,1,86.9999973449708
224,235,86313,6,0,P|207:195|209:152,1,86.9999973449708
224,235,86979,6,0,P|207:195|209:152,1,86.9999973449708
224,235,87646,6,0,P|207:195|207:158,1,65.2499980087281
209,152,87979,1,0,0:0:0:0:
224,235,88313,6,0,P|207:195|207:158,1,65.2499980087281
209,152,88646,1,0,0:0:0:0:
224,235,88979,6,0,P|207:195|207:158,1,65.2499980087281
209,152,89312,1,0,0:0:0:0:
224,235,89646,6,0,P|209:205|207:179,1,43.4999986724854
205,173,89896,1,0,0:0:0:0:
214,142,89979,1,0,0:0:0:0:
224,235,90313,6,0,P|209:205|207:179,1,43.4999986724854
205,173,90563,1,0,0:0:0:0:
214,142,90646,1,0,0:0:0:0:
224,235,90979,6,0,P|209:205|207:179,1,43.4999986724854
205,173,91229,1,0,0:0:0:0:
214,142,91312,1,0,0:0:0:0:
224,235,91646,6,0,P|213:216|207:199,1,21.7499993362427
207,195,91813,1,0,0:0:0:0:
206,163,91896,1,0,0:0:0:0:
221,123,91979,1,0,0:0:0:0:
224,235,92313,6,0,P|213:216|207:199,1,21.7499993362427
207,195,92480,1,0,0:0:0:0:
206,163,92563,1,0,0:0:0:0:
221,123,92646,1,0,0:0:0:0:
224,235,92979,6,0,P|213:216|207:199,1,21.7499993362427
207,195,93146,1,0,0:0:0:0:
206,163,93229,1,0,0:0:0:0:
221,123,93312,1,0,0:0:0:0:
224,235,93646,5,0,0:0:0:0:
213,216,93729,1,0,0:0:0:0:
205,184,93813,1,0,0:0:0:0:
212,140,93896,1,0,0:0:0:0:
245,95,93979,1,0,0:0:0:0:
224,235,94312,5,0,0:0:0:0:
213,216,94396,1,0,0:0:0:0:
205,184,94479,1,0,0:0:0:0:
212,140,94563,1,0,0:0:0:0:
245,95,94645,1,0,0:0:0:0:
224,235,94979,5,0,0:0:0:0:
213,216,95063,1,0,0:0:0:0:
205,184,95146,1,0,0:0:0:0:
212,140,95230,1,0,0:0:0:0:
245,95,95312,1,0,0:0:0:0:
335,148,95479,1,0,0:0:0:0:
419,120,95646,1,0,0:0:0:0:
428,88,95729,1,0,0:0:0:0:
462,121,95813,1,0,0:0:0:0:
471,89,95896,1,0,0:0:0:0:
505,122,95979,5,0,0:0:0:0:
505,122,96146,1,0,0:0:0:0:
475,251,96646,1,0,0:0:0:0:
350,193,97313,5,0,0:0:0:0:
350,193,97480,1,0,0:0:0:0:
380,322,97980,1,0,0:0:0:0:
222,278,98646,5,0,0:0:0:0:
222,278,98813,1,0,0:0:0:0:
252,149,99313,1,0,0:0:0:0:
127,349,99980,5,0,0:0:0:0:
127,349,100146,1,0,0:0:0:0:
97,220,100647,1,0,0:0:0:0:
289,380,101313,5,0,0:0:0:0:
426,358,101479,1,0,0:0:0:0:
289,380,101979,1,0,0:0:0:0:
244,235,102646,5,0,0:0:0:0:
381,257,102812,1,0,0:0:0:0:
244,235,103312,1,0,0:0:0:0:
456,136,103979,5,0,0:0:0:0:
319,158,104145,1,0,0:0:0:0:
456,136,104645,1,0,0:0:0:0:
411,35,105312,5,0,0:0:0:0:
274,13,105478,1,0,0:0:0:0:
185,60,105646,2,0,P|175:112|187:162,1,86.9999973449708,8|0,0:0|0:0,0:0:0:0:
318,167,106146,2,0,P|323:209|313:246,1,65.2499980087281,8|0,0:0|0:0,0:0:0:0:
313,252,106479,1,0,1:0:0:0:
229,348,106646,5,0,1:0:0:0:
118,301,106979,1,0,1:0:0:0:
313,252,107313,2,0,L|459:266,1,130.499996017456,8|0,0:0|0:0,0:0:0:0:
468,293,107646,2,0,L|382:301,1,86.9999973449708,8|0,0:0|0:0,0:0:0:0:
437,221,107979,6,0,L|443:265,1,43.4999986724854,0|0,1:0|0:0,0:0:0:0:
496,183,108146,2,0,L|491:140,1,43.4999986724854,0|0,1:0|0:0,0:0:0:0:
420,114,108313,1,0,0:0:0:0:
367,196,108479,1,0,1:0:0:0:
270,79,108646,1,8,0:0:0:0:
310,77,108757,1,0,3:0:0:0:
349,88,108868,1,0,3:0:0:0:
304,151,108979,2,0,B|203:161|203:161|235:181,1,130.499996017456,4|0,0:0|0:0,0:0:0:0:
78,245,109313,6,0,B|179:235|179:235|147:215,1,130.499996017456,0|0,1:0|0:0,0:0:0:0:
121,313,109646,1,0,1:0:0:0:
96,166,109979,2,0,L|111:18,1,130.499996017456,8|0,0:0|0:0,0:0:0:0:
30,86,110313,2,0,L|22:0,1,86.9999973449708,8|0,0:0|0:0,0:0:0:0:
109,36,110646,6,0,L|152:34,1,43.4999986724854,0|0,1:0|0:0,0:0:0:0:
268,66,110813,2,0,L|224:67,1,43.4999986724854
105,111,110979,1,0,1:0:0:0:
264,142,111146,1,0,1:0:0:0:
101,187,111313,1,8,0:0:0:0:
156,198,111424,1,0,3:0:0:0:
208,208,111535,1,0,3:0:0:0:
260,218,111646,5,8,0:0:0:0:
311,262,111757,1,0,1:0:0:0:
310,329,111868,1,0,1:0:0:0:
258,372,111979,5,0,1:0:0:0:
239,294,112146,1,0,1:0:0:0:
180,364,112313,5,0,1:0:0:0:
161,286,112480,1,0,1:0:0:0:
102,356,112646,5,0,1:0:0:0:
83,278,112813,1,0,1:0:0:0:
24,348,112979,5,0,1:0:0:0:
5,270,113146,1,0,1:0:0:0:
34,234,113229,1,0,1:0:0:0:
64,199,113313,5,0,1:0:0:0:
298,223,113479,1,0,1:0:0:0:
123,128,113647,5,0,1:0:0:0:
357,152,113813,1,0,1:0:0:0:
182,57,113979,5,0,1:0:0:0:
416,81,114145,1,0,1:0:0:0:
239,294,114313,5,0,1:0:0:0:
386,308,114480,1,0,1:0:0:0:
429,313,114563,1,0,1:0:0:0:
473,318,114646,5,0,1:0:0:0:
470,296,114730,1,0,1:0:0:0:
468,274,114813,1,0,1:0:0:0:
466,253,114896,1,0,1:0:0:0:
431,243,114979,5,0,1:0:0:0:
435,210,115062,1,0,1:0:0:0:
439,178,115145,1,0,1:0:0:0:
443,145,115228,1,0,1:0:0:0:
486,172,115313,5,0,1:0:0:0:
445,185,115396,1,0,1:0:0:0:
401,187,115479,1,0,1:0:0:0:
358,180,115562,1,0,1:0:0:0:
336,116,115646,5,0,1:0:0:0:
286,93,115729,1,0,1:0:0:0:
232,86,115812,1,0,1:0:0:0:
179,93,115895,1,0,1:0:0:0:
125,157,115979,6,0,B|124:217|173:239|173:239|129:275|131:333|178:363|178:363|233:350|242:307|242:307|255:254|310:261|310:261|298:262|288:273,1,456.749986061097
288,273,116646,6,0,B|298:262|310:261|310:261|255:254|242:307|242:307|233:350|178:363|178:363|131:333|129:275|173:239|173:239|124:217|125:158|125:158|128:108|128:108|109:66|109:66|112:6,1,608.999981414795,8|0,0:0|0:0,0:0:0:0:
111,8,117313,6,0,B|109:66|109:66|128:108,12,86.9999973449708,0|0|0|0|0|0|0|0|0|0|0|0|0,1:0|0:0|0:0|0:0|0:0|0:0|0:0|0:0|0:0|0:0|0:0|0:0|0:0,0:0:0:0:
198,43,119479,2,0,B|209:69|209:69|210:129,1,86.9999973449708
317,84,119813,5,0,1:0:0:0:
371,84,119896,1,0,1:0:0:0:
425,84,119979,2,0,L|306:84,1,108.750004148483,12|0,0:0|0:0,0:0:0:0:
87,156,120313,1,8,0:0:0:0:
195,156,120479,1,0,1:0:0:0:
424,227,120647,1,8,0:0:0:0:
316,227,120813,1,0,1:0:0:0:
87,299,120979,1,8,0:0:0:0:
195,299,121145,1,0,1:0:0:0:
423,370,121313,6,0,L|423:239,1,108.750004148483,12|0,0:0|0:0,0:0:0:0:
313,14,121646,1,8,0:0:0:0:
313,122,121813,1,0,1:0:0:0:
203,370,121979,1,8,0:0:0:0:
203,261,122146,1,0,1:0:0:0:
203,315,122229,1,0,1:0:0:0:
203,370,122313,1,12,0:0:0:0:
148,370,122396,6,0,B|118:336|118:336|45:336,1,108.750004148483,8|0,0:0|0:0,0:0:0:0:
8,191,122646,5,12,0:0:0:0:
46,229,122729,1,8,0:0:0:0:
100,229,122813,1,8,0:0:0:0:
203,261,122979,2,0,L|221:219,1,43.4999986724854,0|0,1:0|0:0,0:0:0:0:
291,139,123313,2,0,L|251:95,1,58,0|0,1:0|0:0,0:0:0:0:
206,0,123646,2,0,B|163:15|163:15|116:0,1,72.5,0|12,1:0|0:0,0:0:0:0:
291,139,123979,5,12,0:0:0:0:
342,122,124062,1,0,1:0:0:0:
395,138,124145,1,0,1:0:0:0:
390,338,124313,2,0,L|427:259,1,86.9999973449708,0|0,1:0|0:0,0:0:0:0:
180,293,124646,2,0,L|263:350,1,101.499996902466,0|0,1:0|0:0,0:0:0:0:
246,102,124979,2,0,B|189:164|189:164|137:146,1,116,0|12,1:0|0:0,0:0:0:0:
180,293,125313,5,12,0:0:0:0:
216,253,125396,1,8,0:0:0:0:
264,280,125479,1,8,0:0:0:0:
432,179,125646,5,12,0:0:0:0:
394,221,125729,1,8,0:0:0:0:
344,193,125813,1,8,0:0:0:0:
126,174,125979,5,12,0:0:0:0:
165,129,126063,1,8,0:0:0:0:
218,159,126146,1,8,0:0:0:0:
414,40,126313,5,12,0:0:0:0:
372,86,126396,1,8,0:0:0:0:
316,54,126479,1,8,0:0:0:0:
70,53,126647,5,12,0:0:0:0:
114,4,126730,1,8,0:0:0:0:
172,38,126813,1,8,0:0:0:0:
128,87,126896,1,8,0:0:0:0:
70,53,126979,5,12,0:0:0:0:
114,4,127063,1,8,0:0:0:0:
128,87,127146,1,8,0:0:0:0:
84,136,127229,1,8,0:0:0:0:
12,19,127313,5,8,0:0:0:0:
500,365,127979,5,4,1:0:0:0:
430,362,128063,1,0,1:0:0:0:
360,359,128146,1,0,1:0:0:0:
290,356,128230,1,0,1:0:0:0:
220,353,128313,1,0,1:0:0:0:
220,353,128646,5,8,1:0:0:0:
290,356,128729,1,0,1:0:0:0:
360,359,128813,1,0,1:0:0:0:
430,362,128896,1,0,1:0:0:0:
500,365,128980,1,0,1:0:0:0:
500,365,129313,5,0,1:0:0:0:
430,362,129397,1,0,1:0:0:0:
360,359,129480,1,0,1:0:0:0:
290,356,129564,1,0,1:0:0:0:
220,353,129647,1,0,1:0:0:0:
220,353,129979,5,8,1:0:0:0:
290,356,130062,1,0,1:0:0:0:
360,359,130146,1,0,1:0:0:0:
430,362,130229,1,0,1:0:0:0:
500,365,130313,1,0,1:0:0:0:
500,365,130646,5,0,1:0:0:0:
430,362,130730,1,0,1:0:0:0:
360,359,130813,1,0,1:0:0:0:
290,356,130897,1,0,1:0:0:0:
220,353,130980,1,0,1:0:0:0:
220,353,131313,5,8,1:0:0:0:
290,356,131396,1,0,1:0:0:0:
360,359,131480,1,0,1:0:0:0:
430,362,131563,1,0,1:0:0:0:
500,365,131647,1,0,1:0:0:0:
500,365,131979,6,0,L|508:275,1,86.9999973449708,0|0,1:0|0:0,0:0:0:0:
360,359,132146,2,0,L|367:272,1,86.9999973449708,0|0,1:0|0:0,0:0:0:0:
227,266,132313,2,0,L|220:353,1,86.9999973449708,0|0,1:0|0:0,0:0:0:0:
80,347,132479,2,0,L|87:260,1,86.9999973449708,0|0,1:0|0:0,0:0:0:0:
290,356,132646,6,0,L|297:269,1,86.9999973449708,8|0,1:0|0:0,0:0:0:0:
157,263,132812,2,0,L|150:350,1,86.9999973449708,0|0,1:0|0:0,0:0:0:0:
430,362,132979,2,2,B|442:226|442:226|430:153|430:153|450:124|450:124|455:76,1,260.999992034912,0|0,1:0|0:0,1:0:0:0:
399,53,133313,5,4,1:0:0:0:
325,70,133396,1,0,1:0:0:0:
249,67,133479,1,0,1:0:0:0:
176,44,133563,1,0,1:0:0:0:
111,2,133646,1,0,1:0:0:0:
111,2,133979,5,8,1:0:0:0:
176,44,134062,1,0,1:0:0:0:
249,67,134146,1,0,1:0:0:0:
325,70,134229,1,0,1:0:0:0:
399,53,134312,1,0,1:0:0:0:
399,53,134646,5,0,1:0:0:0:
325,70,134729,1,0,1:0:0:0:
249,67,134812,1,0,1:0:0:0:
176,44,134896,1,0,1:0:0:0:
111,2,134979,1,0,1:0:0:0:
111,2,135312,5,8,1:0:0:0:
176,44,135395,1,0,1:0:0:0:
249,67,135479,1,0,1:0:0:0:
325,70,135562,1,0,1:0:0:0:
399,53,135645,1,0,1:0:0:0:
399,53,135979,5,0,1:0:0:0:
325,70,136062,1,0,1:0:0:0:
249,67,136145,1,0,1:0:0:0:
176,44,136229,1,0,1:0:0:0:
111,2,136312,1,0,1:0:0:0:
111,2,136645,5,8,1:0:0:0:
176,44,136728,1,0,1:0:0:0:
249,67,136812,1,0,1:0:0:0:
325,70,136895,1,0,1:0:0:0:
399,53,136978,1,0,1:0:0:0:
399,53,137313,6,0,L|439:163,1,86.9999973449708,0|0,1:0|0:0,0:0:0:0:
176,44,137479,2,0,L|126:150,1,86.9999973449708,0|0,1:0|0:0,0:0:0:0:
332,156,137646,2,0,L|325:70,1,86.9999973449708,0|0,1:0|0:0,0:0:0:0:
111,2,137813,2,0,L|35:92,1,86.9999973449708,0|0,1:0|0:0,0:0:0:0:
249,67,137979,5,8,1:0:0:0:
235,141,138062,1,0,1:0:0:0:
244,217,138146,1,0,1:0:0:0:
272,289,138229,1,0,1:0:0:0:
318,349,138313,6,2,B|350:329|350:329|235:324|235:324|177:298|177:298|121:315,1,260.999992034912,4|0,1:0|0:0,1:0:0:0:
64,356,138646,5,4,1:0:0:0:
8,295,138730,1,0,1:0:0:0:
5,216,138812,1,0,1:0:0:0:
54,152,138896,1,0,1:0:0:0:
132,134,138979,1,0,1:0:0:0:
132,134,139313,5,8,1:0:0:0:
54,152,139396,1,0,1:0:0:0:
5,216,139480,1,0,1:0:0:0:
8,295,139562,1,0,1:0:0:0:
64,356,139646,1,0,1:0:0:0:
64,356,139979,5,0,1:0:0:0:
8,295,140063,1,0,1:0:0:0:
5,216,140145,1,0,1:0:0:0:
54,152,140229,1,0,1:0:0:0:
132,134,140312,1,0,1:0:0:0:
132,134,140646,5,8,1:0:0:0:
54,152,140729,1,0,1:0:0:0:
5,216,140813,1,0,1:0:0:0:
8,295,140895,1,0,1:0:0:0:
64,356,140979,1,0,1:0:0:0:
64,356,141313,5,0,1:0:0:0:
8,295,141397,1,0,1:0:0:0:
5,216,141479,1,0,1:0:0:0:
54,152,141563,1,0,1:0:0:0:
132,134,141646,1,0,1:0:0:0:
132,134,141980,5,8,1:0:0:0:
54,152,142063,1,0,1:0:0:0:
5,216,142147,1,0,1:0:0:0:
8,295,142229,1,0,1:0:0:0:
64,356,142313,1,0,1:0:0:0:
64,356,142646,6,0,L|112:260,1,86.9999973449708,0|0,1:0|0:0,0:0:0:0:
54,152,142813,2,0,L|101:225,1,86.9999973449708,0|0,1:0|0:0,0:0:0:0:
148,248,142979,2,0,L|235:244,1,86.9999973449708,0|0,1:0|0:0,0:0:0:0:
8,295,143146,2,0,L|88:261,1,86.9999973449708,0|0,1:0|0:0,0:0:0:0:
144,365,143312,6,0,L|124:280,1,86.9999973449708,8|0,1:0|0:0,0:0:0:0:
121,219,143479,2,0,L|132:133,1,86.9999973449708,0|0,1:0|0:0,0:0:0:0:
5,216,143646,2,2,B|88:242|88:242|125:184|125:184|290:176,1,260.999992034912,0|0,1:0|0:0,1:0:0:0:
295,123,143979,5,4,1:0:0:0:
311,207,144063,1,0,1:0:0:0:
396,218,144146,1,0,1:0:0:0:
433,141,144230,1,0,1:0:0:0:
370,82,144313,1,0,1:0:0:0:
370,82,144646,5,8,1:0:0:0:
433,141,144729,1,0,1:0:0:0:
396,218,144813,1,0,1:0:0:0:
311,207,144896,1,0,1:0:0:0:
295,123,144980,1,0,1:0:0:0:
295,123,145313,5,0,1:0:0:0:
311,207,145397,1,0,1:0:0:0:
396,218,145480,1,0,1:0:0:0:
433,141,145564,1,0,1:0:0:0:
370,82,145647,1,0,1:0:0:0:
370,82,145980,5,8,1:0:0:0:
433,141,146063,1,0,1:0:0:0:
396,218,146147,1,0,1:0:0:0:
311,207,146230,1,0,1:0:0:0:
295,123,146314,1,0,1:0:0:0:
295,123,146646,5,0,1:0:0:0:
311,207,146730,1,0,1:0:0:0:
396,218,146813,1,0,1:0:0:0:
433,141,146897,1,0,1:0:0:0:
370,82,146980,1,0,1:0:0:0:
370,82,147313,5,8,1:0:0:0:
433,141,147396,1,0,1:0:0:0:
396,218,147480,1,0,1:0:0:0:
311,207,147563,1,0,1:0:0:0:
295,123,147647,1,0,1:0:0:0:
295,123,147979,6,0,L|203:80,1,86.9999973449708,0|0,1:0|0:0,0:0:0:0:
433,141,148146,2,0,L|532:122,1,86.9999973449708,0|0,1:0|0:0,0:0:0:0:
437,294,148313,2,0,L|396:218,1,86.9999973449708,0|0,1:0|0:0,0:0:0:0:
370,82,148479,1,0,1:0:0:0:
370,82,148563,1,0,1:0:0:0:
311,207,148646,6,0,B|252:271|252:271|194:252|194:252|141:313|141:313|73:294|73:294|6:362,1,380.625014519692,8|0,1:2|0:0,0:0:0:0:
93,372,149313,5,4,1:0:0:0:
56,228,149479,1,0,0:0:0:0:
93,372,149646,1,0,0:0:0:0:
56,228,149812,1,0,0:0:0:0:
180,202,149979,6,0,B|230:211|230:211|258:200,1,65.2499980087281
265,189,150313,5,0,0:0:0:0:
461,200,150479,1,0,0:0:0:0:
287,173,150646,1,0,0:0:0:0:
466,230,150813,1,0,0:0:0:0:
309,157,150979,1,0,0:0:0:0:
471,260,151146,1,0,1:0:0:0:
476,290,151201,1,0,1:0:0:0:
480,319,151257,1,0,1:0:0:0:
484,348,151313,6,0,B|215:397|215:397|143:368,1,347.999989379883,8|0,0:1|0:0,0:0:0:0:
146,370,151979,5,4,1:0:0:0:
314,333,152146,1,0,0:0:0:0:
183,286,152312,5,4,0:0:0:0:
346,338,152479,1,0,0:0:0:0:
371,359,152646,6,0,B|405:309|405:309|312:206|312:206|256:233,1,260.999992034912,8|0,0:1|0:0,0:0:0:0:
188,215,152979,5,4,0:0:0:0:
300,142,153146,1,0,0:0:0:0:
181,114,153312,5,0,1:0:0:0:
121,233,153479,1,0,0:0:0:0:
63,150,153645,5,4,0:0:0:0:
71,283,153812,1,0,0:0:0:0:
52,352,153979,6,0,L|138:364,1,86.9999973449708,8|0,0:1|0:0,0:0:0:0:
279,318,154146,2,0,L|193:306,1,86.9999973449708
333,260,154312,2,0,L|419:272,1,86.9999973449708
210,177,154479,6,0,L|296:189,1,86.9999973449708,0|0,1:0|0:0,0:0:0:0:
87,94,154646,5,4,1:0:0:0:
173,107,154812,1,0,0:0:0:0:
188,25,154979,5,4,0:0:0:0:
246,90,155145,1,0,0:0:0:0:
312,125,155312,6,0,B|391:136|391:136|364:116|364:116|327:9|327:9|309:38,1,260.999992034912,8|0,0:1|0:0,0:0:0:0:
426,70,155646,5,4,0:0:0:0:
291,193,155812,1,0,1:0:0:0:
325,198,155867,1,0,1:0:0:0:
359,203,155923,1,0,1:0:0:0:
394,208,155978,5,0,1:0:0:0:
246,90,156146,1,0,0:0:0:0:
428,213,156312,5,4,0:0:0:0:
220,281,156479,1,0,0:0:0:0:
389,346,156646,6,0,B|286:331|286:331|231:367|231:367|168:344|168:344|115:389|115:389|99:350,1,347.999989379883,8|4,0:1|0:0,0:0:0:0:
99,351,157312,5,0,1:0:0:0:
108,182,157479,1,0,1:0:0:0:
277,192,157646,1,4,1:2:0:0:
268,361,157812,1,0,1:0:0:0:
108,182,157979,6,0,L|194:187,1,86.9999973449708,8|0,0:1|0:0,0:0:0:0:
287,22,158146,2,0,L|373:27,1,86.9999973449708
456,32,158312,5,4,0:0:0:0:
277,192,158479,1,0,1:0:0:0:
118,12,158646,6,0,L|112:98,1,86.9999973449708
99,351,158812,2,0,L|103:264,1,86.9999973449708,8|0,0:1|0:0,0:0:0:0:
278,193,158979,5,4,0:2:0:0:
236,190,159063,1,0,3:0:0:0:
194,188,159146,1,0,3:0:0:0:
152,185,159229,1,0,3:0:0:0:
110,183,159312,6,0,L|23:178,1,86.9999973449708,8|0,0:1|0:0,0:0:0:0:
278,193,159479,1,8,0:3:0:0:
320,196,159563,1,8,0:3:0:0:
362,198,159646,1,8,0:3:0:0:
404,201,159729,1,8,0:3:0:0:
446,203,159812,1,4,0:3:0:0:
443,245,159896,1,4,0:3:0:0:
441,287,159979,5,4,1:0:0:0:
268,361,160146,1,0,0:0:0:0:
438,329,160312,5,4,0:0:0:0:
273,277,160479,1,0,0:0:0:0:
436,371,160646,6,0,B|378:343|378:343|335:214|335:214|278:193,1,260.999992034912,8|0,0:1|0:0,0:0:0:0:
199,162,160979,5,4,0:0:0:0:
396,155,161146,1,0,1:0:0:0:
407,188,161202,1,0,1:0:0:0:
418,221,161257,1,0,1:0:0:0:
429,254,161313,5,0,1:0:0:0:
267,109,161479,1,0,0:0:0:0:
441,287,161646,5,4,0:0:0:0:
335,57,161812,1,0,0:0:0:0:
403,5,161979,6,0,B|420:43|420:43|418:83|418:83|394:120|394:120|351:142|351:142|313:159|313:159|287:196|287:196|283:240|283:240|300:279,1,347.999989379883,8|4,0:1|0:0,0:0:0:0:
300,280,162646,5,4,1:0:0:0:
206,368,162812,1,0,0:0:0:0:
285,216,162979,5,4,0:0:0:0:
171,277,163145,1,0,0:0:0:0:
161,180,163312,6,0,B|130:153|130:153|299:107|299:107|287:150,1,260.999992034912,8|0,0:1|0:0,0:0:0:0:
248,47,163646,5,4,0:0:0:0:
285,216,163812,1,0,0:0:0:0:
358,61,163979,5,0,1:0:0:0:
306,225,164145,1,0,0:0:0:0:
446,128,164313,5,4,0:0:0:0:
319,244,164479,1,0,0:0:0:0:
320,267,164646,6,0,L|311:353,1,86.9999973449708,8|0,0:1|0:0,0:0:0:0:
197,236,164812,2,0,L|205:149,1,86.9999973449708
446,128,164979,6,0,L|437:214,1,86.9999973449708,8|0,0:1|0:0,0:0:0:0:
323,97,165145,2,0,L|331:10,1,86.9999973449708
90,33,165312,5,4,1:0:0:0:
82,119,165479,1,0,0:0:0:0:
169,70,165646,5,4,0:0:0:0:
205,150,165813,1,0,0:0:0:0:
327,115,165979,6,0,B|420:98|420:98|257:63,1,260.999992034912,8|0,0:1|0:0,0:0:0:0:
435,176,166312,5,4,0:0:0:0:
300,0,166479,1,0,1:0:0:0:
334,8,166534,1,0,1:0:0:0:
368,15,166590,1,0,1:0:0:0:
402,22,166645,5,0,1:0:0:0:
327,115,166812,1,0,0:0:0:0:
436,29,166979,5,4,0:0:0:0:
288,230,167146,1,0,0:0:0:0:
408,249,167312,6,0,B|473:238|473:238|371:203|371:203|317:153|317:153|243:163|243:163|218:153,1,347.999989379883,8|4,0:1|0:0,0:0:0:0:
218,154,167979,5,0,1:0:0:0:
201,373,168146,1,0,1:0:0:0:
131,198,168312,5,4,0:0:0:0:
122,308,168479,1,0,0:0:0:0:
43,243,168646,2,0,L|50:156,1,86.9999973449708,8|0,0:1|0:0,0:0:0:0:
297,219,168812,2,0,L|289:305,1,86.9999973449708
137,113,168979,5,4,1:2:0:0:
384,175,169146,1,0,1:0:0:0:
224,69,169312,6,0,L|310:77,1,86.9999973449708
283,363,169479,2,0,L|196:356,1,86.9999973449708,8|0,0:1|0:0,0:0:0:0:
167,207,169647,1,4,0:2:0:0:
210,211,169730,1,0,3:0:0:0:
253,215,169813,1,0,3:0:0:0:
297,219,169896,1,0,3:0:0:0:
340,223,169979,6,0,L|426:231,1,86.9999973449708,8|0,0:1|0:0,0:0:0:0:
405,10,170146,1,4,0:3:0:0:
423,50,170229,1,4,0:3:0:0:
439,90,170312,2,0,P|430:120|408:145,1,65.2499980087281,8|0,0:3|0:0,0:0:0:0:
310,77,170479,2,0,P|331:77|352:83,1,43.4999986724854,4|0,0:3|0:0,0:0:0:0:
314,272,170646,6,0,P|307:207|324:145,1,130.499996017456,4|0,1:0|0:0,0:0:0:0:
198,276,170979,2,0,B|227:283|241:303|241:303|216:224|241:139,1,217.499993362427,4|0,0:3|0:0,0:0:0:0:
124,248,171479,2,0,P|127:311|177:352,1,130.499996017456,4|0,0:3|0:0,0:0:0:0:
77,188,171813,2,0,P|59:180|32:152,1,43.4999986724854,4|0,0:3|0:0,0:0:0:0:
152,177,171979,6,0,P|205:117|342:129,1,195.749994026184,8|0,0:0|0:0,0:0:0:0:
267,259,172313,6,0,P|226:203|296:243,1,217.499993362427,4|0,0:3|0:0,0:0:0:0:
335,310,172813,2,0,P|275:335|212:324,1,130.499996017456,4|0,0:3|0:0,0:0:0:0:
145,283,173146,2,0,P|129:291|72:296,1,43.4999986724854,4|0,0:3|0:0,0:0:0:0:
42,249,173313,6,0,P|15:175|60:110,1,130.499996017456,4|0,1:0|0:0,0:0:0:0:
163,31,173646,2,0,B|114:36|88:68|88:68|126:102|121:160|95:187,1,217.499993362427,4|0,0:3|0:0,0:0:0:0:
196,107,174146,2,0,P|236:141|321:149,1,130.499996017456,4|0,0:3|0:0,0:0:0:0:
287,73,174479,2,0,P|266:64|251:49,1,43.4999986724854,4|0,0:3|0:0,0:0:0:0:
374,28,174646,6,0,B|367:98|423:149|423:149|461:123|465:93,1,195.749994026184,8|0,0:0|0:0,0:0:0:0:
512,256,174979,6,0,B|454:214|382:237|382:237|386:286|426:320,1,217.499993362427,4|0,0:3|0:0,0:0:0:0:
245,261,175479,2,0,P|297:222|325:158,1,130.499996017456,4|0,0:3|0:0,0:0:0:0:
169,227,175813,2,0,P|162:282|165:305,1,43.4999986724854,4|0,0:3|0:0,0:0:0:0:
69,357,175979,6,0,P|81:312|59:217,1,130.499996017456,4|0,1:0|0:0,0:0:0:0:
17,105,176313,2,0,B|72:171|150:145|150:145|182:132|228:143,1,217.499993362427,4|0,0:3|0:0,0:0:0:0:
106,72,176813,2,0,P|169:58|234:63,1,130.499996017456,4|0,0:3|0:0,0:0:0:0:
318,42,177146,2,0,P|324:22|325:-8,1,43.4999986724854,4|0,0:3|0:0,0:0:0:0:
474,164,177313,6,0,P|378:174|300:118,1,195.749994026184,8|0,0:0|0:0,0:0:0:0:
318,42,177646,6,0,P|378:108|291:197,1,217.499993362427,4|0,0:3|0:0,0:0:0:0:
300,118,178146,2,0,P|361:94|457:106,1,130.499996017456,4|0,0:3|0:0,0:0:0:0:
394,177,178479,2,0,P|380:161|367:115,1,43.4999986724854,4|0,0:3|0:0,0:0:0:0:
474,162,178646,5,0,1:0:0:0:
251,306,178813,1,0,1:0:0:0:
238,40,178979,1,0,1:0:0:0:
474,162,179146,1,0,1:0:0:0:
76,201,179646,5,0,1:0:0:0:
321,359,179813,1,0,1:0:0:0:
335,66,179979,1,0,1:0:0:0:
76,201,180146,1,0,1:0:0:0:
433,298,180646,5,0,1:0:0:0:
79,298,180813,1,0,1:0:0:0:
256,118,180979,2,0,L|256:269,1,130.499996017456,0|0,1:0|0:0,0:0:0:0:
256,248,181313,5,4,1:0:0:0:
256,192,181396,12,0,187313,0:0:0:0:
