osu file format v14

[General]
AudioFilename: audio.mp3
AudioLeadIn: 0
PreviewTime: 84254
Countdown: 0
SampleSet: Normal
StackLeniency: 0.3
Mode: 0
LetterboxInBreaks: 1
EpilepsyWarning: 1
WidescreenStoryboard: 1

[Editor]
Bookmarks: 28578,83725,84254
DistanceSpacing: 1
BeatDivisor: 4
GridSize: 32
TimelineZoom: 1.1

[Metadata]
Title:School of Funk
TitleUnicode:School of Funk
Artist:Dirtyloud
ArtistUnicode:Dirtyloud
Creator:Lawcoste
Version:Normal
Source:Wipeout 2048
Tags:wipeout ost electronica
BeatmapID:1685891
BeatmapSetID:803198

[Difficulty]
HPDrainRate:4
CircleSize:3.5
OverallDifficulty:5
ApproachRate:6
SliderMultiplier:1.00000000596046
SliderTickRate:1

[Events]
//Background and Video events
0,0,"AWVA.jpg",0,0
//Break Periods
2,80186,82624
//Storyboard Layer 0 (Background)
//Storyboard Layer 1 (Fail)
//Storyboard Layer 2 (Pass)
//Storyboard Layer 3 (Foreground)
//Storyboard Sound Samples

[TimingPoints]
5452,465.116279069767,4,1,0,100,1,0

[Colours]
Combo1 : 0,64,128
Combo2 : 130,0,98
Combo3 : 0,255,255
Combo4 : 255,255,0
Combo5 : 255,0,0

[HitObjects]
307,192,5568,5,0,0:0:0:0:
307,192,5800,2,0,P|338:162|340:128,1,75.0000004470345
288,68,6498,1,0,0:0:0:0:
288,68,6731,2,0,L|216:68,1,50.000000298023
152,120,7428,5,0,0:0:0:0:
172,165,7661,1,0,0:0:0:0:
195,209,7893,1,0,0:0:0:0:
234,299,8358,1,0,0:0:0:0:
234,299,8591,1,0,0:0:0:0:
234,299,8824,2,0,L|328:273,1,75.0000004470345
379,263,9521,5,0,0:0:0:0:
428,253,9754,2,0,L|427:193,1,50.000000298023
427,152,10219,1,0,0:0:0:0:
377,149,10451,2,0,L|321:172,1,50.000000298023
244,231,11149,5,0,0:0:0:0:
193,231,11382,2,0,L|145:193,1,50.000000298023
86,139,12079,2,0,L|166:52,1,100.000000596046
232,3,13010,5,0,0:0:0:0:
232,52,13242,1,0,0:0:0:0:
232,102,13475,2,0,L|232:204,1,100.000000596046
244,301,14405,2,0,L|317:233,1,100.000000596046
353,198,15103,1,0,0:0:0:0:
390,165,15335,1,0,0:0:0:0:
420,124,15568,2,0,L|450:76,1,50.000000298023
256,192,15917,12,0,18824,0:0:0:0:
313,199,19521,6,0,L|218:135,1,100.000000596046
153,78,20451,1,0,0:0:0:0:
102,78,20684,2,0,B|43:78|43:78|43:119,1,100.000000596046
45,194,21498,1,0,0:0:0:0:
45,194,21731,1,0,0:0:0:0:
45,194,21963,2,0,P|71:225|92:237,1,50.000000298023
115,264,22428,5,0,0:0:0:0:
154,294,22661,2,0,B|197:334|197:334|243:304,1,100.000000596046
277,292,23358,1,0,0:0:0:0:
320,267,23591,1,0,0:0:0:0:
356,233,23824,2,0,P|398:178|402:152,1,75.0000004470345
426,103,24521,5,0,0:0:0:0:
413,54,24754,1,0,0:0:0:0:
363,39,24986,1,0,0:0:0:0:
322,68,25219,2,0,L|323:126,1,50.000000298023
323,168,25684,2,0,L|323:239,1,50.000000298023
324,268,26149,2,0,B|286:304|286:304|235:278,1,100.000000596046
204,257,26847,1,0,0:0:0:0:
167,224,27079,2,0,P|115:171|105:132,1,100.000000596046
86,50,28010,1,0,0:0:0:0:
135,49,28242,5,0,0:0:0:0:
135,49,28475,2,0,P|170:50|194:59,1,50.000000298023
230,73,28940,1,0,0:0:0:0:
275,92,29172,1,0,0:0:0:0:
317,119,29405,2,0,P|357:149|398:208,1,100.000000596046
408,233,30103,6,0,L|420:287,2,50.000000298023
455,216,30800,1,0,0:0:0:0:
452,165,31033,1,0,0:0:0:0:
443,115,31265,2,0,P|408:72|355:56,1,100.000000596046
256,192,31963,12,0,33591,0:0:0:0:
256,83,33824,5,0,0:0:0:0:
297,110,34056,2,0,L|337:131,1,25.0000001490115
343,192,34521,6,0,L|289:191,1,50.000000298023
243,187,34986,2,0,P|193:161|178:116,1,100.000000596046
184,19,35917,5,0,0:0:0:0:
184,19,36265,2,0,L|241:19,2,50.000000298023
133,19,36963,1,0,0:0:0:0:
62,36,37312,5,0,0:3:0:0:
62,36,37545,2,0,P|50:83|83:124,1,100.000000596046
121,147,38242,1,0,0:0:0:0:
208,194,38707,2,0,P|255:231|276:271,1,100.000000596046
304,334,39521,5,0,0:0:0:0:
339,368,39754,1,0,0:0:0:0:
414,368,40103,2,0,B|465:368|465:368|465:291,1,125.000000745057
463,243,40917,1,0,0:0:0:0:
454,193,41149,5,0,0:0:0:0:
418,158,41382,2,0,L|364:132,1,50.000000298023
327,115,41847,1,0,0:0:0:0:
281,95,42079,2,0,P|241:47|201:27,2,100.000000596046
294,143,43242,5,0,0:0:0:0:
306,191,43475,1,0,0:0:0:0:
313,265,43824,2,0,P|352:280|381:275,2,50.000000298023
190,145,44870,5,0,0:0:0:0:
190,145,45103,2,0,L|300:145,1,100.000000596046
339,144,45800,1,0,0:0:0:0:
389,144,46033,1,0,0:0:0:0:
438,143,46265,2,0,L|439:243,1,100.000000596046
441,293,46963,5,0,0:0:0:0:
396,315,47196,1,0,0:0:0:0:
346,309,47428,2,0,L|345:244,2,50.000000298023
295,310,48126,2,0,L|229:309,1,50.000000298023
194,306,48591,5,0,0:0:0:0:
194,306,48824,2,0,P|155:225|156:196,1,100.000000596046
147,167,49521,2,0,P|166:116|202:80,1,100.000000596046
288,43,50451,2,0,P|353:40|387:79,1,100.000000596046
352,157,51382,2,0,P|282:153|270:116,1,100.000000596046
245,37,52312,5,0,0:0:0:0:
245,37,52545,2,0,L|173:38,1,50.000000298023
95,37,53242,2,0,P|51:82|31:132,1,100.000000596046
11,211,54289,5,0,0:0:0:0:
74,288,54754,1,0,0:0:0:0:
136,210,55219,1,0,0:0:0:0:
219,264,55684,2,0,L|339:262,1,100.000000596046
361,236,56382,5,0,0:0:0:0:
361,236,56614,2,0,L|412:185,1,50.000000298023
438,173,57079,2,0,P|400:127|350:91,1,100.000000596046
265,88,58010,2,0,B|211:88|211:88|211:139,1,100.000000596046
211,233,58940,2,0,B|262:232|262:232|262:183,1,100.000000596046
331,110,59870,6,0,L|390:110,2,50.000000298023
255,110,60684,1,0,0:0:0:0:
255,110,60917,2,0,L|177:110,1,75.0000004470345
129,107,61498,1,0,0:0:0:0:
78,108,61731,6,0,P|55:191|59:309,1,200.000001192092
143,356,63126,2,0,L|202:325,1,50.000000298023
252,294,63707,5,0,0:0:0:0:
252,294,63940,2,0,L|338:241,1,100.000000596046
375,209,64638,1,0,0:0:0:0:
434,163,64986,2,0,P|436:125|422:102,1,50.000000298023
390,85,65451,6,0,P|366:21|329:-10,2,100.000000596046
390,185,66847,2,0,L|319:185,1,50.000000298023
239,183,67545,2,0,P|201:183|176:194,1,50.000000298023
118,208,68126,5,0,0:0:0:0:
118,208,68242,2,0,P|88:167|78:124,1,75.0000004470345
65,96,68824,1,0,0:0:0:0:
142,32,69289,5,0,0:0:0:0:
241,32,69754,1,0,0:0:0:0:
340,32,70219,2,0,B|443:32|443:32|444:128,1,200.000001192092
441,179,71382,2,0,L|387:179,1,50.000000298023
341,183,71847,1,0,0:0:0:0:
291,186,72079,6,0,P|278:219|286:286,2,100.000000596046
343,100,73242,1,0,0:0:0:0:
343,100,73475,1,0,0:0:0:0:
343,100,73824,2,0,P|408:114|454:157,1,125.000000745057
483,246,74870,5,0,0:0:0:0:
432,245,75103,1,0,0:0:0:0:
382,245,75335,2,0,L|279:247,1,100.000000596046
182,248,76265,2,0,L|121:235,1,50.000000298023
88,213,76731,6,0,P|80:147|119:131,1,100.000000596046
200,133,77661,2,0,P|229:193|198:229,2,100.000000596046
137,91,78940,6,0,L|205:49,1,75.0000004470345
247,32,79521,1,0,0:0:0:0:
285,64,79754,1,0,0:0:0:0:
322,96,79986,1,0,0:0:0:0:
255,193,83824,21,0,0:0:0:0:
155,194,84289,5,0,0:0:0:0:
55,196,84754,2,0,P|49:238|76:289,1,100.000000596046
112,319,85451,1,0,0:0:0:0:
160,319,85684,2,0,L|197:367,2,50.000000298023
133,276,86382,1,0,0:0:0:0:
102,236,86614,1,0,0:0:0:0:
61,172,86963,2,0,P|70:106|105:56,1,125.000000745057
201,42,88010,5,0,0:0:0:0:
300,42,88475,1,0,0:0:0:0:
248,127,88940,1,0,0:0:0:0:
248,226,89405,2,0,L|248:300,1,50.000000298023
249,326,89870,5,0,0:0:0:0:
198,327,90103,2,0,L|129:323,1,50.000000298023
48,319,90800,2,0,P|22:268|30:223,1,100.000000596046
70,136,91731,6,0,P|117:97|171:91,1,100.000000596046
260,96,92661,2,0,L|317:118,2,50.000000298023
163,68,93591,1,0,0:0:0:0:
163,68,93824,2,0,P|116:92|105:131,1,75.0000004470345
109,185,94521,2,0,P|145:258|177:273,1,100.000000596046
280,302,95568,6,0,P|376:246|403:64,1,300.000001788138
305,65,97428,2,0,B|200:65|200:65|200:95,1,125.000000745057
200,160,98358,2,0,B|200:244|200:244|95:244|95:244|95:334,1,275.000001639126
220,335,100219,6,0,L|270:335,1,50.000000298023
320,335,100684,1,0,0:0:0:0:
320,335,100917,2,0,L|387:314,1,50.000000298023
414,302,101382,1,0,0:0:0:0:
457,276,101614,1,0,0:0:0:0:
434,204,101963,2,0,P|403:157|355:117,1,100.000000596046
272,59,103010,6,0,P|221:57|181:97,3,100.000000596046
138,175,104870,2,0,P|113:223|113:276,1,100.000000596046
11,261,105800,2,0,L|27:161,1,100.000000596046
56,66,106731,6,0,P|107:62|143:97,3,100.000000596046
199,174,108591,1,0,0:0:0:0:
199,174,108824,2,0,L|236:238,1,50.000000298023
280,299,109521,2,0,L|380:233,1,100.000000596046
446,188,110451,6,0,P|407:129|361:123,3,100.000000596046
256,118,112428,2,0,L|189:118,1,50.000000298023
156,118,112893,1,0,0:0:0:0:
160,18,113358,2,0,P|231:23|260:60,1,100.000000596046
259,140,114289,5,0,0:0:0:0:
259,215,114638,1,0,0:0:0:0:
260,289,114986,2,0,L|260:370,3,75.0000004470345
