osu file format v14

[General]
AudioFilename: doors.mp3
AudioLeadIn: 0
PreviewTime: 194956
Countdown: 0
SampleSet: Soft
StackLeniency: 0.4
Mode: 0
LetterboxInBreaks: 0
WidescreenStoryboard: 1

[Editor]
DistanceSpacing: 0.8
BeatDivisor: 4
GridSize: 4
TimelineZoom: 2

[Metadata]
Title:doors
TitleUnicode:doors
Artist:DIRTY OLD MEN
ArtistUnicode:DIRTY OLD MEN
Creator:Asuka_-
Version:dkblaze's Ephemeral Happiness
Source:
Tags:因果交流電燈と模倣芸術の櫻 MAD Pluvia サクラノ詩 -櫻の森の上を舞う- MAGIC OF LiFE マジックオブライフ sakura no uta mori ue o wo mau makura 枕 Inga Kouryuu Dentou to Mohou Geizyutsu Geijutsu video game visual novel eroge dkblaze j-rock jrock rock japanese
BeatmapID:2277474
BeatmapSetID:1049374

[Difficulty]
HPDrainRate:7
CircleSize:3.8
OverallDifficulty:9
ApproachRate:9.2
SliderMultiplier:1.8
SliderTickRate:1

[Events]
//Background and Video events
0,0,"ExBG.jpg",0,0
Video,-16,"Zarathustra.mp4"
//Break Periods
2,195099,202957
//Storyboard Layer 0 (Background)
//Storyboard Layer 1 (Fail)
//Storyboard Layer 2 (Pass)
//Storyboard Layer 3 (Foreground)
//Storyboard Layer 4 (Overlay)
//Storyboard Sound Samples

[TimingPoints]
1242,285.714285714286,4,2,2,50,1,0
5956,285.714285714286,4,2,2,60,1,0
5956,-399.999999999997,4,2,2,60,0,0
14883,-399.999999999997,4,2,2,5,0,0
14955,-100,4,2,2,75,0,0
15098,-100,4,2,2,75,0,0
19240,-200,4,2,2,75,0,0
19455,-200,4,2,2,5,0,0
19526,-100,4,2,2,75,0,0
22026,-100,4,2,2,5,0,0
22098,-100,4,2,2,75,0,0
23098,-142.857142857143,4,2,2,65,0,0
26026,-142.857142857143,4,2,2,5,0,0
26098,-142.857142857143,4,2,2,65,0,0
27883,-142.857142857143,4,2,2,5,0,0
27955,-142.857142857143,4,2,2,65,0,0
32240,-111.111111111111,4,2,2,70,0,0
33312,-111.111111111111,4,2,2,5,0,0
33383,-111.111111111111,4,2,2,70,0,0
38169,-111.111111111111,4,2,2,5,0,0
38240,-111.111111111111,4,2,2,70,0,0
39312,-111.111111111111,4,2,2,5,0,0
39383,-111.111111111111,4,2,2,70,0,0
40526,-90.9090909090909,4,2,2,70,0,0
41098,-500,4,2,2,70,0,0
41312,-500,4,2,2,5,0,0
41383,-83.3333333333333,4,2,2,70,0,0
41598,-83.3333333333333,4,2,2,5,0,0
41669,-125,4,2,2,70,0,0
42169,-125,4,2,2,5,0,0
42240,-125,4,2,2,70,0,0
43883,-125,4,2,2,5,0,0
43955,-125,4,2,2,70,0,0
48169,-125,4,2,2,5,0,0
48240,-125,4,2,2,70,0,0
50383,-90.9090909090909,4,2,2,70,0,0
52883,-90.9090909090909,4,2,2,5,0,0
52955,-90.9090909090909,4,2,2,70,0,0
54956,-83.3333333333333,4,2,2,80,0,1
55383,-76.9230769230769,4,2,2,80,0,1
55598,-76.9230769230769,4,2,2,5,0,1
55669,-90.9090909090909,4,2,2,80,0,1
56455,-90.9090909090909,4,2,2,5,0,1
56526,-90.9090909090909,4,2,2,80,0,1
58455,-90.9090909090909,4,2,2,5,0,1
58526,-90.9090909090909,4,2,2,80,0,1
61026,-90.9090909090909,4,2,2,5,0,1
61098,-90.9090909090909,4,2,2,80,0,1
61812,-90.9090909090909,4,2,2,80,0,1
63026,-90.9090909090909,4,2,2,5,0,1
63098,-90.9090909090909,4,2,2,80,0,1
70169,-90.9090909090909,4,2,2,5,0,1
70240,-90.9090909090909,4,2,2,80,0,1
75312,-90.9090909090909,4,2,2,5,0,1
75383,-90.9090909090909,4,2,2,80,0,1
76740,-90.9090909090909,4,2,2,5,0,1
76812,-90.9090909090909,4,2,2,80,0,1
79598,-90.9090909090909,4,2,2,5,0,1
79669,-90.9090909090909,4,2,2,80,0,1
81312,-90.9090909090909,4,2,2,5,0,1
81383,-90.9090909090909,4,2,2,80,0,1
90169,-90.9090909090909,4,2,2,5,0,1
90240,-90.9090909090909,4,2,2,80,0,1
91670,-166.666666666667,4,2,2,70,0,0
96240,-111.111111111111,4,2,2,70,0,0
96812,-142.857142857143,4,2,2,70,0,0
111955,-333.333333333334,4,2,2,70,0,0
112240,-142.857142857143,4,2,2,70,0,0
112526,-100,4,2,2,60,0,0
114526,-166.666666666667,4,2,2,70,0,0
114812,-76.9230769230769,4,2,2,70,0,0
115026,-76.9230769230769,4,2,2,5,0,0
115098,-76.9230769230769,4,2,2,70,0,0
115883,-76.9230769230769,4,2,2,5,0,0
115955,-100,4,2,2,70,0,0
116669,-90.9090909090909,4,2,2,70,0,0
120883,-90.9090909090909,4,2,2,5,0,0
120955,-90.9090909090909,4,2,2,70,0,0
121026,-90.9090909090909,4,2,2,5,0,0
121241,-83.3333333333333,4,2,2,80,0,1
121669,-76.9230769230769,4,2,2,80,0,1
121883,-76.9230769230769,4,2,2,5,0,1
121955,-90.9090909090909,4,2,2,80,0,1
122740,-90.9090909090909,4,2,2,5,0,1
122812,-90.9090909090909,4,2,2,80,0,1
124740,-90.9090909090909,4,2,2,5,0,1
124812,-90.9090909090909,4,2,2,80,0,1
127312,-90.9090909090909,4,2,2,5,0,1
127383,-90.9090909090909,4,2,2,80,0,1
129312,-90.9090909090909,4,2,2,5,0,1
129383,-90.9090909090909,4,2,2,80,0,1
136455,-90.9090909090909,4,2,2,5,0,1
136526,-90.9090909090909,4,2,2,80,0,1
143026,-90.9090909090909,4,2,2,5,0,1
143098,-90.9090909090909,4,2,2,80,0,1
145883,-90.9090909090909,4,2,2,5,0,1
145955,-90.9090909090909,4,2,2,80,0,1
147598,-90.9090909090909,4,2,2,5,0,1
147669,-90.9090909090909,4,2,2,80,0,1
157956,-200,4,2,2,70,0,0
158526,-500,4,2,2,70,0,0
159026,-500,4,2,2,5,0,0
159098,-200,4,2,2,70,0,0
159669,-500,4,2,2,70,0,0
160169,-500,4,2,2,5,0,0
160240,-200,4,2,2,70,0,0
163098,-500,4,2,2,70,0,0
163598,-500,4,2,2,5,0,0
163669,-200,4,2,2,70,0,0
164240,-500,4,2,2,70,0,0
164740,-500,4,2,2,5,0,0
164812,-200,4,2,2,70,0,0
167669,-500,4,2,2,70,0,0
168169,-500,4,2,2,5,0,0
168240,-200,4,2,2,70,0,0
172240,-500,4,2,2,70,0,0
172740,-500,4,2,2,5,0,0
172812,-200,4,2,2,70,0,0
173383,-500,4,2,2,70,0,0
173883,-500,4,2,2,5,0,0
173955,-200,4,2,2,70,0,0
176812,-500,4,2,2,70,0,0
177169,-500,4,2,2,5,0,0
177240,-500,4,2,2,70,0,0
177383,-200,4,2,2,70,0,0
177955,-500,4,2,2,70,0,0
178312,-500,4,2,2,5,0,0
178383,-500,4,2,2,70,0,0
178526,-200,4,2,2,70,0,0
181383,-500,4,2,2,70,0,0
181740,-500,4,2,2,5,0,0
181812,-500,4,2,2,70,0,0
181955,-200,4,2,2,70,0,0
185955,-500,4,2,2,70,0,0
186312,-500,4,2,2,5,0,0
186383,-500,4,2,2,70,0,0
186526,-200,4,2,2,70,0,0
187455,-200,4,2,2,5,0,0
187526,-200,4,2,2,70,0,0
190526,-500,4,2,2,70,0,0
190883,-500,4,2,2,5,0,0
190955,-500,4,2,2,70,0,0
191098,-200,4,2,2,70,0,0
192455,-200,4,2,2,5,0,0
192526,-200,4,2,2,70,0,0
192812,-142.857142857143,4,2,2,70,0,0
193026,-142.857142857143,4,2,2,5,0,0
193098,-142.857142857143,4,2,2,70,0,0
193383,-111.111111111111,4,2,2,70,0,0
193598,-111.111111111111,4,2,2,5,0,0
193669,-111.111111111111,4,2,2,70,0,0
203384,-285.714285714284,4,2,2,65,0,0
208241,-399.999999999997,4,2,2,65,0,0
208812,-333.333333333334,4,2,2,65,0,0
209384,-250,4,2,2,65,0,0
209955,-200,4,2,2,65,0,0
210527,-57.1428571428571,4,2,2,70,0,0
211669,-1000,4,2,2,30,0,0
212527,-1000,4,2,2,10,0,0
212670,-76.9230769230769,4,2,2,80,0,1
213096,-76.9230769230769,4,2,2,80,0,1
213311,-76.9230769230769,4,2,2,5,0,1
213382,-90.9090909090909,4,2,2,80,0,1
214168,-90.9090909090909,4,2,2,5,0,1
214239,-90.9090909090909,4,2,2,80,0,1
216168,-90.9090909090909,4,2,2,5,0,1
216239,-90.9090909090909,4,2,2,80,0,1
218739,-90.9090909090909,4,2,2,5,0,1
218811,-90.9090909090909,4,2,2,80,0,1
220239,-76.9230769230769,4,2,2,80,0,1
220453,-76.9230769230769,4,2,2,5,0,1
220525,-76.9230769230769,4,2,2,80,0,1
220811,-90.9090909090909,4,2,2,80,0,1
230956,-90.9090909090909,4,2,2,75,0,0
231382,-100,4,2,2,75,0,0
235239,-200,4,2,2,75,0,0
235453,-200,4,2,2,5,0,0
235525,-83.3333333333333,4,2,2,75,0,0
235953,-100,4,2,2,75,0,0

[Colours]
Combo1 : 128,255,255
Combo2 : 255,128,192
Combo3 : 128,128,192

[HitObjects]
461,66,5813,5,6,3:2:0:0:
360,15,6527,5,2,0:0:0:0:
360,15,7098,1,2,0:0:0:0:
360,15,7670,2,0,L|351:66,1,45,2|0,0:0|0:0,0:0:0:0:
347,92,8098,5,2,3:2:0:0:
233,118,8813,5,2,0:0:0:0:
233,118,9384,1,2,0:0:0:0:
233,118,9956,2,0,L|242:169,1,45,2|0,0:0|0:0,0:0:0:0:
246,195,10384,5,2,3:2:0:0:
343,221,10813,2,0,L|393:211,1,45,0|2,3:0|0:0,0:0:0:0:
246,195,11527,5,2,3:2:0:0:
343,221,11956,2,0,L|393:211,1,45,0|2,3:0|0:0,0:0:0:0:
135,260,12670,6,0,L|126:204,1,45,2|2,3:2|0:0,0:0:0:0:
124,181,13098,1,2,3:2:0:0:
273,309,13384,1,2,0:0:0:0:
241,321,13527,1,2,3:2:0:0:
270,110,13813,5,2,3:2:0:0:
270,110,13884,1,0,3:0:0:0:
270,110,13956,1,8,3:3:0:0:
343,221,14098,1,2,3:2:0:0:
486,164,14384,5,0,3:0:0:0:
343,221,14527,1,10,0:0:0:0:
185,139,14670,2,0,L|143:144,1,33.75,2|0,3:2|0:0,0:0:0:0:
70,108,14956,6,0,P|130:171|114:261,1,180,6|0,3:2|3:0,0:0:0:0:
264,175,15384,1,10,0:0:0:0:
264,175,15527,1,2,3:2:0:0:
348,304,15670,2,0,L|455:319,1,90,2|0,0:0|3:0,0:0:0:0:
494,150,15956,2,0,L|404:162,1,90,10|0,0:0|3:0,0:0:0:0:
209,239,16241,6,0,P|184:203|182:159,1,90,2|0,0:0|3:0,0:0:0:0:
252,315,16527,2,0,P|209:327|167:313,1,90,10|0,0:0|3:0,0:0:0:0:
335,127,16813,1,2,0:0:0:0:
335,127,16956,2,0,L|324:222,1,90,2|8,3:2|0:0,0:0:0:0:
403,75,17241,6,0,B|309:98|329:17|234:42,1,180,2|0,3:2|3:0,0:0:0:0:
100,135,17670,1,10,0:0:0:0:
100,135,17813,1,2,3:2:0:0:
202,250,17956,2,0,L|194:345,1,90,2|0,0:0|3:0,0:0:0:0:
36,279,18241,2,0,L|28:184,1,90,10|0,0:0|3:0,0:0:0:0:
182,75,18527,6,0,P|226:68|268:91,1,90,2|0,0:0|3:0,0:0:0:0:
351,208,18813,2,0,L|343:297,1,90,10|0,0:0|3:0,0:0:0:0:
370,51,19098,1,10,0:0:0:0:
361,216,19241,6,0,L|354:296,1,67.5,10|0,0:0|0:0,0:0:0:0:
455,359,19527,6,0,B|361:382|381:301|286:326,1,180,6|0,3:2|3:0,0:0:0:0:
105,210,19956,1,10,0:0:0:0:
105,210,20098,1,2,3:2:0:0:
53,327,20241,2,0,P|94:342|138:336,1,90,2|0,0:0|3:0,0:0:0:0:
154,137,20527,2,0,P|112:121|68:127,1,90,10|0,0:0|3:0,0:0:0:0:
263,207,20813,6,0,L|270:117,1,90,2|0,0:0|3:0,0:0:0:0:
104,209,21098,2,0,L|112:299,1,90,10|0,0:0|3:0,0:0:0:0:
321,265,21384,1,2,0:0:0:0:
321,265,21527,2,0,P|275:260|241:284,1,90,2|8,3:2|0:0,0:0:0:0:
402,357,21813,6,0,L|414:213,1,135,2|0,3:2|0:0,0:0:0:0:
419,177,22098,1,2,3:2:0:0:
261,194,22241,1,10,0:0:0:0:
278,99,22384,1,2,3:2:0:0:
157,234,22527,5,8,0:0:0:0:
148,144,22670,1,10,0:3:0:0:
75,90,22813,1,10,0:3:0:0:
46,338,22956,6,0,B|140:348|110:273|216:289,1,180,6|0,3:2|3:0,0:0:0:0:
334,320,23384,1,8,0:0:0:0:
334,320,23670,5,2,3:2:0:0:
334,320,23813,2,0,L|339:257,1,62.9999980773926,2|8,3:2|0:0,0:0:0:0:
431,203,24098,6,0,P|368:212|320:174,1,125.999996154785,2|0,3:2|3:0,0:0:0:0:
247,140,24527,1,8,0:0:0:0:
145,178,24670,1,2,0:0:0:0:
262,250,24813,1,2,0:0:0:0:
195,298,24956,2,0,L|190:361,1,62.9999980773926,2|8,3:2|0:0,0:0:0:0:
42,276,25241,6,0,P|72:271|100:287,1,62.9999980773926,2|0,0:0|3:0,0:0:0:0:
145,178,25527,2,0,P|114:173|87:189,1,62.9999980773926,2|8,0:0|0:0,0:0:0:0:
25,67,25813,2,0,P|65:93|111:92,1,94.499997116089,2|0,0:0|0:0,0:0:0:0:
144,66,26098,2,0,L|151:-2,1,62.9999980773926,2|8,3:2|0:0,0:0:0:0:
241,121,26384,6,0,L|248:53,1,62.9999980773926,2|0,3:2|0:0,0:0:0:0:
421,21,26670,2,0,P|390:18|362:33,1,62.9999980773926,2|8,3:2|0:0,0:0:0:0:
470,128,26956,2,0,P|448:105|417:99,1,62.9999980773926,2|0,0:0|0:0,0:0:0:0:
336,153,27241,1,2,3:2:0:0:
425,248,27384,1,8,0:0:0:0:
359,318,27527,1,2,0:0:0:0:
248,236,27670,6,0,L|132:226,1,94.499997116089,2|0,3:2|0:0,0:0:0:0:
118,225,27956,1,8,0:0:0:0:
45,121,28098,2,0,L|115:114,1,62.9999980773926,2|0,0:0|0:0,0:0:0:0:
45,279,28384,2,0,P|26:253|24:222,1,62.9999980773926,2|8,3:2|0:0,0:0:0:0:
0,355,28670,6,0,B|51:350|51:350|70:332|70:332|118:328,1,125.999996154785,2|0,3:2|3:0,0:0:0:0:
256,314,29098,1,8,0:0:0:0:
297,236,29241,1,2,0:0:0:0:
401,308,29384,2,0,L|396:389,1,62.9999980773926,2|2,0:0|3:2,0:0:0:0:
276,319,29670,1,8,0:0:0:0:
258,152,29813,6,0,P|309:187|372:181,1,125.999996154785,2|0,0:0|0:0,0:0:0:0:
446,74,30241,1,10,0:0:0:0:
396,4,30384,2,0,L|329:12,1,62.9999980773926,2|0,0:0|0:0,0:0:0:0:
248,71,30670,1,2,3:2:0:0:
125,5,30813,1,8,0:0:0:0:
29,107,30956,6,0,L|43:241,1,125.999996154785,2|0,3:2|3:2,0:0:0:0:
170,290,31384,1,8,0:0:0:0:
170,290,31670,2,0,L|96:299,1,62.9999980773926,2|0,0:0|3:0,0:0:0:0:
219,377,31956,2,0,L|293:386,1,62.9999980773926,10|0,0:0|0:0,0:0:0:0:
461,291,32241,5,6,3:2:0:0:
442,381,32384,1,2,0:0:0:0:
305,299,32527,2,0,B|296:257|296:257|318:224,1,80.9999975280763,10|0,0:0|0:0,0:0:0:0:
486,171,32813,1,2,0:0:0:0:
399,218,32956,1,2,3:2:0:0:
291,119,33098,2,0,P|236:103|178:131,1,121.499996292114,10|0,0:0|0:0,0:0:0:0:
122,88,33384,6,0,L|129:172,1,80.9999975280763,2|0,0:0|3:0,0:0:0:0:
41,58,33670,2,0,L|55:232,1,161.999995056153,10|0,0:0|0:0,0:0:0:0:
64,322,34098,1,0,3:0:0:0:
203,236,34241,2,0,P|164:232|133:257,1,80.9999975280763,10|0,0:0|0:0,0:0:0:0:
296,315,34527,5,2,3:2:0:0:
283,189,34670,1,2,0:0:0:0:
401,163,34813,2,0,P|405:201|389:243,1,80.9999975280763,10|0,0:0|0:0,0:0:0:0:
298,330,35098,1,2,0:0:0:0:
419,373,35241,1,2,3:2:0:0:
456,299,35384,1,10,0:0:0:0:
456,299,35527,6,0,P|418:285|380:297,1,80.9999975280763,2|0,3:2|0:0,0:0:0:0:
219,384,35813,2,0,L|208:303,1,80.9999975280763,2|8,3:2|0:0,0:0:0:0:
331,169,36098,2,0,L|320:249,1,80.9999975280763,2|0,0:0|0:0,0:0:0:0:
164,233,36384,2,0,P|201:220|240:229,1,80.9999975280763,2|8,3:2|0:0,0:0:0:0:
127,306,36670,1,2,0:0:0:0:
0,207,36813,6,0,L|8:288,1,80.9999975280763,2|0,3:2|0:0,0:0:0:0:
52,143,37098,1,10,0:0:0:0:
169,237,37241,1,2,0:0:0:0:
261,161,37384,2,0,L|253:80,1,80.9999975280763,2|0,0:0|3:0,0:0:0:0:
324,220,37670,2,0,P|293:244|253:248,1,80.9999975280763,10|0,0:0|3:0,0:0:0:0:
383,158,37956,6,0,L|368:305,1,121.499996292114,2|0,0:0|0:0,0:0:0:0:
367,323,38241,1,8,0:0:0:0:
512,384,38384,1,2,0:0:0:0:
512,384,38527,1,2,0:0:0:0:
451,272,38670,1,2,3:2:0:0:
300,364,38813,2,0,L|207:349,1,80.9999975280763,10|0,0:0|0:0,0:0:0:0:
113,203,39098,6,0,P|122:262|73:316,1,121.499996292114,2|0,3:0|0:0,0:0:0:0:
46,327,39384,2,0,L|139:312,1,80.9999975280763,10|0,0:0|0:0,0:0:0:0:
206,223,39670,1,2,0:0:0:0:
206,223,39813,1,2,3:2:0:0:
300,364,39956,1,8,0:0:0:0:
359,195,40098,6,0,B|272:175|290:243|205:222,1,161.999995056153,2|0,3:2|3:0,0:0:0:0:
9,29,40527,6,0,L|21:143,1,99.0000030212403,12|8,0:0|0:0,0:0:0:0:
28,186,40741,1,8,0:0:0:0:
28,186,40813,1,8,0:0:0:0:
142,79,40956,1,10,0:3:0:0:
234,152,41098,6,0,L|268:147,1,27,0|0,3:0|0:0,0:0:0:0:
338,197,41384,6,0,P|260:180|197:226,1,161.999995056153,6|0,3:2|0:0,0:0:0:0:
178,262,41670,6,0,B|144:279|144:279|101:261,1,72,2|0,3:2|0:0,0:0:0:0:
17,198,41956,2,0,L|32:306,1,108,2|0,3:2|0:0,0:0:0:0:
39,344,42241,1,2,3:2:0:0:
134,384,42384,1,2,0:0:0:0:
178,262,42527,5,2,3:2:0:0:
242,311,42670,2,0,L|317:304,1,72,2|0,0:0|3:0,0:0:0:0:
388,347,42956,2,0,P|352:288|368:220,1,144,2|0,0:0|0:0,0:0:0:0:
336,127,43384,1,0,3:0:0:0:
253,176,43527,1,2,0:0:0:0:
151,60,43670,6,0,P|97:49|49:83,1,108,2|0,3:2|0:0,0:0:0:0:
54,75,43956,2,0,L|62:157,1,72,2|0,3:2|0:0,0:0:0:0:
0,223,44241,2,0,B|77:239|56:174|134:195,1,144,2|0,3:2|3:0,0:0:0:0:
232,259,44670,6,0,L|224:341,1,72,2|0,0:0|3:0,0:0:0:0:
323,272,44956,2,0,L|316:343,1,72,2|0,0:0|3:0,0:0:0:0:
232,259,45241,2,0,L|238:187,1,72,2|0,0:0|3:0,0:0:0:0:
315,342,45527,2,0,P|262:298|193:310,1,144,2|0,0:0|0:0,0:0:0:0:
97,384,45956,5,2,3:2:0:0:
97,384,46241,1,2,3:2:0:0:
0,250,46527,2,0,L|13:101,2,144,2|0|2,3:2|3:0|3:2,0:0:0:0:
163,156,47241,2,0,P|128:163|94:151,1,72,2|0,0:0|3:0,0:0:0:0:
18,34,47527,2,0,L|11:105,1,72,2|0,0:0|3:0,0:0:0:0:
223,93,47813,2,0,B|260:57|260:57|120:77,1,180,2|0,0:0|0:0,0:0:0:0:
74,118,48241,6,0,L|163:106,1,72,2|0,3:2|0:0,0:0:0:0:
238,196,48527,1,2,3:2:0:0:
392,105,48670,2,0,L|382:196,1,72,0|2,0:0|3:2,0:0:0:0:
299,136,48956,1,2,0:0:0:0:
403,96,49098,2,0,L|389:221,1,108,2|0,3:2|0:0,0:0:0:0:
386,247,49384,5,6,3:2:0:0:
214,306,49527,1,8,0:0:0:0:
238,196,49813,5,0,3:0:0:0:
238,196,49884,1,0,3:0:0:0:
238,196,49956,1,10,0:0:0:0:
299,276,50098,1,0,3:0:0:0:
264,94,50241,1,10,0:0:0:0:
46,185,50384,6,0,B|125:179|125:179|159:201|159:201|237:195,1,198.000006042481,6|0,3:2|3:0,0:0:0:0:
102,267,50813,1,8,0:0:0:0:
102,267,51098,1,0,3:0:0:0:
166,336,51241,1,0,3:0:0:0:
237,194,51384,1,8,0:0:0:0:
369,295,51527,6,0,B|261:319|288:223|181:251,1,198.000006042481,0|0,3:0|3:0,0:0:0:0:
360,171,51956,1,8,0:0:0:0:
360,171,52241,1,0,3:0:0:0:
435,220,52384,1,0,3:0:0:0:
287,322,52527,1,8,0:0:0:0:
217,105,52670,6,0,B|182:144|182:144|206:252,1,148.50000453186,6|0,3:2|0:0,0:0:0:0:
212,271,52956,1,0,3:0:0:0:
360,171,53098,2,0,P|314:189|257:151,1,99.0000030212403,8|0,0:0|0:0,0:0:0:0:
111,319,53384,1,2,3:2:0:0:
196,368,53527,2,0,L|211:270,1,99.0000030212403,10|0,0:0|0:0,0:0:0:0:
74,123,53813,1,0,3:0:0:0:
0,261,53956,5,14,0:0:0:0:
153,213,54098,1,10,0:0:0:0:
153,213,54170,1,8,0:0:0:0:
153,213,54241,1,8,0:0:0:0:
74,123,54384,1,8,0:0:0:0:
150,232,54527,5,10,3:2:0:0:
232,116,54670,1,10,3:2:0:0:
306,290,54813,1,8,3:2:0:0:
434,118,54956,6,0,P|356:86|338:190,1,215.999993408203,6|0,3:2|3:0,0:0:0:0:
502,384,55384,6,0,B|436:379|436:379|409:353|409:353|333:348,1,175.499991966248,14|0,0:0|0:0,0:0:0:0:
288,384,55670,6,0,P|288:334|306:288,1,99.0000030212403,2|0,3:2|3:0,0:0:0:0:
111,180,55956,2,0,P|132:226|133:291,1,99.0000030212403,10|0,0:0|0:0,0:0:0:0:
14,97,56241,6,0,B|96:122|75:53|171:83,1,148.50000453186,2|0,3:2|0:0,0:0:0:0:
219,125,56527,2,0,B|194:88|194:88|209:35,1,99.0000030212403,10|0,0:0|0:0,0:0:0:0:
408,165,56813,1,2,3:2:0:0:
360,224,56956,2,0,L|351:121,1,99.0000030212403,2|8,3:2|0:0,0:0:0:0:
136,12,57241,6,0,P|177:73|161:200,1,198.000006042481,2|0,3:2|3:0,0:0:0:0:
366,90,57670,2,0,L|268:98,1,99.0000030212403,10|0,0:0|0:0,0:0:0:0:
438,139,57956,2,0,P|452:93|438:46,1,99.0000030212403,2|0,3:2|3:0,0:0:0:0:
212,218,58241,2,0,B|268:224|268:224|296:253|296:253|386:262,1,148.50000453186,10|0,0:0|0:0,0:0:0:0:
383,322,58527,6,0,P|382:273|411:229,1,99.0000030212403,0|0,3:0|0:0,0:0:0:0:
262,98,58813,2,0,P|288:140|288:189,1,99.0000030212403,10|0,0:0|0:0,0:0:0:0:
102,308,59098,2,0,L|5:324,1,99.0000030212403,2|0,3:2|3:0,0:0:0:0:
146,237,59384,1,10,0:0:0:0:
177,360,59527,6,0,P|156:286|199:163,1,198.000006042481,2|0,3:2|3:0,0:0:0:0:
193,14,59956,1,8,0:0:0:0:
211,38,60241,2,0,L|96:22,1,99.0000030212403,2|0,3:2|3:0,0:0:0:0:
18,180,60527,2,0,L|133:164,1,99.0000030212403,10|0,0:0|0:0,0:0:0:0:
276,269,60813,6,0,L|290:87,1,148.50000453186,2|0,3:2|0:0,0:0:0:0:
314,49,61098,2,0,L|305:160,1,99.0000030212403,10|0,0:0|0:0,0:0:0:0:
368,284,61384,1,2,3:2:0:0:
448,328,61527,2,0,P|460:287|438:226,1,99.0000030212403,2|8,3:2|0:0,0:0:0:0:
405,116,61813,6,0,B|300:134|334:49|220:74,1,198.000006042481,2|0,3:2|3:0,0:0:0:0:
147,227,62241,2,0,L|158:103,1,99.0000030212403,10|0,0:0|0:0,0:0:0:0:
20,34,62527,2,0,L|31:158,1,99.0000030212403,2|0,3:2|3:0,0:0:0:0:
0,334,62813,2,0,B|57:329|57:329|90:354|90:354|177:348,1,148.50000453186,10|0,0:0|0:0,0:0:0:0:
206,384,63098,6,0,B|182:350|182:350|193:279,1,99.0000030212403,0|0,3:0|0:0,0:0:0:0:
389,239,63384,2,0,L|376:352,1,99.0000030212403,10|0,0:0|0:0,0:0:0:0:
448,179,63670,1,2,3:2:0:0:
351,104,63813,1,2,3:2:0:0:
434,0,63956,1,8,0:0:0:0:
508,235,64098,6,0,B|435:229|435:229|408:198|408:198|287:185,1,198.000006042481,6|0,3:2|3:0,0:0:0:0:
128,62,64527,1,8,0:0:0:0:
164,81,64813,1,2,3:2:0:0:
64,156,64956,1,2,3:2:0:0:
25,5,65098,1,10,0:0:0:0:
240,43,65241,6,0,P|249:90|230:135,1,99.0000030212403,2|0,0:0|3:0,0:0:0:0:
21,224,65527,2,0,L|10:125,1,99.0000030212403,2|8,0:0|0:0,0:0:0:0:
269,208,65813,2,0,P|221:218|173:197,1,99.0000030212403,2|0,0:0|3:0,0:0:0:0:
155,57,66098,1,2,3:2:0:0:
230,135,66241,1,8,0:0:0:0:
428,49,66384,6,0,B|481:25|481:25|305:7,1,198.000006042481,2|0,3:2|3:0,0:0:0:0:
177,197,66813,1,8,0:0:0:0:
158,185,67098,1,2,3:2:0:0:
63,273,67241,1,2,3:2:0:0:
133,370,67384,1,10,0:0:0:0:
287,245,67527,6,0,P|289:196|263:155,1,99.0000030212403,2|0,0:0|3:0,0:0:0:0:
56,291,67813,2,0,L|163:273,1,99.0000030212403,2|8,0:0|0:0,0:0:0:0:
390,384,68098,2,0,L|283:366,1,99.0000030212403,2|0,0:0|3:0,0:0:0:0:
262,167,68384,1,2,3:2:0:0:
361,127,68527,1,8,0:0:0:0:
242,308,68670,6,0,L|217:65,1,198.000006042481,6|0,3:2|3:0,0:0:0:0:
137,217,69098,1,8,0:0:0:0:
252,320,69384,5,2,3:2:0:0:
288,214,69527,1,0,3:0:0:0:
74,276,69670,2,0,P|115:301|164:299,1,99.0000030212403,8|0,0:0|0:0,0:0:0:0:
353,165,69956,6,0,L|188:142,1,148.50000453186,2|0,3:2|0:0,0:0:0:0:
138,101,70241,2,0,L|263:118,1,99.0000030212403,8|0,0:0|0:0,0:0:0:0:
375,78,70527,1,2,3:2:0:0:
375,78,70670,1,0,3:0:0:0:
213,244,70813,2,0,L|227:352,1,99.0000030212403,8|0,0:0|0:0,0:0:0:0:
345,160,71098,5,2,3:2:0:0:
345,160,71241,1,0,0:0:0:0:
410,313,71384,1,10,0:0:0:0:
213,244,71527,1,0,0:0:0:0:
365,145,71670,2,0,L|351:253,1,99.0000030212403,2|0,3:2|3:0,0:0:0:0:
149,320,71956,2,0,P|119:281|115:232,1,99.0000030212403,8|0,0:0|0:0,0:0:0:0:
236,36,72241,5,6,3:2:0:0:
238,151,72384,1,10,3:2:0:0:
235,20,72670,5,2,3:2:0:0:
235,20,72741,1,0,3:0:0:0:
235,20,72813,1,8,3:3:0:0:
340,114,72956,1,2,3:2:0:0:
217,256,73098,1,8,0:0:0:0:
51,109,73241,6,0,B|169:82|128:170|260:147,1,198.000006042481,6|0,3:2|3:0,0:0:0:0:
403,8,73670,1,8,0:0:0:0:
434,36,73956,2,0,L|305:17,1,99.0000030212403,2|0,3:2|3:0,0:0:0:0:
243,183,74241,2,0,L|340:197,1,99.0000030212403,10|0,0:0|0:0,0:0:0:0:
171,106,74527,6,0,P|140:144|136:193,1,99.0000030212403,2|0,3:2|0:0,0:0:0:0:
379,372,74813,2,0,P|390:319|354:261,1,99.0000030212403,10|0,0:0|0:0,0:0:0:0:
120,289,75098,2,0,B|178:296|178:296|193:320|193:320|254:327,1,148.50000453186,2|0,3:2|0:0,0:0:0:0:
297,330,75384,1,8,0:0:0:0:
459,122,75527,6,0,P|393:80|368:172,1,198.000006042481,2|0,3:2|3:0,0:0:0:0:
488,384,75956,2,0,P|481:342|516:287,1,99.0000030212403,10|0,0:0|0:0,0:0:0:0:
298,242,76241,2,0,B|344:249|344:249|355:265|355:265|406:273,1,99.0000030212403,2|0,3:2|3:0,0:0:0:0:
482,54,76527,2,0,L|294:84,1,148.50000453186,10|0,0:0|0:0,0:0:0:0:
277,130,76813,6,0,B|249:98|249:98|264:35,1,99.0000030212403,0|0,3:0|0:0,0:0:0:0:
482,54,77098,2,0,P|508:95|503:152,1,99.0000030212403,10|0,0:0|0:0,0:0:0:0:
297,303,77384,1,2,3:2:0:0:
393,373,77527,2,0,L|376:253,1,99.0000030212403,2|8,3:2|0:0,0:0:0:0:
98,167,77813,6,0,B|213:146|182:223|285:203,1,198.000006042481,2|0,3:2|3:0,0:0:0:0:
436,49,78241,1,8,0:0:0:0:
410,24,78527,2,0,L|428:135,1,99.0000030212403,2|0,3:2|3:0,0:0:0:0:
264,248,78813,2,0,L|282:137,1,99.0000030212403,10|0,0:0|0:0,0:0:0:0:
501,288,79098,6,0,B|460:316|460:316|389:300,1,99.0000030212403,2|0,3:2|0:0,0:0:0:0:
206,158,79384,2,0,B|176:128|176:128|310:156,1,148.50000453186,10|0,0:0|0:0,0:0:0:0:
334,159,79670,1,2,3:2:0:0:
200,321,79813,2,0,P|170:282|167:233,1,99.0000030212403,2|8,3:2|0:0,0:0:0:0:
373,51,80098,6,0,L|396:251,1,198.000006042481,2|0,3:2|3:0,0:0:0:0:
501,126,80527,2,0,L|513:14,1,99.0000030212403,10|0,0:0|0:0,0:0:0:0:
288,24,80813,2,0,P|325:55|373:50,1,99.0000030212403,2|0,3:2|3:0,0:0:0:0:
512,203,81098,2,0,P|440:163|381:207,1,148.50000453186,10|0,0:0|0:0,0:0:0:0:
366,263,81384,6,0,L|352:163,1,99.0000030212403,0|0,3:0|0:0,0:0:0:0:
160,241,81670,2,0,P|212:232|256:262,1,99.0000030212403,10|0,0:0|0:0,0:0:0:0:
96,360,81956,1,2,3:2:0:0:
29,288,82098,2,0,L|19:176,1,99.0000030212403,2|8,3:2|0:0,0:0:0:0:
195,313,82384,6,0,L|214:91,1,198.000006042481,6|0,3:2|3:0,0:0:0:0:
115,254,82813,1,8,0:0:0:0:
68,93,82956,1,2,0:0:0:0:
68,93,83098,1,2,3:2:0:0:
7,146,83241,2,0,P|52:174|121:156,1,99.0000030212403,2|8,3:2|0:0,0:0:0:0:
224,36,83527,6,0,P|177:60|158:129,1,99.0000030212403,2|0,0:0|3:0,0:0:0:0:
210,278,83813,2,0,P|211:225|161:174,1,99.0000030212403,2|8,0:0|0:0,0:0:0:0:
45,287,84098,2,0,L|61:385,1,99.0000030212403,2|0,0:0|3:0,0:0:0:0:
123,251,84384,1,2,3:2:0:0:
0,156,84527,1,10,0:0:0:0:
91,29,84670,6,0,B|197:-7|179:82|288:53,1,198.000006042481,0|0,3:0|3:0,0:0:0:0:
364,233,85098,1,8,0:0:0:0:
392,210,85384,2,0,L|282:225,1,99.0000030212403,2|2,3:2|3:2,0:0:0:0:
105,113,85670,1,10,0:0:0:0:
160,46,85813,2,0,L|270:61,1,99.0000030212403,2|0,0:0|3:0,0:0:0:0:
218,267,86098,6,0,P|204:221|236:161,1,99.0000030212403,2|8,0:0|0:0,0:0:0:0:
343,25,86384,2,0,L|358:138,1,99.0000030212403,2|0,0:0|3:0,0:0:0:0:
381,287,86670,1,2,3:2:0:0:
381,287,86813,1,8,0:0:0:0:
508,90,86956,6,0,B|493:52|428:43|393:84|411:86|379:119|318:106,1,198.000006042481,6|0,3:2|3:0,0:0:0:0:
122,23,87384,1,8,0:0:0:0:
157,175,87670,5,2,3:2:0:0:
201,85,87813,1,0,3:0:0:0:
13,50,87956,2,0,P|41:98|37:153,1,99.0000030212403,8|0,0:0|0:0,0:0:0:0:
11,315,88241,6,0,P|43:280|113:277,1,99.0000030212403,2|0,3:2|0:0,0:0:0:0:
263,373,88527,2,0,L|249:260,1,99.0000030212403,8|0,0:0|0:0,0:0:0:0:
155,23,88813,2,0,L|141:136,1,99.0000030212403,2|0,3:2|3:0,0:0:0:0:
292,183,89098,1,8,0:0:0:0:
426,96,89241,1,2,0:0:0:0:
512,169,89384,6,0,L|501:282,1,99.0000030212403,2|0,3:2|0:0,0:0:0:0:
302,274,89670,2,0,P|282:236|296:175,1,99.0000030212403,10|0,0:0|0:0,0:0:0:0:
503,63,89956,2,0,B|441:54|441:54|425:33|425:33|331:20,1,148.50000453186,2|0,3:2|0:0,0:0:0:0:
330,20,90241,1,8,0:0:0:0:
241,116,90384,1,2,0:0:0:0:
139,76,90527,5,6,3:2:0:0:
426,96,90670,1,10,3:2:0:0:
103,236,90956,5,2,3:2:0:0:
97,212,91027,1,0,3:0:0:0:
91,188,91098,1,8,3:3:0:0:
167,155,91241,1,2,3:2:0:0:
274,303,91384,5,8,0:3:0:0:
190,271,91527,1,2,3:2:0:0:
31,384,91670,6,0,L|18:264,1,107.999996704102,6|0,3:2|3:0,0:0:0:0:
21,376,92241,2,0,L|8:256,1,107.999996704102,0|0,3:0|3:0,0:0:0:0:
178,47,92813,6,0,L|165:167,1,107.999996704102,0|0,3:0|3:0,0:0:0:0:
188,39,93384,2,0,L|175:159,1,107.999996704102,0|0,3:0|3:0,0:0:0:0:
325,356,93956,6,0,P|350:326|336:260,1,107.999996704102,6|0,3:2|3:0,0:0:0:0:
171,223,94384,2,0,B|213:228|213:228|230:212|230:212|273:216,1,107.999996704102,2|0,0:0|0:0,0:0:0:0:
376,134,94813,2,0,P|354:158|354:194,1,53.9999983520508,6|0,3:2|0:0,0:0:0:0:
457,300,95098,5,0,3:0:0:0:
512,227,95241,1,8,0:3:0:0:
512,227,95313,1,8,0:3:0:0:
512,227,95384,1,10,3:3:0:0:
471,143,95527,1,8,0:3:0:0:
345,255,95670,5,8,3:3:0:0:
334,253,95813,1,8,0:3:0:0:
253,182,95956,1,6,3:3:0:0:
242,184,96098,1,4,0:3:0:0:
97,232,96241,6,0,B|88:294|88:294|112:326|112:326|104:389,1,161.999995056153,6|0,3:2|3:0,0:0:0:0:
152,156,96813,1,2,3:2:0:0:
152,156,96956,2,0,L|87:141,1,62.9999980773926,2|0,0:0|3:0,0:0:0:0:
32,52,97241,1,2,0:0:0:0:
32,52,97384,6,0,P|90:22|147:70,1,125.999996154785,0|0,3:0|3:0,0:0:0:0:
214,97,97813,1,2,0:0:0:0:
214,97,97956,1,2,3:2:0:0:
266,35,98098,2,0,L|334:25,1,62.9999980773926,2|0,0:0|3:0,0:0:0:0:
466,163,98384,6,0,L|478:89,1,62.9999980773926,2|0,0:0|3:0,0:0:0:0:
389,99,98670,2,0,L|378:161,1,62.9999980773926,2|0,0:0|3:0,0:0:0:0:
494,286,98956,2,0,P|478:259|450:245,1,62.9999980773926,2|0,0:0|3:0,0:0:0:0:
387,298,99241,2,0,P|362:314|324:312,1,62.9999980773926,2|0,0:0|3:0,0:0:0:0:
159,258,99527,6,0,L|148:195,1,62.9999980773926,2|0,0:0|3:0,0:0:0:0:
265,144,99813,2,0,L|254:206,1,62.9999980773926,2|0,0:0|3:0,0:0:0:0:
151,250,100098,2,0,L|140:187,1,62.9999980773926,2|0,0:0|3:0,0:0:0:0:
306,73,100384,2,0,P|270:62|189:111,1,125.999996154785,2|0,0:0|0:0,0:0:0:0:
28,65,100813,6,0,P|55:110|41:184,1,125.999996154785,2|2,3:2|3:2,0:0:0:0:
7,304,101241,2,0,P|37:289|74:296,1,62.9999980773926,2|0,0:0|3:0,0:0:0:0:
149,355,101527,2,0,L|159:281,1,62.9999980773926,2|0,0:0|3:0,0:0:0:0:
239,384,101813,6,0,L|258:237,1,125.999996154785,2|0,0:0|0:0,0:0:0:0:
268,180,102241,1,0,3:0:0:0:
449,172,102384,1,2,0:0:0:0:
449,172,102527,1,2,3:2:0:0:
511,233,102670,1,2,0:0:0:0:
511,233,102813,1,2,3:2:0:0:
386,330,102956,6,0,P|395:289|361:207,1,125.999996154785,2|0,0:0|0:0,0:0:0:0:
254,127,103384,1,2,3:2:0:0:
254,127,103527,2,0,L|262:199,1,62.9999980773926,2|0,0:0|3:0,0:0:0:0:
371,124,103813,2,0,L|379:52,1,62.9999980773926,2|0,0:0|3:0,0:0:0:0:
278,5,104098,1,2,0:0:0:0:
156,81,104241,5,0,3:0:0:0:
71,45,104384,1,8,0:3:0:0:
71,45,104456,1,8,0:3:0:0:
71,45,104527,1,8,3:3:0:0:
6,138,104670,1,8,0:3:0:0:
108,243,104813,5,10,3:3:0:0:
120,240,104956,1,8,0:3:0:0:
201,183,105098,1,6,3:3:0:0:
213,186,105241,1,4,0:3:0:0:
296,274,105384,6,0,P|291:308|265:343,1,62.9999980773926,6|2,3:2|0:0,0:0:0:0:
355,203,105670,2,0,P|375:229|383:273,1,62.9999980773926,2|2,3:2|0:0,0:0:0:0:
213,186,105956,1,2,3:2:0:0:
213,186,106098,2,0,L|201:116,1,62.9999980773926,2|0,0:0|3:0,0:0:0:0:
121,246,106384,1,2,0:0:0:0:
26,154,106527,6,0,P|41:115|0:28,2,125.999996154785,2|2|0,3:2|3:2|3:0,0:0:0:0:
216,19,107384,1,0,3:0:0:0:
273,85,107527,1,2,0:0:0:0:
400,62,107670,6,0,L|409:0,1,62.9999980773926,2|2,3:2|0:0,0:0:0:0:
453,129,107956,1,2,3:2:0:0:
453,129,108098,1,2,0:0:0:0:
406,202,108241,1,2,3:2:0:0:
406,202,108384,2,0,P|434:217|481:217,1,62.9999980773926,2|0,0:0|3:0,0:0:0:0:
498,57,108670,2,0,P|474:46|435:46,1,62.9999980773926,2|0,0:0|3:0,0:0:0:0:
328,153,108956,6,0,L|251:164,1,62.9999980773926,2|0,0:0|3:0,0:0:0:0:
219,85,109241,2,0,L|142:74,1,62.9999980773926,2|0,0:0|3:0,0:0:0:0:
43,164,109527,2,0,P|99:151|151:200,1,125.999996154785,2|0,0:0|0:0,0:0:0:0:
210,340,109956,6,0,L|220:267,1,62.9999980773926,2|0,3:2|0:0,0:0:0:0:
238,168,110241,1,2,3:2:0:0:
238,168,110384,1,2,0:0:0:0:
378,255,110527,2,0,L|310:263,1,62.9999980773926,2|0,3:2|0:0,0:0:0:0:
218,277,110813,1,2,3:2:0:0:
218,277,110956,1,2,0:0:0:0:
367,120,111098,5,6,3:2:0:0:
367,120,111384,1,2,3:2:0:0:
446,313,111670,1,10,3:3:0:0:
319,373,111813,1,10,0:3:0:0:
453,310,111956,6,0,L|461:261,1,40.4999987640381,6|0,3:3|0:0,0:0:0:0:
473,192,112241,6,0,B|423:187|423:187|401:206|401:206|329:199,1,125.999996154785,14|2,3:2|0:0,0:0:0:0:
122,58,112813,5,2,3:2:0:0:
122,58,113098,1,10,3:2:0:0:
48,200,113384,5,10,3:2:0:0:
308,53,113670,1,10,3:2:0:0:
0,110,113956,5,10,3:2:0:0:
355,242,114241,1,8,3:2:0:0:
0,110,114527,6,0,P|14:89|21:50,1,53.9999983520508,10|0,3:2|0:0,0:0:0:0:
130,247,114813,6,0,B|188:264|219:228|204:220|240:183|318:214,1,175.499991966248,14|0,0:0|0:0,0:0:0:0:
350,246,115098,1,2,3:2:0:0:
285,372,115241,1,8,0:3:0:0:
239,114,115527,5,2,3:2:0:0:
475,95,115670,2,0,P|489:157|388:159,1,175.499991966248,6|0,3:2|0:0,0:0:0:0:
380,144,115956,2,0,L|392:48,1,90,0|0,3:0|0:0,0:0:0:0:
216,0,116241,1,10,0:3:0:0:
219,16,116384,1,8,0:3:0:0:
222,32,116527,1,4,3:3:0:0:
28,87,116670,6,0,B|66:47|127:56|146:102|129:103|154:137|197:136,1,198.000006042481,6|0,3:2|3:0,0:0:0:0:
336,29,117098,1,8,0:0:0:0:
336,29,117384,1,0,3:0:0:0:
425,107,117527,1,0,3:0:0:0:
256,200,117670,1,8,0:0:0:0:
349,328,117813,6,0,P|334:245|430:192,1,198.000006042481,0|0,3:0|3:0,0:0:0:0:
512,303,118241,1,12,0:0:0:0:
512,303,118527,1,0,3:0:0:0:
447,198,118670,1,0,3:0:0:0:
418,384,118813,1,10,0:0:0:0:
156,283,118956,6,0,B|236:277|236:277|259:242|259:242|349:235,1,198.000006042481,6|0,3:2|3:0,0:0:0:0:
373,232,119313,1,0,3:0:0:0:
373,232,119384,1,10,0:0:0:0:
350,315,119527,1,0,3:0:0:0:
251,146,119670,5,10,0:0:0:0:
250,291,119813,1,0,3:0:0:0:
89,225,119956,5,10,0:0:0:0:
137,361,120098,1,0,3:0:0:0:
202,78,120241,5,10,0:0:0:0:
156,283,120384,1,0,3:0:0:0:
401,127,120527,5,10,0:0:0:0:
166,154,120670,1,0,3:0:0:0:
166,154,120741,1,0,3:0:0:0:
166,154,120813,6,0,L|177:203,1,49.5000015106202,10|0,0:0|0:0,0:0:0:0:
428,298,120956,2,0,L|436:249,1,49.5000015106202,2|0,0:0|0:0,0:0:0:0:
310,24,121241,6,0,B|263:51|263:51|158:27|158:27|210:68,1,215.999993408203,6|0,3:2|3:0,0:0:0:0:
348,365,121670,6,0,P|323:279|400:198,1,175.499991966248,8|0,0:0|0:0,0:0:0:0:
419,174,121956,2,0,L|309:156,1,99.0000030212403,2|0,3:2|3:0,0:0:0:0:
207,307,122241,2,0,L|317:289,1,99.0000030212403,10|0,0:0|0:0,0:0:0:0:
453,103,122527,6,0,L|475:270,1,148.50000453186,2|0,3:2|0:0,0:0:0:0:
510,310,122813,2,0,B|485:281|485:281|412:293,1,99.0000030212403,10|0,0:0|0:0,0:0:0:0:
278,377,123098,1,2,3:2:0:0:
312,253,123241,2,0,P|294:219|228:191,1,99.0000030212403,0|10,3:0|0:0,0:0:0:0:
18,294,123527,6,0,B|102:288|102:288|132:313|132:313|212:306,1,198.000006042481,2|0,3:2|3:0,0:0:0:0:
85,252,123956,2,0,L|95:153,1,99.0000030212403,10|0,0:0|0:0,0:0:0:0:
206,306,124241,2,0,L|196:206,1,99.0000030212403,2|0,3:2|3:0,0:0:0:0:
19,50,124527,2,0,P|78:106|145:84,1,148.50000453186,10|0,0:0|0:0,0:0:0:0:
179,56,124813,6,0,B|219:61|219:61|235:79|235:79|284:85,1,99.0000030212403,0|0,3:0|0:0,0:0:0:0:
414,44,125098,2,0,P|384:84|395:139,1,99.0000030212403,10|0,0:0|0:0,0:0:0:0:
315,185,125384,1,2,3:2:0:0:
469,252,125527,2,0,L|479:144,1,99.0000030212403,2|8,3:2|0:0,0:0:0:0:
305,177,125813,6,0,L|325:397,1,198.000006042481,2|0,3:2|3:0,0:0:0:0:
469,252,126241,1,8,0:0:0:0:
487,263,126527,2,0,L|497:155,1,99.0000030212403,2|0,3:2|3:0,0:0:0:0:
335,103,126813,2,0,L|345:211,1,99.0000030212403,10|0,0:0|0:0,0:0:0:0:
447,35,127098,6,0,B|373:51|391:-9|304:13,1,148.50000453186,2|0,3:2|0:0,0:0:0:0:
267,43,127384,2,0,B|229:37|229:37|215:17|215:17|167:10,1,99.0000030212403,10|0,0:0|0:0,0:0:0:0:
85,173,127670,1,2,3:2:0:0:
2,134,127813,2,0,P|28:97|89:81,1,99.0000030212403,0|10,3:0|0:0,0:0:0:0:
242,210,128098,6,0,B|168:221|168:221|144:258|144:258|53:272,1,198.000006042481,2|0,3:2|3:0,0:0:0:0:
222,384,128527,2,0,P|208:338|242:288,1,99.0000030212403,10|0,0:0|0:0,0:0:0:0:
418,211,128813,2,0,P|380:216|329:168,1,99.0000030212403,2|0,3:2|3:0,0:0:0:0:
500,40,129098,2,0,B|505:99|505:99|483:126|483:126|488:189,1,148.50000453186,10|0,0:0|0:0,0:0:0:0:
478,262,129384,6,0,L|467:148,1,99.0000030212403,2|0,3:2|0:0,0:0:0:0:
317,315,129670,2,0,P|364:310|401:342,1,99.0000030212403,10|0,0:0|0:0,0:0:0:0:
418,211,129956,1,2,3:2:0:0:
335,134,130098,1,0,3:0:0:0:
240,281,130241,1,10,0:0:0:0:
433,205,130384,6,0,P|380:139|418:1,1,198.000006042481,6|0,3:2|3:0,0:0:0:0:
244,99,130813,1,8,0:0:0:0:
261,87,131098,1,2,3:2:0:0:
163,48,131241,1,2,3:2:0:0:
85,172,131384,1,10,0:0:0:0:
226,274,131527,6,0,L|216:172,1,99.0000030212403,2|0,0:0|3:0,0:0:0:0:
9,138,131813,2,0,P|0:183|29:231,1,99.0000030212403,2|8,0:0|0:0,0:0:0:0:
216,175,132098,2,0,L|206:73,1,99.0000030212403,2|0,0:0|3:0,0:0:0:0:
9,138,132384,1,2,3:2:0:0:
81,62,132527,1,8,0:0:0:0:
216,175,132670,6,0,B|297:168|297:168|322:134|322:134|438:127,1,198.000006042481,2|0,3:2|3:0,0:0:0:0:
492,272,133098,1,8,0:0:0:0:
504,261,133384,1,2,3:2:0:0:
413,358,133527,1,2,3:2:0:0:
298,309,133670,1,10,0:0:0:0:
504,261,133813,6,0,L|494:372,1,99.0000030212403,2|0,0:0|3:0,0:0:0:0:
340,146,134098,2,0,L|348:244,1,99.0000030212403,2|8,0:0|0:0,0:0:0:0:
508,180,134384,2,0,P|515:136|463:66,1,99.0000030212403,2|0,0:0|3:0,0:0:0:0:
330,49,134670,1,2,3:2:0:0:
426,160,134813,1,8,0:0:0:0:
512,0,134956,6,0,B|434:8|434:8|408:41|408:41|291:54,1,198.000006042481,6|0,3:2|3:0,0:0:0:0:
99,0,135384,1,8,0:0:0:0:
175,184,135670,5,2,3:2:0:0:
94,232,135813,1,0,3:0:0:0:
149,70,135956,2,0,P|198:66|249:97,1,99.0000030212403,8|0,0:0|0:0,0:0:0:0:
328,325,136241,6,0,L|348:157,1,148.50000453186,2|0,3:2|0:0,0:0:0:0:
401,129,136527,2,0,P|371:151|299:140,1,99.0000030212403,10|0,0:0|0:0,0:0:0:0:
340,40,136813,1,2,3:2:0:0:
340,40,136956,1,0,3:0:0:0:
492,172,137098,2,0,L|478:69,1,99.0000030212403,8|0,0:0|0:0,0:0:0:0:
311,148,137384,5,2,3:2:0:0:
311,148,137527,1,0,0:0:0:0:
453,276,137670,1,10,0:0:0:0:
492,172,137813,1,0,0:0:0:0:
263,227,137956,2,0,P|295:268|305:323,1,99.0000030212403,2|0,3:2|3:0,0:0:0:0:
424,115,138241,2,0,L|413:3,1,99.0000030212403,8|0,0:0|0:0,0:0:0:0:
182,70,138527,5,6,3:2:0:0:
311,148,138670,1,10,3:2:0:0:
319,0,138956,5,2,3:2:0:0:
319,0,139027,1,0,3:0:0:0:
319,0,139098,1,8,3:3:0:0:
390,107,139241,1,2,3:2:0:0:
182,70,139384,1,8,0:0:0:0:
427,16,139527,6,0,L|411:228,1,198.000006042481,6|0,3:2|3:0,0:0:0:0:
221,352,139956,1,10,0:0:0:0:
199,331,140241,2,0,L|311:319,1,99.0000030212403,2|0,3:2|3:0,0:0:0:0:
124,263,140527,2,0,P|95:313|109:370,1,99.0000030212403,10|0,0:0|0:0,0:0:0:0:
315,239,140813,6,0,L|300:126,1,99.0000030212403,2|0,3:2|0:0,0:0:0:0:
112,39,141098,2,0,L|97:152,1,99.0000030212403,10|0,0:0|0:0,0:0:0:0:
262,55,141384,1,2,3:2:0:0:
302,141,141527,2,0,P|346:162|402:154,1,99.0000030212403,0|10,3:0|0:0,0:0:0:0:
512,377,141813,6,0,P|444:310|337:329,1,198.000006042481,2|0,3:2|3:0,0:0:0:0:
505,207,142241,2,0,P|484:250|496:310,1,99.0000030212403,10|0,0:0|0:0,0:0:0:0:
302,141,142527,2,0,B|343:147|343:147|358:166|358:166|408:173,1,99.0000030212403,2|0,3:2|3:0,0:0:0:0:
498,0,142813,2,0,P|471:38|342:14,1,148.50000453186,10|0,0:0|0:0,0:0:0:0:
307,0,143098,6,0,B|351:20|351:20|340:72,1,99.0000030212403,0|0,3:0|0:0,0:0:0:0:
223,225,143384,2,0,L|212:117,1,99.0000030212403,10|0,0:0|0:0,0:0:0:0:
105,153,143670,1,2,3:2:0:0:
104,0,143813,2,0,P|92:45|53:76,1,99.0000030212403,0|10,3:0|0:0,0:0:0:0:
0,269,144098,6,0,P|82:252|176:330,1,198.000006042481,2|0,3:2|3:0,0:0:0:0:
302,141,144527,1,8,0:0:0:0:
282,128,144813,2,0,L|299:227,1,99.0000030212403,2|0,3:2|3:0,0:0:0:0:
458,202,145098,2,0,P|478:159|459:92,1,99.0000030212403,10|0,0:0|0:0,0:0:0:0:
255,21,145384,6,0,B|297:30|297:30|310:50|310:50|364:59,1,99.0000030212403,2|0,3:2|0:0,0:0:0:0:
512,251,145670,2,0,L|359:262,1,148.50000453186,10|0,0:0|0:0,0:0:0:0:
325,267,145956,1,2,3:2:0:0:
211,185,146098,1,0,3:0:0:0:
97,327,146241,1,10,0:0:0:0:
234,382,146384,6,0,L|209:166,1,198.000006042481,2|0,3:2|3:0,0:0:0:0:
82,342,146813,2,0,L|97:207,1,99.0000030212403,10|0,0:0|0:0,0:0:0:0:
286,145,147098,2,0,P|294:191|270:242,1,99.0000030212403,2|0,3:2|3:0,0:0:0:0:
45,122,147384,2,0,B|18:92|18:92|142:117,1,148.50000453186,10|0,0:0|0:0,0:0:0:0:
206,103,147670,6,0,B|170:105|170:105|159:123|159:123|103:128,1,99.0000030212403,0|0,3:0|0:0,0:0:0:0:
37,330,147956,2,0,P|16:300|24:233,1,99.0000030212403,10|0,0:0|0:0,0:0:0:0:
213,181,148241,1,2,3:2:0:0:
296,274,148384,2,0,P|349:274|392:308,1,99.0000030212403,0|10,3:0|0:0,0:0:0:0:
479,92,148670,6,0,P|384:109|312:46,1,198.000006042481,6|0,3:2|3:0,0:0:0:0:
136,229,149098,1,8,0:0:0:0:
220,94,149241,1,2,0:0:0:0:
314,139,149384,2,0,P|327:93|306:39,1,99.0000030212403,2|0,3:2|3:0,0:0:0:0:
98,23,149670,1,10,0:0:0:0:
41,122,149813,6,0,L|146:107,1,99.0000030212403,2|0,0:0|3:0,0:0:0:0:
324,253,150098,2,0,L|219:238,1,99.0000030212403,2|8,0:0|0:0,0:0:0:0:
46,384,150384,2,0,P|19:339|46:260,1,99.0000030212403,2|0,0:0|3:0,0:0:0:0:
136,229,150670,1,2,3:2:0:0:
209,348,150813,1,8,0:0:0:0:
368,319,150956,6,0,L|389:112,1,198.000006042481,2|0,3:2|3:0,0:0:0:0:
453,298,151384,1,8,0:0:0:0:
465,278,151670,1,2,3:2:0:0:
277,289,151813,2,0,P|270:336|293:380,1,99.0000030212403,2|10,3:2|0:0,0:0:0:0:
343,189,152098,6,0,P|297:168|228:186,1,99.0000030212403,2|0,0:0|3:0,0:0:0:0:
86,299,152384,2,0,L|68:171,1,99.0000030212403,2|8,0:0|0:0,0:0:0:0:
202,33,152670,2,0,L|184:161,1,99.0000030212403,2|0,0:0|3:0,0:0:0:0:
72,200,152956,1,2,3:2:0:0:
72,200,153098,1,8,0:0:0:0:
0,0,153241,6,0,B|77:8|77:8|108:46|108:46|207:56,1,198.000006042481,6|0,3:2|3:0,0:0:0:0:
382,0,153670,1,8,0:0:0:0:
305,146,153956,5,2,3:2:0:0:
283,52,154098,1,0,3:0:0:0:
474,105,154241,2,0,P|450:143|454:208,1,99.0000030212403,8|0,0:0|0:0,0:0:0:0:
288,319,154527,6,0,L|276:204,1,99.0000030212403,2|0,3:2|0:0,0:0:0:0:
472,330,154813,2,0,P|420:328|386:379,1,99.0000030212403,8|0,0:0|0:0,0:0:0:0:
166,384,155098,2,0,L|178:269,1,99.0000030212403,2|0,3:2|3:0,0:0:0:0:
186,136,155384,1,8,0:0:0:0:
97,83,155527,1,0,0:0:0:0:
0,268,155670,6,0,P|44:235|104:247,1,99.0000030212403,2|0,3:2|0:0,0:0:0:0:
288,349,155956,2,0,L|276:233,1,99.0000030212403,10|0,0:0|0:0,0:0:0:0:
427,158,156241,1,2,3:2:0:0:
402,246,156384,1,0,3:0:0:0:
260,101,156527,1,8,0:0:0:0:
277,250,156670,1,10,0:0:0:0:
277,250,156741,1,8,0:0:0:0:
277,250,156813,5,10,3:2:0:0:
162,277,156956,1,8,0:0:0:0:
400,132,157098,1,8,3:2:0:0:
260,101,157241,1,10,0:0:0:0:
379,328,157384,5,8,3:2:0:0:
484,213,157527,1,10,0:3:0:0:
489,197,157670,1,4,3:3:0:0:
494,181,157813,1,2,0:0:0:0:
387,214,157956,6,0,L|287:225,1,90,6|0,3:2|3:0,0:0:0:0:
244,300,158527,6,0,L|179:292,1,63,2|0,3:2|0:0,0:0:0:0:
168,275,159098,6,0,P|170:229|149:177,1,90,2|0,3:2|3:0,0:0:0:0:
211,125,159670,6,0,P|207:99|220:65,1,63,2|0,3:2|0:0,0:0:0:0:
248,46,160241,5,6,3:2:0:0:
324,57,160527,1,0,3:0:0:0:
400,68,160813,1,2,3:2:0:0:
476,79,161098,1,0,3:0:0:0:
304,170,161384,5,6,3:2:0:0:
436,231,161670,1,0,3:0:0:0:
436,231,161813,1,8,0:3:0:0:
456,155,161956,1,6,3:3:0:0:
456,155,162098,1,4,0:3:0:0:
397,98,162241,2,0,P|382:117|378:151,1,45,0|0,3:0|0:0,0:0:0:0:
245,251,162527,6,0,L|258:344,1,90,6|0,3:2|3:0,0:0:0:0:
355,374,163098,6,0,L|364:304,1,63,2|0,3:2|0:0,0:0:0:0:
359,285,163670,6,0,P|394:268|455:291,1,90,6|0,3:2|3:0,0:0:0:0:
509,195,164241,6,0,P|486:197|451:180,1,63,2|0,3:2|0:0,0:0:0:0:
436,164,164813,6,0,L|446:67,1,90,6|0,3:2|3:0,0:0:0:0:
297,3,165384,2,0,L|307:100,1,90,10|0,0:0|3:0,0:0:0:0:
268,213,165956,5,6,3:2:0:0:
133,142,166241,1,8,3:3:0:0:
133,142,166384,1,8,0:3:0:0:
50,172,166527,1,4,3:3:0:0:
50,172,166670,1,10,0:3:0:0:
34,258,166813,2,0,L|46:318,1,45,4|0,3:3|0:0,0:0:0:0:
187,379,167098,6,0,P|220:348|276:352,1,90,6|0,3:2|3:0,0:0:0:0:
373,376,167670,6,0,P|344:355|337:324,1,63,2|0,3:2|0:0,0:0:0:0:
339,306,168241,6,0,L|352:211,1,90,6|0,3:2|3:0,0:0:0:0:
422,157,168670,1,4,0:3:0:0:
422,157,168741,1,4,0:3:0:0:
422,157,168813,1,10,3:3:0:0:
494,209,168956,1,8,0:3:0:0:
412,245,169098,1,0,3:0:0:0:
340,193,169241,1,4,0:3:0:0:
241,227,169384,6,0,P|224:269|231:317,1,90,6|0,3:2|3:0,0:0:0:0:
105,384,169956,2,0,P|113:341|90:294,1,90,0|0,3:0|3:0,0:0:0:0:
0,266,170527,5,14,3:2:0:0:
69,166,170813,1,0,3:0:0:0:
69,166,170956,1,10,0:3:0:0:
77,89,171098,1,0,3:0:0:0:
77,89,171241,1,10,0:3:0:0:
17,42,171384,2,0,P|2:64|1:90,1,45,2|0,3:2|0:0,0:0:0:0:
147,133,171670,6,0,L|249:146,1,90,6|0,3:2|3:0,0:0:0:0:
297,85,172241,6,0,L|364:76,1,63,2|0,3:2|0:0,0:0:0:0:
375,82,172813,6,0,P|399:113|399:166,1,90,6|0,3:2|3:0,0:0:0:0:
473,209,173384,6,0,P|460:238|465:273,1,63,2|0,3:2|0:0,0:0:0:0:
478,291,173956,6,0,L|431:298,1,45,6|0,3:2|0:0,0:0:0:0:
357,256,174241,1,0,3:0:0:0:
357,256,174384,1,0,3:0:0:0:
274,353,174527,1,10,0:0:0:0:
478,291,174670,1,0,3:0:0:0:
204,41,174956,5,8,0:0:0:0:
297,91,175098,1,2,3:2:0:0:
297,91,175384,5,8,0:3:0:0:
188,198,175527,1,8,0:0:0:0:
357,256,175670,1,8,0:0:0:0:
429,148,175813,1,10,0:3:0:0:
426,134,175956,1,4,0:3:0:0:
423,120,176098,1,0,3:0:0:0:
506,235,176241,6,0,L|491:329,1,90,6|2,3:2|0:0,0:0:0:0:
410,371,176813,6,0,P|388:358|366:356,1,45,14|0,0:0|0:0,0:0:0:0:
335,369,177241,1,2,3:2:0:0:
258,326,177384,5,2,0:0:0:0:
258,326,177527,2,0,L|253:279,1,45,2|0,0:0|3:0,0:0:0:0:
83,251,177813,1,2,0:0:0:0:
137,191,177956,6,0,B|185:201,1,45,14|0,0:0|0:0,0:0:0:0:
207,206,178384,1,2,0:0:0:0:
282,158,178527,6,0,L|291:97,1,45,2|0,3:2|0:0,0:0:0:0:
375,209,178813,2,0,L|366:148,1,45,2|0,0:0|0:0,0:0:0:0:
439,69,179098,2,0,P|400:80|353:44,1,90,14|0,0:0|0:0,0:0:0:0:
247,4,179527,1,2,3:2:0:0:
192,67,179670,5,2,0:0:0:0:
192,67,179813,2,0,L|139:60,1,45,2|0,0:0|3:0,0:0:0:0:
33,13,180098,2,0,P|52:33|55:65,1,45,2|14,0:0|0:0,0:0:0:0:
11,202,180384,2,0,B|50:197|50:197|61:182|61:182|111:176,1,90,2|0,0:0|0:0,0:0:0:0:
200,238,180813,6,0,L|247:246,1,45,2|0,3:2|0:0,0:0:0:0:
321,316,181098,2,0,L|274:324,1,45,2|0,0:0|0:0,0:0:0:0:
138,366,181384,6,0,P|131:348|133:318,1,45,14|0,0:0|0:0,0:0:0:0:
142,301,181813,1,2,3:2:0:0:
244,245,181956,5,2,0:0:0:0:
244,245,182098,2,0,L|250:192,1,45,2|0,0:0|3:0,0:0:0:0:
178,140,182384,2,0,L|172:87,1,45,2|14,0:0|0:0,0:0:0:0:
263,9,182670,2,0,P|309:1|356:29,1,90,2|2,0:0|3:2,0:0:0:0:
393,98,183098,6,0,L|382:194,1,90,6|0,3:2|3:0,0:0:0:0:
500,266,183527,1,2,0:0:0:0:
500,266,183670,2,0,L|493:212,1,45,10|0,0:0|0:0,0:0:0:0:
404,286,183956,1,10,0:0:0:0:
404,286,184098,6,0,P|385:297|355:296,1,45,2|2,3:2|0:0,0:0:0:0:
260,227,184384,1,8,0:0:0:0:
260,227,184670,1,0,3:0:0:0:
200,286,184813,2,0,L|206:315,2,22.5,8|0|0,0:0|0:0|3:0,0:0:0:0:
266,221,185098,1,8,0:3:0:0:
323,288,185241,1,2,3:2:0:0:
411,206,185384,6,0,P|406:177|429:119,1,90,6|2,3:2|0:0,0:0:0:0:
507,54,185956,6,0,P|486:58|460:47,1,45,14|0,0:0|0:0,0:0:0:0:
445,29,186384,1,2,3:2:0:0:
352,81,186527,5,2,0:0:0:0:
352,81,186670,2,0,L|304:75,1,45,2|0,0:0|3:0,0:0:0:0:
252,12,186956,1,2,0:0:0:0:
252,12,187098,2,0,B|208:15|208:15|193:33|193:33|138:38,1,112.5,14|0,0:0|0:0,0:0:0:0:
125,39,187527,1,2,0:0:0:0:
72,104,187670,6,0,P|89:127|92:154,1,45,2|0,3:2|0:0,0:0:0:0:
132,226,187956,2,0,P|152:208|182:207,1,45,2|0,3:2|0:0,0:0:0:0:
258,165,188241,2,0,L|247:265,1,90,14|0,0:0|0:0,0:0:0:0:
356,334,188670,6,0,L|345:234,1,90,2|2,3:2|0:0,0:0:0:0:
414,144,189098,1,0,3:0:0:0:
414,144,189241,2,0,L|408:194,1,45,2|14,0:0|0:0,0:0:0:0:
356,334,189527,2,0,P|331:303|269:303,1,90,2|0,0:0|0:0,0:0:0:0:
194,340,189956,6,0,P|186:363|188:388,1,45,2|0,3:2|0:0,0:0:0:0:
98,352,190241,2,0,P|99:325|92:304,1,45,2|0,0:0|0:0,0:0:0:0:
9,223,190527,6,0,B|58:216,1,45,14|0,0:0|0:0,0:0:0:0:
91,210,190956,1,0,3:0:0:0:
228,121,191098,5,2,0:0:0:0:
228,121,191241,2,0,L|219:175,1,45,2|0,0:0|3:0,0:0:0:0:
300,250,191527,1,2,0:0:0:0:
300,250,191670,2,0,P|331:219|391:219,1,90,14|0,0:0|0:0,0:0:0:0:
469,297,192098,1,2,3:2:0:0:
498,114,192241,6,0,L|486:199,1,67.5,14|0,0:0|0:0,0:0:0:0:
488,180,192527,1,2,3:2:0:0:
379,384,192813,6,0,L|364:280,1,94.499997116089,14|0,0:0|0:0,0:0:0:0:
366,290,193098,1,2,3:2:0:0:
208,13,193384,6,0,L|190:140,1,121.499996292114,14|0,0:0|0:0,0:0:0:0:
191,133,193670,1,2,3:2:0:0:
13,304,193956,5,10,0:0:0:0:
9,286,194098,1,8,0:3:0:0:
5,268,194241,1,4,0:3:0:0:
194,363,194384,1,6,3:2:0:0:
126,320,203527,6,0,L|112:202,1,94.499997116089,6|0,0:0|0:0,0:0:0:0:
103,128,204241,1,2,3:2:0:0:
117,131,205384,1,2,3:2:0:0:
367,23,206527,5,2,3:2:0:0:
353,26,207670,1,2,3:2:0:0:
353,26,208241,6,0,P|343:49|346:79,1,45,2|0,3:2|0:0,0:0:0:0:
245,81,208813,6,0,P|251:108|270:130,1,53.9999983520508,2|0,3:2|0:0,0:0:0:0:
192,202,209384,6,0,P|222:224|268:227,1,72,2|0,3:2|0:0,0:0:0:0:
267,342,209956,6,0,P|312:328|354:279,1,90,2|0,3:2|0:0,0:0:0:0:
303,78,210527,6,0,B|301:41|249:25|249:25|241:79|273:93,1,157.500001502037,6|0,3:2|0:0,0:0:0:0:
431,117,210813,6,0,B|464:104|464:50|464:50|411:59|407:93,1,157.500001502037,6|0,3:2|0:0,0:0:0:0:
434,250,211098,6,0,B|456:278|508:261|508:261|482:213|448:220,1,157.500001502037,6|0,3:2|0:0,0:0:0:0:
309,293,211384,6,0,B|289:322|321:367|321:367|359:328|341:297,1,157.500001502037,6|0,3:2|0:0,0:0:0:0:
226,187,211670,6,0,P|196:186|171:197,1,54,0|0,0:0|0:0,0:0:0:0:
73,216,212670,6,0,B|122:178|188:213|187:275|171:269|175:316|234:342,1,233.999989288331,6|0,3:2|3:0,0:0:0:0:
429,128,213098,6,0,B|456:96|456:96|373:131|373:131|313:117,1,175.499991966248,8|0,0:0|0:0,0:0:0:0:
263,79,213384,2,0,P|287:123|275:171,1,99.0000030212403,2|0,3:2|3:0,0:0:0:0:
481,297,213670,2,0,L|497:190,1,99.0000030212403,10|0,0:0|0:0,0:0:0:0:
215,261,213956,6,0,P|286:257|327:316,1,148.50000453186,2|0,3:2|0:0,0:0:0:0:
332,384,214241,2,0,P|338:348|388:306,1,99.0000030212403,10|0,0:0|0:0,0:0:0:0:
205,162,214527,2,0,L|216:268,1,99.0000030212403,2|0,3:2|3:0,0:0:0:0:
298,119,214813,1,10,0:0:0:0:
119,65,214956,6,0,B|202:76|202:76|222:108|222:108|297:118,1,198.000006042481,2|0,3:2|3:0,0:0:0:0:
107,249,215384,2,0,P|75:211|79:140,1,99.0000030212403,10|0,0:0|0:0,0:0:0:0:
311,198,215670,2,0,L|295:309,1,99.0000030212403,2|0,3:2|3:0,0:0:0:0:
31,319,215956,2,0,P|94:299|156:361,1,148.50000453186,10|0,0:0|0:0,0:0:0:0:
154,384,216241,6,0,B|196:379|196:379|206:361|206:361|260:354,1,99.0000030212403,0|0,3:0|0:0,0:0:0:0:
399,215,216527,2,0,P|400:172|354:118,1,99.0000030212403,10|0,0:0|0:0,0:0:0:0:
223,231,216813,1,2,3:2:0:0:
149,156,216956,2,0,L|37:141,1,99.0000030212403,2|8,3:2|0:0,0:0:0:0:
248,23,217241,6,0,P|297:81|421:55,1,198.000006042481,2|0,3:2|3:0,0:0:0:0:
477,265,217670,1,8,0:0:0:0:
496,246,217956,2,0,L|391:258,1,99.0000030212403,2|0,3:2|3:0,0:0:0:0:
247,156,218241,2,0,P|290:184|303:254,1,99.0000030212403,10|0,0:0|0:0,0:0:0:0:
489,102,218527,6,0,B|427:91|427:91|412:67|412:67|325:53,1,148.50000453186,2|0,3:2|0:0,0:0:0:0:
315,27,218813,2,0,P|281:59|222:58,1,99.0000030212403,10|0,0:0|0:0,0:0:0:0:
336,184,219098,1,2,3:2:0:0:
236,254,219241,2,0,L|247:148,1,99.0000030212403,2|8,3:2|0:0,0:0:0:0:
489,102,219527,6,0,L|509:300,1,198.000006042481,2|0,3:2|3:0,0:0:0:0:
244,343,219956,2,0,P|292:329|324:281,1,99.0000030212403,10|0,0:0|0:0,0:0:0:0:
102,145,220241,2,0,B|138:89|208:113|208:113|226:148|266:157,1,175.499991966248,2|0,3:2|0:0,0:0:0:0:
298,146,220527,1,8,0:0:0:0:
276,28,220670,1,0,0:0:0:0:
172,192,220813,5,2,3:2:0:0:
15,147,220956,2,0,P|24:192|83:231,1,99.0000030212403,2|8,0:0|0:0,0:0:0:0:
285,244,221241,2,0,L|298:139,1,99.0000030212403,2|0,0:0|3:0,0:0:0:0:
138,283,221527,2,0,L|150:381,1,99.0000030212403,2|8,3:2|0:0,0:0:0:0:
297,145,221813,6,0,B|373:135|373:135|412:172|412:172|486:163,1,198.000006042481,6|0,3:2|3:0,0:0:0:0:
336,319,222241,1,8,0:0:0:0:
285,244,222384,1,2,0:0:0:0:
398,187,222527,1,2,3:2:0:0:
495,295,222670,2,0,P|469:334|474:402,1,99.0000030212403,2|8,3:2|0:0,0:0:0:0:
285,244,222956,6,0,L|272:136,1,99.0000030212403,2|0,0:0|3:0,0:0:0:0:
146,286,223241,2,0,L|133:394,1,99.0000030212403,2|8,0:0|0:0,0:0:0:0:
0,213,223527,2,0,P|46:224|99:186,1,99.0000030212403,2|0,0:0|3:0,0:0:0:0:
196,124,223813,1,2,3:2:0:0:
146,286,223956,1,10,0:0:0:0:
25,61,224098,6,0,B|100:74|100:74|117:112|117:112|204:126,1,198.000006042481,0|0,3:0|3:0,0:0:0:0:
389,37,224527,1,8,0:0:0:0:
369,14,224813,2,0,L|383:119,1,99.0000030212403,2|2,3:2|3:2,0:0:0:0:
501,197,225098,1,10,0:0:0:0:
329,278,225241,6,0,P|316:239|351:175,1,99.0000030212403,2|0,0:0|3:0,0:0:0:0:
512,311,225527,2,0,B|470:316|470:316|460:333|460:333|410:340,1,99.0000030212403,2|8,0:0|0:0,0:0:0:0:
512,98,225813,2,0,L|499:214,1,99.0000030212403,2|0,0:0|3:0,0:0:0:0:
329,278,226098,1,2,3:2:0:0:
238,124,226241,1,8,0:0:0:0:
500,196,226384,6,0,B|425:184|425:184|405:149|405:149|311:133,1,198.000006042481,6|0,3:2|3:0,0:0:0:0:
125,316,226813,1,8,0:0:0:0:
274,208,227098,5,2,3:2:0:0:
233,314,227241,1,0,3:0:0:0:
60,223,227384,2,0,P|81:183|83:119,1,99.0000030212403,8|0,0:0|0:0,0:0:0:0:
274,208,227670,6,0,B|235:203|235:203|222:185|222:185|162:177,1,99.0000030212403,2|0,3:2|0:0,0:0:0:0:
342,59,227956,2,0,P|334:106|369:162,1,99.0000030212403,8|0,0:0|0:0,0:0:0:0:
505,299,228241,2,0,B|466:304|466:304|453:322|453:322|393:330,1,99.0000030212403,2|0,3:2|3:0,0:0:0:0:
274,208,228527,1,8,0:0:0:0:
404,244,228670,1,2,0:0:0:0:
238,371,228813,6,0,P|240:323|203:261,1,99.0000030212403,2|0,3:2|0:0,0:0:0:0:
505,299,229098,2,0,P|465:331|455:393,1,99.0000030212403,14|0,0:0|0:0,0:0:0:0:
379,158,229384,1,2,3:2:0:0:
404,244,229527,1,0,3:0:0:0:
512,83,229670,1,14,0:0:0:0:
489,176,229813,1,10,0:0:0:0:
489,176,229884,1,8,0:0:0:0:
489,176,229956,5,6,3:3:0:0:
329,56,230098,1,8,0:0:0:0:
284,232,230241,1,10,0:0:0:0:
97,113,230384,1,10,0:0:0:0:
329,56,230527,5,8,3:2:0:0:
170,228,230670,1,6,0:3:0:0:
196,11,230813,1,6,0:3:0:0:
416,111,230956,6,0,B|429:192|429:192|406:227|406:227|420:312,1,198.000006042481,6|0,3:2|3:0,0:0:0:0:
191,363,231384,1,10,0:0:0:0:
174,251,231527,1,2,3:2:0:0:
348,174,231670,2,0,P|300:171|259:206,1,90,0|2,0:0|3:2,0:0:0:0:
76,70,231956,2,0,P|128:75|166:113,1,90,10|0,0:0|3:0,0:0:0:0:
17,220,232241,6,0,L|2:113,1,90,2|0,0:0|3:0,0:0:0:0:
174,251,232527,2,0,L|161:340,1,90,10|0,0:0|3:0,0:0:0:0:
187,175,232813,1,2,0:0:0:0:
0,322,232956,2,0,P|38:313|80:352,1,90,2|8,3:2|0:0,0:0:0:0:
292,384,233241,6,0,L|266:200,1,180,2|0,3:2|3:0,0:0:0:0:
470,116,233670,1,10,0:0:0:0:
388,188,233813,1,2,3:2:0:0:
239,103,233956,2,0,P|288:101|327:127,1,90,0|2,0:0|3:2,0:0:0:0:
507,253,234241,2,0,P|455:255|422:295,1,90,10|0,0:0|3:0,0:0:0:0:
221,231,234527,6,0,B|263:223|263:223|271:208|271:208|315:201,1,90,2|0,0:0|3:0,0:0:0:0:
99,311,234813,2,0,L|83:214,1,90,10|0,0:0|3:0,0:0:0:0:
221,231,235098,1,10,0:0:0:0:
85,305,235241,6,0,L|71:224,1,67.5,10|0,0:0|0:0,0:0:0:0:
0,116,235527,6,0,B|70:142|106:101|81:92|125:40|203:66,1,215.999993408203,6|0,3:2|3:0,0:0:0:0:
400,176,235956,1,10,0:0:0:0:
324,101,236098,1,2,3:2:0:0:
206,249,236241,2,0,P|231:287|224:340,1,90,0|2,0:0|3:2,0:0:0:0:
411,265,236527,2,0,L|399:173,1,90,10|0,0:0|3:0,0:0:0:0:
159,88,236813,6,0,B|198:94|198:94|208:111|208:111|254:120,1,90,2|0,0:0|3:0,0:0:0:0:
434,0,237098,2,0,B|394:6|394:6|384:23|384:23|338:32,1,90,10|0,0:0|3:0,0:0:0:0:
400,176,237384,1,2,0:0:0:0:
498,193,237527,2,0,P|499:154|474:109,1,90,2|8,3:2|0:0,0:0:0:0:
307,286,237813,1,6,3:2:0:0:
