osu file format v14

[General]
AudioFilename: audio.mp3
AudioLeadIn: 0
PreviewTime: 195231
Countdown: 0
SampleSet: Soft
StackLeniency: 0.4
Mode: 0
LetterboxInBreaks: 0
WidescreenStoryboard: 1

[Editor]
Bookmarks: 7820,16392,24963,42106,59251,93536,110678,127821,144964,162107,179250,187821,196393,213535,230678,239250
DistanceSpacing: 0.5
BeatDivisor: 3
GridSize: 32
TimelineZoom: 3

[Metadata]
Title:Follow The Light
TitleUnicode:Follow The Light
Artist:Dirty Loops & Cory Wong
ArtistUnicode:Dirty Loops & Cory Wong
Creator:Mir
Version:Hard
Source:
Tags:funk jazz soul rnb pop english vocal Aron MellergÄrd Henrik Linder Jonah Nilsson turbo azer lasse
BeatmapID:3246755
BeatmapSetID:1582334

[Difficulty]
HPDrainRate:5
CircleSize:3.5
OverallDifficulty:6
ApproachRate:8
SliderMultiplier:1.4
SliderTickRate:1

[Events]
//Background and Video events
0,0,"ftl.jpg",0,0
//Break Periods
2,162296,174203
//Storyboard Layer 0 (Background)
//Storyboard Layer 1 (Fail)
//Storyboard Layer 2 (Pass)
//Storyboard Layer 3 (Foreground)
//Storyboard Layer 4 (Overlay)
//Storyboard Sound Samples

[TimingPoints]
-761,535.714285714286,4,2,1,70,1,0
7810,-133.333333333333,4,2,1,30,0,0
11024,-133.333333333333,4,2,1,50,0,0
13569,-66.6666666666667,4,2,1,50,0,0
16381,-50,4,2,1,50,0,0
16917,-66.6666666666667,4,2,1,50,0,0
19997,-50,4,2,1,50,0,0
21203,-66.6666666666667,4,2,1,50,0,0
24953,-50,4,2,1,50,0,0
25489,-66.6666666666667,4,2,1,50,0,0
28569,-50,4,2,1,50,0,0
29774,-66.6666666666667,4,2,1,50,0,0
33524,-50,4,2,1,50,0,0
34060,-66.6666666666667,4,2,1,50,0,0
37140,-50,4,2,1,50,0,0
38346,-66.6666666666667,4,2,1,50,0,0
40756,-66.6666666666667,4,2,1,60,0,0
42096,-50,4,2,1,60,0,0
42497,-66.6666666666667,4,2,1,60,0,0
43636,-66.6666666666667,4,2,1,5,0,0
43703,-66.6666666666667,4,2,1,60,0,0
52207,-66.6666666666667,4,2,1,5,0,0
52274,-66.6666666666667,4,2,1,60,0,0
58703,-100,4,2,1,60,0,0
59239,-50,4,2,1,75,0,1
59506,-50,4,2,3,75,0,1
61114,-50,4,2,4,75,0,1
61917,-50,4,2,5,75,0,1
62587,-50,4,2,1,75,0,1
62855,-50,4,2,5,75,0,1
62989,-50,4,2,1,75,0,1
63256,-50,4,2,6,75,0,1
64060,-50,4,2,7,75,0,1
64194,-50,4,2,1,75,0,1
65399,-50,4,2,7,75,0,1
65801,-50,4,2,8,75,0,1
66604,-50,4,2,1,75,0,1
67140,-50,4,2,9,75,0,1
67676,-50,4,2,1,75,0,1
68077,-50,4,2,3,75,0,1
69685,-50,4,2,4,75,0,1
70489,-50,4,2,5,75,0,1
70622,-50,4,2,1,75,0,1
71828,-50,4,2,10,75,0,1
72230,-50,4,2,11,75,0,1
72631,-50,4,2,12,75,0,1
73033,-50,4,2,1,75,0,1
73970,-50,4,2,13,75,0,1
74372,-50,4,2,14,75,0,1
74774,-50,4,2,15,75,0,1
75176,-50,4,2,1,75,0,1
76381,-50,4,2,1,75,0,0
76649,-50,4,2,3,75,0,1
78256,-50,4,2,4,75,0,1
79060,-50,4,2,5,75,0,1
79194,-50,4,2,1,75,0,1
79997,-50,4,2,5,75,0,1
80131,-50,4,2,1,75,0,1
80399,-50,4,2,6,75,0,1
81203,-50,4,2,7,75,0,1
81604,-50,4,2,1,75,0,1
82542,-50,4,2,7,75,0,1
82943,-50,4,2,8,75,0,1
83614,-50,4,2,1,75,0,1
85221,-50,4,2,3,75,0,1
86828,-50,4,2,4,75,0,1
87631,-50,4,2,5,75,0,1
87765,-50,4,2,1,75,0,1
88569,-50,4,2,5,75,0,1
88971,-50,4,2,6,75,0,1
89774,-50,4,2,7,75,0,1
90176,-50,4,2,1,75,0,1
91113,-50,4,2,16,75,0,1
91515,-50,4,2,17,75,0,1
91917,-50,4,2,18,75,0,1
92051,-50,4,2,1,75,0,1
93524,-50,4,2,1,70,0,0
95533,-50,4,2,1,100,0,0
96069,-66.6666666666667,4,2,1,50,0,0
97140,-50,4,2,1,50,0,0
98212,-66.6666666666667,4,2,1,50,0,0
106381,-50,4,2,1,50,0,0
107051,-66.6666666666667,4,2,1,50,0,0
109060,-66.6666666666667,4,2,1,60,0,0
112207,-66.6666666666667,4,2,1,5,0,0
112274,-66.6666666666667,4,2,1,60,0,0
120779,-66.6666666666667,4,2,1,5,0,0
120846,-66.6666666666667,4,2,1,60,0,0
127810,-50,4,2,1,75,0,1
128077,-50,4,2,3,75,0,1
129685,-50,4,2,4,75,0,1
130489,-50,4,2,5,75,0,1
130622,-50,4,2,1,75,0,1
131426,-50,4,2,5,75,0,1
131828,-50,4,2,6,75,0,1
132631,-50,4,2,7,75,0,1
133301,-50,4,2,1,75,0,1
133970,-50,4,2,7,75,0,1
134372,-50,4,2,8,75,0,1
135176,-50,4,2,1,75,0,1
135712,-50,4,2,9,75,0,1
136381,-50,4,2,1,75,0,1
136649,-50,4,2,3,75,0,1
138256,-50,4,2,4,75,0,1
139060,-50,4,2,5,75,0,1
139194,-50,4,2,1,75,0,1
140399,-50,4,2,10,75,0,1
140801,-50,4,2,11,75,0,1
141203,-50,4,2,12,75,0,1
141604,-50,4,2,1,75,0,1
142542,-50,4,2,13,75,0,1
142944,-50,4,2,14,75,0,1
143345,-50,4,2,15,75,0,1
143881,-50,4,2,19,75,0,1
144819,-50,4,2,1,75,0,0
145221,-50,4,2,3,75,0,1
146694,-50,4,2,1,75,0,1
146828,-50,4,2,4,75,0,1
147631,-50,4,2,5,75,0,1
147765,-50,4,2,1,75,0,1
148569,-50,4,2,5,75,0,1
148970,-50,4,2,6,75,0,1
149774,-50,4,2,7,75,0,1
150176,-50,4,2,1,75,0,1
151114,-50,4,2,7,75,0,1
151515,-50,4,2,8,75,0,1
152319,-50,4,2,1,75,0,1
153792,-50,4,2,3,75,0,1
155399,-50,4,2,4,75,0,1
156203,-50,4,2,5,75,0,1
157408,-50,4,2,1,75,0,1
157542,-50,4,2,6,75,0,1
158346,-50,4,2,7,75,0,1
159685,-50,4,2,16,75,0,1
160087,-50,4,2,17,75,0,1
160489,-50,4,2,18,75,0,1
160756,-50,4,2,1,75,0,1
162096,-50,4,2,1,70,0,0
174953,-100,4,2,1,30,0,0
175488,-100,4,2,1,40,0,0
176560,-100,4,2,1,50,0,0
177096,-66.6666666666667,4,2,1,60,0,0
196381,-66.6666666666667,4,2,1,75,0,1
196649,-50,4,2,3,75,0,1
198256,-50,4,2,4,75,0,1
199060,-50,4,2,5,75,0,1
200399,-50,4,2,6,75,0,1
201203,-50,4,2,7,75,0,1
201739,-50,4,2,1,75,0,1
202542,-50,4,2,7,75,0,1
202944,-50,4,2,8,75,0,1
204283,-50,4,2,9,75,0,1
204417,-50,4,2,1,75,0,1
205220,-50,4,2,3,75,0,1
206694,-50,4,2,1,75,0,1
206828,-50,4,2,4,75,0,1
207631,-50,4,2,5,75,0,1
207765,-50,4,2,1,75,0,1
208971,-50,4,2,10,75,0,1
209105,-50,4,2,1,75,0,1
209372,-50,4,2,11,75,0,1
209640,-50,4,2,1,75,0,1
209774,-50,4,2,12,75,0,1
210042,-50,4,2,1,75,0,1
211114,-50,4,2,13,75,0,1
211515,-50,4,2,14,75,0,1
211917,-50,4,2,15,75,0,1
212185,-50,4,2,1,75,0,1
213524,-50,4,2,1,75,0,0
213792,-50,4,2,3,75,0,1
214596,-50,4,2,1,75,0,1
214997,-50,4,2,3,75,0,1
215399,-50,4,2,4,75,0,1
216069,-50,4,2,1,75,0,1
216203,-50,4,2,5,75,0,1
216337,-50,4,2,1,75,0,1
217140,-50,4,2,5,75,0,1
217274,-50,4,2,1,75,0,1
217542,-50,4,2,6,75,0,1
218346,-50,4,2,7,75,0,1
218747,-50,4,2,1,75,0,1
219685,-50,4,2,7,75,0,1
220086,-50,4,2,8,75,0,1
220622,-50,4,2,1,75,0,1
221426,-50,4,2,9,75,0,1
221560,-50,4,2,1,75,0,1
222364,-50,4,2,3,75,0,1
223971,-50,4,2,4,75,0,1
224640,-50,4,2,1,75,0,1
224774,-50,4,2,5,75,0,1
224908,-50,4,2,1,75,0,1
226114,-50,4,2,10,75,0,1
226247,-50,4,2,1,75,0,1
226515,-50,4,2,11,75,0,1
226649,-50,4,2,1,75,0,1
226917,-50,4,2,12,75,0,1
227051,-50,4,2,1,75,0,1
228189,-50,4,2,1,5,0,1
228256,-50,4,2,20,75,0,1
228658,-50,4,2,21,75,0,1
229060,-50,4,2,22,75,0,1
229328,-50,4,2,1,75,0,1
230533,-50,4,2,1,75,0,0
230667,-50,4,2,1,75,0,1
239239,-50,4,2,1,75,0,0

[Colours]
Combo1 : 160,108,208
Combo2 : 248,218,173
Combo3 : 234,138,188
Combo4 : 121,150,193

[HitObjects]
506,260,7810,6,0,P|405:283|216:342,1,288.750011014938,2|2,0:0|0:0,0:0:0:0:
228,337,9685,2,0,P|231:298|253:82,1,236.250009012222,2|0,0:0|0:0,0:0:0:0:
199,32,11024,6,0,L|168:36,2,17.500000667572,8|8|8,0:3|0:3|0:3,0:0:0:0:
332,103,11381,2,0,L|363:107,2,17.500000667572,8|8|8,0:3|0:3|0:3,0:0:0:0:
167,132,11739,2,0,L|136:136,2,17.500000667572,4|4|4,0:3|0:3|0:3,0:0:0:0:
323,191,12096,1,8,0:0:0:0:
323,191,12364,5,4,3:2:0:0:
416,205,12631,1,4,3:2:0:0:
509,219,12899,1,4,3:2:0:0:
507,233,12966,2,0,L|512:254,7,13.125000500679,0|8|8|8|8|8|8|8,0:0|0:2|0:2|0:2|0:2|0:2|0:2|0:2,0:0:0:0:
510,333,13569,6,0,L|385:353,1,105.000004005432,0|0,0:2|3:2,0:0:0:0:
397,339,13904,1,0,3:2:0:0:
386,330,13971,2,0,L|401:268,1,52.5000020027161,4|0,3:2|0:2,0:2:0:0:
303,312,14239,1,8,0:2:0:0:
303,312,14372,2,0,L|318:250,1,52.5000020027161,4|0,3:2|0:2,0:2:0:0:
218,294,14640,1,8,0:2:0:0:
218,294,14774,2,0,L|233:232,1,52.5000020027161,4|0,3:2|0:0,0:2:0:0:
205,164,15042,2,0,L|244:153,2,35.0000013351441,2|2|2,0:2|0:2|0:2,0:2:0:0:
126,122,15310,5,2,0:2:0:0:
126,122,15399,1,2,0:2:0:0:
126,122,15489,2,0,L|69:110,1,35.0000013351441,2|2,0:2|0:2,0:0:0:0:
34,171,15667,2,0,L|-3:178,3,35.0000013351441,2|2|10|2,0:2|0:2|0:2|0:2,0:0:0:0:
85,239,16024,5,2,0:2:0:0:
81,266,16113,1,2,0:2:0:0:
76,294,16202,1,2,0:2:0:0:
71,321,16291,1,2,0:2:0:0:
67,352,16381,6,0,P|153:340|290:326,1,210,4|2,3:2|0:2,0:2:0:0:
362,316,16917,2,0,L|352:379,2,52.5000020027161,8|2|2,0:2|0:2|0:2,0:0:0:0:
499,196,17453,1,2,3:2:0:0:
499,196,17855,6,0,L|487:133,2,52.5000020027161,2|2|0,0:2|3:2|0:2,0:0:0:0:
457,263,18256,1,0,0:2:0:0:
295,187,18524,1,2,3:2:0:0:
295,187,18926,6,0,L|307:124,2,52.5000020027161,2|8|2,0:2|3:2|0:2,0:2:0:0:
230,234,19328,1,2,0:2:0:0:
230,234,19462,2,0,L|157:221,1,52.5000020027161,0|0,0:2|3:2,0:2:0:0:
75,49,19997,6,0,B|20:62|20:62|20:75,2,69.9999999999999,2|8|0,0:2|3:2|0:2,0:0:0:0:
153,31,20399,1,2,0:2:0:0:
22,87,20667,6,0,B|124:108|124:108|137:153|137:153|216:168,1,210,2|2,3:2|0:2,0:2:0:0:
268,123,21203,2,0,L|254:55,2,52.5000020027161,8|2|2,3:2|0:2|0:2,0:0:0:0:
138,240,21739,1,2,3:2:0:0:
138,240,22140,6,0,L|152:308,2,52.5000020027161,2|8|2,0:2|3:2|0:2,0:2:0:0:
65,202,22542,1,2,0:2:0:0:
14,343,22810,1,0,3:2:0:0:
14,343,23212,5,0,3:2:0:0:
19,356,23346,2,0,L|91:341,1,52.5000020027161,10|0,3:2|0:2,0:0:0:0:
148,291,23614,1,0,0:2:0:0:
223,331,23747,6,0,L|216:396,1,52.5000020027161,2|0,0:3|3:2,0:2:0:0:
299,212,24015,2,0,L|305:265,1,52.5000020027161,2|0,0:3|0:2,0:2:0:0:
242,92,24283,2,0,L|235:157,2,52.5000020027161,2|8|2,0:3|3:2|3:2,0:2:0:0:
252,10,24685,1,0,3:2:0:0:
252,10,24819,1,0,3:2:0:0:
252,10,24953,6,0,P|319:25|486:55,1,210,4|0,3:2|0:2,0:2:0:0:
512,124,25489,2,0,P|445:138|393:156,1,105.000004005432,10|0,3:2|0:2,0:2:0:0:
352,217,25890,2,0,L|278:199,1,52.5000020027161,0|0,0:2|3:2,0:2:0:0:
243,144,26158,1,0,0:2:0:0:
243,144,26292,1,0,0:2:0:0:
243,144,26426,2,0,L|191:156,2,52.5000020027161,2|8|2,0:2|3:2|0:2,0:2:0:0:
263,62,26828,1,2,0:2:0:0:
377,28,27096,1,0,3:2:0:0:
111,24,27497,5,0,0:2:0:0:
111,24,27631,2,0,P|58:50|77:132,1,105.000004005432,10|0,3:2|0:2,0:2:0:0:
16,171,28033,2,0,P|74:182|94:189,1,52.5000020027161,2|0,0:2|3:2,0:2:0:0:
113,258,28301,1,0,0:2:0:0:
113,258,28435,1,0,0:2:0:0:
113,258,28569,6,0,B|126:290|126:290|87:362,2,69.9999999999999,2|8|0,0:2|3:2|0:2,0:2:0:0:
67,180,28971,1,0,0:2:0:0:
102,333,29239,6,0,B|177:323|177:323|194:332|194:332|368:312,1,210,2|0,3:2|0:2,0:2:0:0:
382,384,29774,6,0,L|402:259,1,105.000004005432,10|0,3:2|0:2,0:2:0:0:
487,278,30176,2,0,L|470:214,1,52.5000020027161,2|0,0:2|3:2,0:2:0:0:
394,194,30444,2,0,L|411:130,1,52.5000020027161,2|0,0:2|0:2,0:2:0:0:
470,89,30712,2,0,B|494:78|494:78|468:103,1,52.5000020027161,2|8,0:2|3:2,0:2:0:0:
400,138,30980,2,0,L|349:124,1,52.5000020027161,2|0,0:2|0:0,0:0:0:0:
294,184,31247,2,0,L|148:212,1,105.000004005432,2|0,0:2|0:2,0:2:0:0:
145,271,31649,2,0,P|84:261|76:215,1,105.000004005432,0|8,3:2|3:2,3:2:0:0:
120,59,32185,5,2,0:2:0:0:
120,59,32319,2,0,L|183:49,1,52.5000020027161,2|0,0:3|3:2,0:2:0:0:
242,175,32587,2,0,L|305:185,1,52.5000020027161,2|0,0:3|0:2,0:2:0:0:
379,37,32855,2,0,L|442:27,2,52.5000020027161,2|8|0,0:3|3:2|3:2,0:2:0:0:
298,14,33256,1,0,3:2:0:0:
298,14,33390,1,0,3:2:0:0:
298,14,33524,6,0,L|269:227,1,210,6|0,3:2|0:2,0:2:0:0:
200,265,34060,2,0,L|206:332,1,52.5000020027161,10|0,3:2|0:0,0:2:0:0:
270,370,34328,1,0,0:2:0:0:
270,370,34462,2,0,L|322:365,1,52.5000020027161,0|0,0:2|0:0,0:0:0:0:
406,335,34730,1,2,0:2:0:0:
406,335,34864,1,2,0:2:0:0:
406,335,34997,2,0,L|458:339,2,52.5000020027161,2|8|0,0:2|3:2|0:2,0:2:0:0:
338,274,35399,1,0,0:2:0:0:
503,192,35667,1,0,3:2:0:0:
338,274,36069,5,0,0:2:0:0:
338,274,36203,2,0,L|323:192,1,52.5000020027161,10|0,3:2|0:0,0:2:0:0:
259,181,36471,1,0,0:2:0:0:
259,181,36605,2,0,L|274:99,1,52.5000020027161,2|0,0:2|3:2,0:2:0:0:
334,75,36872,1,0,0:2:0:0:
334,75,37006,1,0,0:2:0:0:
334,75,37140,6,0,L|319:-7,2,69.9999999999999,2|8|2,0:2|3:2|0:2,0:2:0:0:
408,104,37542,1,2,0:2:0:0:
249,184,37810,6,0,B|77:167|77:167|59:115,1,210,6|0,3:2|0:2,0:2:0:0:
22,54,38346,6,0,L|82:47,1,52.5000020027161,10|0,3:2|0:2,0:2:0:0:
155,9,38614,1,0,0:2:0:0:
155,9,38747,2,0,L|172:70,1,52.5000020027161,2|0,0:2|3:2,0:2:0:0:
245,104,39015,2,0,L|262:43,1,52.5000020027161,2|0,0:2|0:2,0:2:0:0:
332,8,39283,2,0,B|356:3|356:3|331:30,1,52.5000020027161,2|8,0:2|3:2,0:2:0:0:
259,53,39551,2,0,L|273:103,1,52.5000020027161,2|0,0:2|0:2,0:2:0:0:
338,157,39819,2,0,P|418:172|465:302,1,210.000008010864,2|0,0:2|0:2,0:2:0:0:
417,340,40489,1,8,3:2:0:0:
417,340,40756,6,0,L|431:384,2,35.0000013351441,2|2|2,0:2|0:2|0:2,0:0:0:0:
357,269,41024,5,2,3:2:0:0:
349,278,41114,1,2,0:2:0:0:
343,285,41203,2,0,L|289:276,2,35.0000013351441,2|2|2,0:2|0:2|0:2,0:0:0:0:
291,241,41471,2,0,L|256:246,2,35.0000013351441,2|10|2,0:2|0:2|0:2,0:0:0:0:
141,194,41828,1,10,0:2:0:0:
141,194,41962,1,10,0:2:0:0:
58,210,42096,6,0,B|-8:244|-8:244|33:338,1,140,4|0,3:2|0:0,0:0:0:0:
53,377,42497,2,0,L|128:354,1,52.5000020027161,2|8,0:2|3:2,0:2:0:0:
149,291,42765,1,0,0:2:0:0:
149,291,42899,2,0,L|199:306,1,52.5000020027161,2|0,0:2|0:2,0:2:0:0:
272,384,43167,2,0,L|298:272,1,105.000004005432,2|0,3:2|0:2,0:2:0:0:
237,211,43569,1,0,0:2:0:0:
299,270,43703,2,0,L|401:246,1,105.000004005432,10|0,3:2|0:2,0:2:0:0:
479,284,44105,6,0,P|490:255|486:222,1,52.5000020027161,2|0,0:2|3:2,0:2:0:0:
512,160,44372,1,2,0:2:0:0:
512,160,44506,2,0,P|492:135|461:122,1,52.5000020027161,2|0,0:2|0:2,0:2:0:0:
448,48,44774,1,10,3:2:0:0:
448,48,44908,1,2,0:2:0:0:
448,48,45042,2,0,P|417:52|390:72,1,52.5000020027161,2|0,0:2|0:2,0:2:0:0:
325,19,45310,2,0,P|286:102|296:187,1,157.500006008148,2|0,3:2|0:2,0:2:0:0:
317,246,45846,2,0,P|263:274|196:243,1,105.000004005432,10|0,3:2|0:2,0:2:0:0:
203,181,46247,6,0,L|143:168,1,52.5000020027161,2|0,0:2|3:2,0:2:0:0:
104,102,46515,1,2,0:2:0:0:
104,102,46649,2,0,L|52:113,1,52.5000020027161,2|0,0:2|0:2,0:2:0:0:
24,203,46917,1,10,3:2:0:0:
24,203,47051,1,2,0:2:0:0:
24,203,47185,2,0,L|75:214,1,52.5000020027161,2|0,0:2|0:2,0:2:0:0:
151,255,47453,2,0,P|133:337|128:381,1,105.000004005432,2|0,3:2|0:0,0:0:0:0:
130,357,47989,2,0,P|188:338|271:337,1,105.000004005432,10|0,3:2|0:2,0:2:0:0:
297,284,48390,6,0,P|326:298|356:322,1,52.5000020027161,2|0,0:2|3:2,0:2:0:0:
431,313,48658,1,2,0:2:0:0:
431,313,48792,2,0,P|441:343|445:381,1,52.5000020027161,2|0,0:2|0:2,0:2:0:0:
498,251,49060,5,10,3:2:0:0:
498,251,49194,1,2,3:2:0:0:
498,251,49328,2,0,L|515:184,1,52.5000020027161,2|0,3:2|0:2,0:2:0:0:
401,219,49596,1,2,3:2:0:0:
401,219,49730,6,0,L|384:152,1,52.5000020027161,14|0,0:2|0:2,0:2:0:0:
310,233,49997,2,0,L|297:283,2,52.5000020027161,6|8|0,0:2|0:2|0:2,0:2:0:0:
252,170,50399,1,2,0:2:0:0:
252,170,50533,1,2,0:2:0:0:
274,82,50667,5,6,3:2:0:0:
274,82,51069,2,0,L|396:105,1,105.000004005432,2|2,0:2|0:2,0:2:0:0:
462,117,51471,2,0,L|519:103,1,52.5000020027161,2|0,0:2|0:2,0:2:0:0:
434,198,51739,2,0,L|415:336,1,105.000004005432,2|0,3:2|0:2,0:2:0:0:
486,365,52140,1,0,0:2:0:0:
420,321,52274,2,0,L|315:335,1,105.000004005432,10|0,3:2|0:2,0:2:0:0:
232,372,52676,6,0,L|221:310,1,52.5000020027161,2|0,0:2|3:2,0:2:0:0:
153,273,52944,1,2,0:2:0:0:
153,273,53078,2,0,L|164:211,1,52.5000020027161,2|0,0:2|0:2,0:2:0:0:
234,160,53346,1,10,3:2:0:0:
234,160,53480,1,2,0:2:0:0:
234,160,53614,2,0,L|223:98,1,52.5000020027161,2|0,0:2|0:2,0:2:0:0:
186,27,53881,2,0,L|64:3,1,105.000004005432,2|0,3:2|0:0,0:2:0:0:
19,60,54283,1,0,0:2:0:0:
19,60,54417,2,0,P|30:123|29:174,1,105.000004005432,10|0,3:2|0:2,0:2:0:0:
13,253,54819,6,0,L|89:243,1,52.5000020027161,2|0,0:2|3:2,0:2:0:0:
151,216,55087,1,2,0:2:0:0:
151,216,55221,1,2,0:2:0:0:
151,216,55355,2,0,B|178:264|120:279|150:347,1,105.000004005432,2|2,0:2|0:2,0:2:0:0:
206,367,55756,2,0,L|265:375,1,52.5000020027161,2|0,0:2|0:2,0:2:0:0:
302,275,56024,2,0,L|243:283,2,52.5000020027161,2|0|0,3:2|0:0|0:2,0:0:0:0:
377,375,56426,2,0,B|350:327|408:312|378:244,2,105.000004005432,2|2|10,0:2|0:2|0:2,0:2:0:0:
512,356,57230,5,0,3:2:0:0:
512,356,57297,1,0,3:2:0:0:
512,356,57364,2,0,L|452:345,1,52.5000020027161,0|2,3:2|0:2,0:0:0:0:
386,274,57631,1,10,3:2:0:0:
39,59,58703,6,0,P|108:75|118:119,1,105,8|0,3:2|0:2,0:2:0:0:
78,175,59239,5,6,3:2:0:0:
78,175,59372,1,2,3:2:0:0:
31,245,59506,6,0,L|51:333,1,69.9999999999999,2|0,3:2|0:2,0:2:0:0:
119,384,59774,2,0,L|134:315,1,69.9999999999999,10|0,0:2|0:2,0:2:0:0:
207,226,60042,2,0,L|240:373,1,140,2|0,3:2|3:2,0:2:0:0:
310,276,60444,5,0,3:2:0:0:
310,276,60511,1,0,3:2:0:0:
310,276,60578,2,0,L|386:261,2,69.9999999999999,0|2|8,3:2|0:2|0:2,0:0:0:0:
207,226,60980,1,0,0:2:0:0:
287,190,61114,6,0,B|274:120|333:135|316:30,1,140,2|0,3:2|3:2,0:2:0:0:
261,0,61515,2,0,L|438:40,1,140,2|0,0:2|3:2,0:2:0:0:
494,97,61917,2,0,L|317:137,1,140,10|0,0:2|3:2,0:2:0:0:
308,196,62319,2,0,L|229:179,1,69.9999999999999,2|0,0:2|3:2,0:2:0:0:
171,127,62587,5,0,0:2:0:0:
171,127,62721,1,0,3:2:0:0:
171,127,62855,2,0,L|161:57,1,69.9999999999999,2|8,3:2|0:2,0:0:0:0:
93,8,63122,1,2,3:2:0:0:
38,93,63256,6,0,P|142:109|197:151,1,140,10|0,0:2|3:2,0:2:0:0:
240,78,63658,2,0,P|302:162|311:231,1,140,2|0,0:2|0:2,0:2:0:0:
393,209,64060,2,0,P|377:313|335:368,1,140,10|2,0:2|3:2,0:2:0:0:
281,384,64462,6,0,B|254:368|254:368|292:378,1,69.9999999999999,2|0,0:2|3:2,0:2:0:0:
285,291,64730,1,2,0:2:0:0:
285,291,64864,1,2,0:2:0:0:
285,291,64997,2,0,B|258:276|258:276|296:286,1,69.9999999999999,2|8,0:2|0:2,0:2:0:0:
359,341,65265,5,2,0:2:0:0:
281,384,65399,2,0,L|122:361,1,140,2|0,0:2|3:2,0:2:0:0:
13,293,65801,2,0,L|172:270,1,140,2|0,0:2|3:2,0:2:0:0:
200,196,66203,2,0,L|217:34,1,140,10|0,0:2|3:2,0:2:0:0:
142,17,66605,6,0,B|72:-7|72:-7|148:39,1,140,2|0,0:2|0:2,0:2:0:0:
112,119,67006,1,0,0:2:0:0:
112,119,67140,2,0,B|42:143|42:143|118:97,1,140,2|0,0:2|0:2,0:2:0:0:
189,87,67542,1,0,0:2:0:0:
243,152,67676,6,0,B|319:149|283:76|414:81,1,140,10|0,0:2|0:2,0:2:0:0:
407,17,68078,6,0,P|445:32|469:81,1,69.9999999999999,2|0,0:2|3:2,0:2:0:0:
283,64,68346,2,0,P|298:26|347:2,1,69.9999999999999,10|0,0:2|0:2,0:2:0:0:
454,141,68614,2,0,P|439:179|336:194,1,140,2|0,3:2|3:2,0:2:0:0:
370,102,69015,5,0,3:2:0:0:
373,114,69082,1,0,3:2:0:0:
376,127,69149,1,0,3:2:0:0:
342,199,69283,2,0,P|332:273|328:299,1,69.9999999999999,2|8,0:2|0:2,0:2:0:0:
423,346,69551,5,0,0:2:0:0:
423,346,69685,2,0,L|270:371,1,140,2|0,0:2|3:2,0:2:0:0:
232,293,70087,2,0,L|93:270,1,140,2|0,0:2|0:2,0:2:0:0:
38,203,70489,5,10,0:2:0:0:
38,203,70622,1,2,0:2:0:0:
26,119,70756,1,2,3:2:0:0:
26,119,70890,2,0,P|50:47|18:-7,1,140,2|0,0:2|0:2,0:0:0:0:
108,154,71426,2,0,P|182:131|231:129,1,69.9999999999999,2|8,0:2|0:2,0:2:0:0:
234,70,71694,1,2,0:2:0:0:
234,70,71828,6,0,P|301:94|315:190,1,140,2|0,0:2|3:2,0:2:0:0:
253,206,72230,2,0,P|186:230|172:326,1,140,2|0,0:2|3:2,0:2:0:0:
210,364,72631,2,0,P|298:351|399:367,1,140,10|0,0:2|3:2,0:2:0:0:
438,325,73033,6,0,B|455:364|455:364|408:329,1,69.9999999999999,2|0,0:2|3:2,0:2:0:0:
392,229,73301,2,0,B|374:268|374:268|422:233,1,69.9999999999999,2|0,0:2|0:2,0:2:0:0:
432,126,73569,2,0,B|449:165|449:165|402:130,1,69.9999999999999,2|8,3:2|0:2,0:2:0:0:
367,85,73837,1,0,0:2:0:0:
444,40,73971,6,0,L|255:20,1,140,2|0,3:2|3:2,0:2:0:0:
285,125,74372,2,0,L|96:145,1,140,2|0,0:2|3:2,0:2:0:0:
74,182,74774,2,0,P|15:142|31:68,1,140,10|0,0:2|3:2,0:2:0:0:
88,0,75176,6,0,L|115:83,1,69.9999999999999,2|0,0:2|3:2,0:0:0:0:
189,127,75444,1,2,0:2:0:0:
194,136,75511,1,2,0:2:0:0:
199,144,75578,2,0,L|172:227,1,69.9999999999999,2|2,0:2|3:2,0:0:0:0:
119,262,75846,5,8,0:2:0:0:
119,262,75980,1,2,0:2:0:0:
68,328,76114,2,0,L|-12:345,1,69.9999999999999,2|10,0:2|0:2,0:0:0:0:
137,384,76381,5,6,3:2:0:0:
137,384,76515,1,2,0:2:0:0:
197,319,76649,6,0,P|229:330|261:379,1,69.9999999999999,2|0,0:2|3:2,0:2:0:0:
312,204,76917,2,0,P|327:235|314:291,1,69.9999999999999,10|0,0:2|0:2,0:2:0:0:
452,259,77185,2,0,P|440:291|392:323,1,69.9999999999999,2|0,3:2|0:2,0:2:0:0:
352,366,77453,5,2,3:1:0:0:
323,281,77587,2,0,L|280:265,2,35,2|0|0,3:1|3:2|3:2,0:0:0:0:
410,304,77855,2,0,P|425:215|446:142,1,140,2|0,0:2|0:2,0:2:0:0:
498,64,78256,6,0,P|425:62|398:-9,1,140,2|0,0:2|3:2,0:2:0:0:
362,132,78658,2,0,P|289:134|262:205,1,140,2|0,0:2|0:2,0:2:0:0:
296,256,79060,5,10,0:2:0:0:
246,319,79194,2,0,L|173:295,1,69.9999999999999,2|2,0:1|3:2,0:0:0:0:
79,186,79462,2,0,L|6:210,2,69.9999999999999,2|0|0,0:1|3:2|0:2,0:2:0:0:
134,117,79864,1,0,0:2:0:0:
134,117,79997,2,0,L|147:27,2,69.9999999999999,2|8|0,0:2|0:2|0:2,0:2:0:0:
171,205,80399,6,0,P|269:179|326:168,1,140,2|0,0:2|3:2,0:2:0:0:
294,84,80801,2,0,P|362:98|429:117,1,140,2|0,0:2|3:2,0:2:0:0:
488,183,81203,2,0,P|462:248|455:353,1,140,10|0,0:2|3:2,0:2:0:0:
389,368,81605,6,0,B|351:378|351:378|309:341,1,69.9999999999999,2|0,0:2|3:2,0:2:0:0:
206,308,81872,2,0,B|244:318|244:318|286:281,1,69.9999999999999,2|0,0:2|0:2,0:2:0:0:
372,230,82140,2,0,B|334:240|334:240|292:203,1,69.9999999999999,2|8,0:2|0:2,0:2:0:0:
249,166,82408,1,0,0:2:0:0:
308,106,82542,6,0,P|242:126|152:140,1,140,2|0,0:2|3:2,0:2:0:0:
98,66,82944,2,0,P|68:166|60:225,1,140,2|0,0:2|3:2,0:2:0:0:
3,274,83346,2,0,P|52:341|112:328,1,140,10|0,0:2|3:2,0:2:0:0:
187,366,83747,5,2,0:2:0:0:
265,336,83881,2,0,L|276:254,1,69.9999999999999,0|10,3:2|0:2,0:0:0:0:
175,211,84149,2,0,L|184:280,1,69.9999999999999,2|2,0:2|3:2,0:0:0:0:
365,284,84417,2,0,L|354:202,1,69.9999999999999,10|2,0:2|3:2,0:0:0:0:
274,180,84685,1,2,0:2:0:0:
274,180,84819,2,0,L|292:90,1,69.9999999999999,10|6,0:2|3:2,0:0:0:0:
304,32,85087,5,2,0:2:0:0:
366,82,85221,2,0,L|494:60,1,69.9999999999999,2|0,0:2|3:2,0:2:0:0:
512,216,85489,2,0,L|384:194,1,69.9999999999999,10|0,0:2|0:2,0:2:0:0:
349,373,85756,2,0,L|477:351,1,69.9999999999999,2|0,3:2|0:2,0:2:0:0:
506,346,86024,1,2,3:1:0:0:
506,346,86158,6,0,L|513:296,2,35,2|0|0,3:1|3:2|3:2,0:0:0:0:
429,369,86426,2,0,L|417:300,1,69.9999999999999,2|8,0:2|0:2,0:2:0:0:
346,260,86694,1,0,0:2:0:0:
269,286,86828,6,0,P|198:269|105:253,1,140,2|0,0:2|3:2,0:2:0:0:
25,189,87230,2,0,P|96:172|189:156,1,140,2|0,0:2|3:2,0:2:0:0:
200,81,87631,5,10,0:2:0:0:
267,138,87765,2,0,P|286:95|281:54,1,69.9999999999999,2|2,0:1|3:2,0:0:0:0:
242,7,88033,2,0,P|166:0|118:60,1,140,2|0,0:1|0:2,0:2:0:0:
29,28,88435,1,0,0:2:0:0:
29,28,88569,2,0,P|44:65|52:106,1,69.9999999999999,2|8,0:2|0:2,0:2:0:0:
115,146,88837,1,0,0:2:0:0:
115,146,88971,6,0,P|97:230|92:308,1,140,2|0,0:2|3:2,0:2:0:0:
172,378,89372,2,0,P|178:308|194:240,1,140,2|0,0:2|3:2,0:2:0:0:
271,200,89774,2,0,P|370:216|385:283,1,140,10|0,0:2|3:2,0:2:0:0:
408,321,90176,6,0,B|422:336|434:350|434:350|506:342|494:262,1,140,2|0,0:2|0:2,0:2:0:0:
464,208,90578,2,0,L|515:192,2,46.6666666666666,8|8|8,0:3|0:3|0:3,0:0:0:0:
421,133,90846,2,0,L|370:117,2,46.6666666666666,4|4|4,0:3|0:3|0:3,0:0:0:0:
484,65,91114,6,0,B|494:-7|494:-7|412:27,1,140,14|8,0:2|0:2,0:2:0:0:
349,40,91515,2,0,B|286:14|286:14|296:86,1,140,6|8,3:2|0:2,0:2:0:0:
305,171,91917,2,0,B|242:196|242:196|300:240,1,140,6|2,3:2|0:2,0:2:0:0:
489,209,92453,5,8,0:3:0:0:
495,226,92542,1,8,0:3:0:0:
501,241,92631,2,0,L|515:295,1,46.6666666666666,8|4,0:3|0:3,0:0:0:0:
474,317,92810,2,0,L|462:362,3,46.6666666666666,8|8|8|4,0:3|0:3|0:3|0:3,0:0:0:0:
380,370,93167,5,4,0:3:0:0:
357,364,93256,1,4,0:3:0:0:
334,358,93346,1,4,0:3:0:0:
311,352,93435,1,0,3:2:0:0:
288,347,93524,1,12,3:2:0:0:
44,178,94864,6,0,L|-27:158,3,46.6666666666667,0|0|0|0,3:2|3:2|3:2|3:2,0:0:0:0:
256,92,95533,5,12,0:2:0:0:
256,92,96069,2,0,L|329:84,1,52.5000020027161,2|8,0:2|3:2,0:0:0:0:
363,24,96337,2,0,L|436:32,1,52.5000020027161,2|0,0:2|0:2,0:2:0:0:
500,51,96605,2,0,P|475:141|460:222,1,157.500006008148,2|0,0:2|0:0,0:0:0:0:
410,294,97140,6,0,B|444:287|444:287|477:312,2,70,2|8|0,0:2|3:2|0:2,0:0:0:0:
347,363,97542,1,0,0:2:0:0:
347,363,97676,1,0,0:2:0:0:
347,363,97810,6,0,B|286:342|286:342|316:229,1,140,6|0,3:2|0:2,0:2:0:0:
343,191,98212,2,0,L|328:116,1,52.5000020027161,2|8,0:2|3:2,0:2:0:0:
252,159,98480,2,0,L|241:210,1,52.5000020027161,2|0,0:2|0:2,0:2:0:0:
163,184,98747,2,0,L|148:109,1,52.5000020027161,2|0,0:2|3:2,0:2:0:0:
72,152,99015,2,0,L|61:203,1,52.5000020027161,2|0,0:2|0:2,0:2:0:0:
125,262,99283,2,0,B|134:322|134:322|112:262,1,105.000004005432,2|2,0:2|0:2,0:2:0:0:
105,278,99685,6,0,B|230:279|141:369|316:361,1,210.000008010865,2|0,0:2|3:2,0:2:0:0:
468,237,100489,2,0,P|505:251|521:286,2,52.5000020027161,10|2|2,3:2|0:2|0:2,0:0:0:0:
449,319,100890,6,0,P|438:345|430:377,1,52.5000020027161,2|0,0:3|3:2,0:2:0:0:
338,260,101158,2,0,P|349:286|357:318,1,52.5000020027161,2|0,0:3|0:2,0:2:0:0:
264,204,101426,2,0,P|253:230|245:262,2,52.5000020027161,2|8|0,0:3|3:2|3:2,0:2:0:0:
351,177,101828,1,0,3:2:0:0:
351,177,101962,1,0,3:2:0:0:
281,118,102096,6,0,P|186:104|43:52,1,210.000008010865,4|10,3:2|3:2,0:2:0:0:
16,215,103167,5,0,3:2:0:0:
133,259,103569,1,2,0:2:0:0:
133,259,103703,1,8,3:2:0:0:
254,200,104239,1,0,3:2:0:0:
380,252,104774,1,8,3:2:0:0:
493,176,105176,1,2,0:2:0:0:
493,176,105310,1,0,3:2:0:0:
348,4,105712,1,2,0:2:0:0:
348,4,105846,2,0,L|329:165,1,157.500006008148,8|0,3:2|0:2,0:2:0:0:
420,230,106381,6,0,B|336:247|336:247|313:310|313:310|235:324,1,210,4|2,3:2|0:2,0:2:0:0:
189,370,106917,1,8,3:2:0:0:
189,370,107051,2,0,L|115:355,1,52.5000020027161,0|0,0:2|0:2,0:2:0:0:
91,285,107319,2,0,L|165:270,1,52.5000020027161,2|0,0:2|3:2,0:2:0:0:
179,199,107587,2,0,L|105:184,1,52.5000020027161,2|0,0:2|0:2,0:2:0:0:
81,114,107855,2,0,L|155:99,1,52.5000020027161,2|8,0:2|3:2,0:2:0:0:
187,32,108122,2,0,L|113:17,1,52.5000020027161,2|0,0:2|0:2,0:2:0:0:
27,0,108390,6,0,L|14:76,1,52.5000020027161,2|0,0:2|3:2,0:0:0:0:
121,159,108658,2,0,L|112:107,1,52.5000020027161,0|2,0:2|3:2,0:0:0:0:
264,85,108926,2,0,L|255:136,2,52.5000020027161,0|2|0,0:0|3:2|3:2,0:0:0:0:
325,19,109328,5,8,0:2:0:0:
393,68,109462,2,0,P|476:58|545:53,1,105.000004005432,0|8,3:2|0:2,0:2:0:0:
512,153,109864,1,0,3:2:0:0:
512,153,109997,2,0,L|445:140,1,52.5000020027161,0|8,3:2|0:2,0:0:0:0:
420,221,110265,1,0,3:2:0:0:
420,221,110399,2,0,L|353:234,1,52.5000020027161,0|8,3:2|0:2,0:0:0:0:
241,275,110667,5,4,3:2:0:0:
241,275,111069,2,0,P|250:356|208:371,1,105.000004005432,2|0,0:2|0:2,0:0:0:0:
165,377,111471,2,0,L|108:363,1,52.5000020027161,2|0,0:2|0:2,0:2:0:0:
36,382,111739,2,0,P|11:337|35:293,1,105.000004005432,2|0,3:2|0:2,0:2:0:0:
122,265,112140,1,0,0:2:0:0:
44,299,112274,2,0,L|25:189,1,105.000004005432,10|0,3:2|0:2,0:2:0:0:
19,108,112676,6,0,L|85:123,1,52.5000020027161,2|0,0:2|3:2,0:2:0:0:
41,29,112944,1,2,0:2:0:0:
41,29,113078,2,0,L|92:40,1,52.5000020027161,2|0,0:2|0:2,0:2:0:0:
161,106,113346,1,10,3:2:0:0:
161,106,113480,1,2,0:2:0:0:
161,106,113614,2,0,L|212:94,1,52.5000020027161,2|0,0:2|0:2,0:2:0:0:
265,28,113881,2,0,B|369:60|369:60|370:108,1,157.500006008148,2|2,3:2|0:2,0:2:0:0:
442,174,114417,6,0,L|500:161,2,52.5000020027161,10|2|2,3:2|0:1|0:2,0:0:0:0:
390,237,114819,2,0,L|332:224,1,52.5000020027161,2|0,0:1|3:2,0:0:0:0:
258,186,115087,1,0,0:2:0:0:
258,186,115221,2,0,L|240:307,1,105.000004005432,2|10,0:2|3:2,0:2:0:0:
286,359,115622,1,2,0:2:0:0:
286,359,115756,2,0,L|337:347,1,52.5000020027161,2|0,0:2|0:2,0:2:0:0:
413,375,116024,2,2,B|483:356|483:356|489:304,1,105.000004005432,2|0,3:2|0:2,0:1:0:0:
344,254,116560,6,2,L|366:129,1,105.000004005432,10|0,3:2|0:2,0:1:0:0:
428,101,116962,2,2,L|415:7,1,52.5000020027161,2|0,0:2|3:2,0:1:0:0:
351,9,117230,1,0,0:2:0:0:
351,9,117364,1,0,0:2:0:0:
351,9,117497,2,0,L|283:22,1,52.5000020027161,2|8,0:1|3:2,0:2:0:0:
214,27,117765,5,2,0:1:0:0:
214,27,117899,1,0,0:2:0:0:
132,56,118033,2,0,L|122:2,1,52.5000020027161,2|0,0:1|0:2,0:2:0:0:
37,124,118301,2,0,L|47:70,1,52.5000020027161,10|0,0:1|3:2,0:2:0:0:
110,173,118569,2,0,P|140:143|177:139,2,52.5000020027161,2|10|2,3:1|0:2|3:2,0:0:0:0:
29,214,118971,1,2,0:2:0:0:
29,214,119105,1,10,0:2:0:0:
29,214,119239,6,0,P|100:242|116:305,1,105.000004005432,4|0,3:2|0:0,0:0:0:0:
145,337,119640,2,0,P|168:359|193:363,1,52.5000020027161,2|8,0:2|3:2,0:2:0:0:
273,347,119908,1,0,0:2:0:0:
273,347,120042,2,0,P|285:324|284:298,1,52.5000020027161,2|0,0:2|0:2,0:2:0:0:
256,222,120310,2,0,P|240:148|231:78,1,105.000004005432,2|0,3:2|0:2,0:2:0:0:
163,85,120712,1,0,0:2:0:0:
243,109,120846,2,0,P|259:35|268:-35,1,105.000004005432,10|0,3:2|0:2,0:2:0:0:
343,43,121247,6,0,L|404:32,1,52.5000020027161,2|0,0:2|3:2,0:2:0:0:
451,101,121515,1,2,0:2:0:0:
451,101,121649,2,0,L|502:110,1,52.5000020027161,2|0,0:2|0:2,0:2:0:0:
373,139,121917,5,10,3:2:0:0:
373,139,122051,1,2,0:2:0:0:
373,139,122185,2,0,L|391:209,1,52.5000020027161,2|0,0:2|0:2,0:2:0:0:
477,203,122453,2,0,L|459:273,1,52.5000020027161,0|0,3:2|0:2,0:2:0:0:
381,281,122721,5,2,0:1:0:0:
381,281,122855,1,2,0:2:0:0:
443,336,122989,2,0,L|508:349,2,52.5000020027161,10|2|2,0:1|0:2|0:2,0:0:0:0:
304,324,123390,6,0,B|316:357|316:357|292:332,1,52.5000020027161,2|0,0:1|3:2,0:2:0:0:
215,336,123658,2,0,B|227:369|227:369|203:344,1,52.5000020027161,2|0,0:2|0:2,0:2:0:0:
130,355,123926,1,2,0:1:0:0:
130,355,124060,1,8,3:2:0:0:
30,199,124462,6,0,B|18:232|18:232|42:207,1,52.5000020027161,2|0,0:2|3:2,0:2:0:0:
119,211,124730,2,0,B|107:244|107:244|131:219,1,52.5000020027161,2|2,0:2|0:2,0:0:0:0:
204,230,124998,1,2,0:1:0:0:
204,230,125132,1,8,3:2:0:0:
278,24,125533,5,10,0:2:0:0:
381,89,125801,2,0,P|370:155|370:166,1,52.5000020027161,2|8,3:1|0:2,0:0:0:0:
290,175,126069,1,0,3:2:0:0:
290,175,126203,2,0,P|286:149|279:123,1,52.5000020027161,2|8,0:1|0:2,0:0:0:0:
296,38,126471,2,0,P|219:21|159:9,1,105.000004005432,2|8,3:1|0:2,0:2:0:0:
126,61,126872,2,0,L|59:72,2,52.5000020027161,2|0|8,3:1|0:2|0:2,0:2:0:0:
189,124,127274,5,2,3:1:0:0:
189,124,127408,1,2,3:1:0:0:
120,177,127542,1,10,0:1:0:0:
120,177,127676,2,0,L|107:243,1,52.5000020027161,10|6,0:1|3:2,0:0:0:0:
179,288,127944,1,2,0:2:0:0:
135,354,128078,6,0,P|107:371|67:362,1,70,2|0,0:2|3:2,0:2:0:0:
260,292,128346,2,0,P|288:309|328:300,1,70,10|0,0:2|0:2,0:2:0:0:
437,283,128614,2,0,P|454:311|372:362,1,140,2|0,3:2|3:2,0:2:0:0:
338,293,129015,5,0,3:2:0:0:
344,283,129082,1,0,3:2:0:0:
347,270,129149,1,0,3:2:0:0:
401,203,129283,2,0,P|379:145|376:117,2,70,2|8|0,0:2|0:2|0:2,0:2:0:0:
343,261,129685,6,0,L|174:228,1,140,2|0,0:2|3:2,0:2:0:0:
179,156,130087,2,0,L|41:182,1,140,2|0,0:2|3:2,0:2:0:0:
24,101,130489,5,10,0:2:0:0:
24,101,130622,2,2,L|39:18,1,70,2|0,0:0|3:2,0:1:0:0:
127,19,130890,2,2,B|134:72|134:72|236:57,1,140,2|0,0:2|0:2,0:1:0:0:
300,48,131292,1,0,0:2:0:0:
357,112,131426,2,0,L|349:192,1,70,2|8,0:2|0:2,0:2:0:0:
294,243,131694,1,0,0:2:0:0:
326,325,131828,6,0,P|387:353|464:303,1,140,2|0,0:2|3:2,0:2:0:0:
511,267,132230,2,0,P|450:295|373:245,1,140,2|0,0:2|3:2,0:2:0:0:
448,206,132631,2,0,B|479:142|439:140|481:52,1,140,10|0,0:2|3:2,0:2:0:0:
385,16,133033,6,0,B|420:5|420:5|381:38,1,70,2|0,0:2|3:2,0:2:0:0:
377,111,133301,1,2,0:2:0:0:
377,111,133435,1,2,0:2:0:0:
377,111,133569,2,0,B|342:100|342:100|368:122,1,70,2|8,0:2|0:2,0:2:0:0:
307,180,133837,1,2,0:2:0:0:
307,180,133971,6,0,B|237:191|237:191|226:220|226:220|165:231,1,140,2|0,0:2|3:2,0:2:0:0:
47,262,134372,2,0,B|116:273|116:273|127:302|127:302|188:313,1,140,2|0,0:2|3:2,0:2:0:0:
240,371,134774,2,0,B|252:309|252:309|353:290,1,140,10|0,0:2|3:2,0:2:0:0:
383,361,135176,6,0,B|419:350|419:350|407:283,1,70,2|0,0:2|3:2,0:2:0:0:
512,270,135444,1,0,0:2:0:0:
512,270,135578,1,0,0:2:0:0:
512,270,135712,2,0,B|476:259|476:259|500:130,1,140,2|0,0:2|0:2,0:0:0:0:
510,80,136114,1,0,3:2:0:0:
449,25,136247,2,0,L|369:35,1,70,10|6,0:2|3:2,0:0:0:0:
309,84,136515,5,2,0:2:0:0:
309,84,136649,2,0,B|325:125|325:125|296:177,1,70,2|0,0:2|3:2,0:2:0:0:
210,208,136917,2,0,B|194:249|194:249|223:301,1,70,10|0,0:2|0:2,0:2:0:0:
288,364,137185,2,0,L|374:352,1,70,2|0,3:2|0:2,0:2:0:0:
395,278,137453,5,2,3:1:0:0:
470,311,137587,2,0,L|536:301,2,35,2|0|0,3:1|3:2|3:2,0:0:0:0:
395,278,137855,2,0,B|368:250|317:231|317:231|315:253|298:284,1,140,2|0,0:2|0:2,0:2:0:0:
273,358,138256,6,0,B|180:372|180:372|133:309,1,140,2|0,0:2|3:2,0:2:0:0:
44,235,138658,2,0,B|137:249|137:249|184:186,1,140,2|0,0:2|3:2,0:2:0:0:
205,137,139060,5,10,0:2:0:0:
205,137,139194,1,2,0:1:0:0:
166,60,139328,1,2,3:1:0:0:
166,60,139462,2,0,P|72:38|7:16,1,140,2|0,0:1|0:2,0:0:0:0:
205,137,139997,2,0,P|272:119|291:117,1,70,2|8,0:2|0:2,0:2:0:0:
327,188,140265,5,2,0:2:0:0:
327,188,140399,2,0,P|291:262|301:340,1,140,2|0,0:2|3:2,0:2:0:0:
362,373,140801,2,0,P|436:352|463:283,1,140,2|0,0:2|3:2,0:2:0:0:
512,234,141203,2,0,P|483:170|408:200,1,140,10|0,0:2|3:2,0:2:0:0:
386,250,141605,6,0,B|372:267|376:286|376:286|390:275|384:239,1,70,2|0,0:2|3:2,0:2:0:0:
266,262,141872,2,0,B|252:245|256:225|256:225|270:237|264:273,1,70,2|0,0:2|0:2,0:2:0:0:
181,332,142140,2,0,B|167:349|171:368|171:368|185:357|179:321,1,70,2|8,0:2|0:2,0:2:0:0:
133,263,142408,1,2,0:2:0:0:
133,263,142542,6,0,P|55:243|9:161,1,140,2|0,0:2|3:2,0:2:0:0:
46,119,142944,2,0,P|124:99|170:17,1,140,2|0,0:2|3:2,0:2:0:0:
263,7,143346,2,0,P|243:101|240:120,1,70,10|0,0:2|0:0,0:2:0:0:
200,152,143614,2,0,P|220:246|223:265,1,70,8|8,0:2|0:2,0:0:0:0:
236,299,143881,1,2,3:2:0:0:
378,134,144149,5,8,0:2:0:0:
378,134,144283,1,8,0:2:0:0:
442,66,144417,2,0,L|525:98,1,70,8|8,0:3|0:3,0:0:0:0:
505,176,144685,2,0,L|422:208,1,70,4|4,0:3|0:3,0:0:0:0:
378,134,144953,5,2,3:2:0:0:
378,134,145087,1,2,0:2:0:0:
342,47,145221,6,0,P|304:67|284:113,1,70,2|0,0:2|3:2,0:2:0:0:
214,28,145489,2,0,P|201:69|219:116,1,70,10|0,0:2|0:2,0:2:0:0:
111,106,145756,2,0,P|131:144|177:164,1,70,2|0,3:2|0:2,0:2:0:0:
246,171,146024,5,2,3:1:0:0:
305,237,146158,2,0,L|358:229,2,35,2|0|0,3:1|3:2|3:2,0:0:0:0:
241,295,146426,2,0,P|218:369|138:376,1,140,2|2,0:2|0:2,0:2:0:0:
101,333,146828,6,0,P|78:259|-2:252,1,140,10|0,0:2|3:2,0:2:0:0:
17,326,147230,2,0,P|113:268|181:246,1,140,2|0,0:2|0:2,0:2:0:0:
189,188,147631,1,10,0:2:0:0:
105,169,147765,6,0,L|74:70,1,70,2|0,0:1|3:2,0:0:0:0:
227,66,148033,2,0,L|258:-33,2,70,2|0|2,0:1|3:2|0:2,0:2:0:0:
288,120,148435,1,2,0:2:0:0:
288,120,148569,2,0,L|407:101,1,70,2|8,0:2|0:2,0:2:0:0:
419,45,148837,1,0,0:2:0:0:
419,45,148971,6,0,P|486:78|477:160,1,140,2|0,0:2|3:2,0:2:0:0:
424,195,149372,2,0,P|357:228|366:310,1,140,2|0,0:2|3:2,0:2:0:0:
438,277,149774,2,0,P|496:322|438:356,1,140,10|0,0:2|3:2,0:2:0:0:
385,384,150176,6,0,B|347:371|347:371|400:372,1,70,2|0,0:2|3:2,0:2:0:0:
266,379,150444,2,0,B|228:366|228:366|281:367,1,70,2|0,0:2|0:2,0:2:0:0:
147,371,150712,2,0,B|109:358|109:358|162:359,1,70,2|8,0:2|0:2,0:2:0:0:
221,349,150980,5,2,0:2:0:0:
170,285,151114,2,0,B|157:255|157:255|191:177|191:177|172:126,1,140,2|0,0:2|3:2,0:2:0:0:
90,199,151515,2,0,B|103:169|103:169|69:91|69:91|88:40,1,140,2|0,0:2|3:2,0:2:0:0:
158,73,151917,2,0,B|233:60|233:60|267:150,1,140,10|0,0:2|3:2,0:2:0:0:
319,197,152319,5,2,0:2:0:0:
319,197,152453,2,0,B|289:218|289:218|316:174,1,70,2|2,0:2|3:2,0:0:0:0:
376,122,152721,2,0,B|346:100|346:100|373:145,1,70,10|10,0:2|0:2,0:0:0:0:
451,170,152989,5,10,0:2:0:0:
451,170,153122,1,2,3:2:0:0:
508,109,153256,1,2,3:2:0:0:
508,109,153390,2,0,L|489:19,1,70,10|6,0:2|3:2,0:0:0:0:
451,170,153658,5,2,0:2:0:0:
451,170,153792,2,0,L|470:248,1,70,2|0,0:2|3:2,0:2:0:0:
357,366,154060,2,0,L|376:288,1,70,10|0,0:2|0:2,0:2:0:0:
275,240,154328,2,0,P|181:224|144:218,1,70,2|0,3:2|0:2,0:2:0:0:
134,276,154596,5,2,3:1:0:0:
62,231,154730,2,0,L|49:180,2,35,2|0|0,3:1|3:2|3:2,0:0:0:0:
6,288,154997,2,0,P|31:358|106:351,1,140,2|0,0:2|0:2,0:2:0:0:
139,292,155399,6,0,B|169:269|169:269|135:133,1,140,2|0,0:2|3:2,0:2:0:0:
196,105,155801,2,0,B|173:75|173:75|37:109,1,140,2|0,0:2|3:2,0:2:0:0:
23,38,156203,5,10,0:2:0:0:
102,13,156337,2,0,L|189:34,1,70,2|2,0:1|3:1,0:0:0:0:
292,90,156605,2,0,L|250:250,1,140,2|0,0:1|0:2,0:2:0:0:
263,308,157006,1,0,0:2:0:0:
263,308,157140,6,0,B|281:339|281:339|285:281,1,70,2|8,0:2|0:2,0:2:0:0:
343,247,157408,1,2,0:2:0:0:
343,247,157542,2,0,P|439:228|501:280,1,140,2|0,0:2|3:2,0:2:0:0:
505,333,157944,2,0,P|422:350|407:311,1,140,2|0,0:2|3:2,0:2:0:0:
472,245,158346,2,0,P|493:146|501:88,1,140,10|0,0:2|3:2,0:2:0:0:
428,31,158747,6,0,B|503:11|503:11|428:49,1,140,10|0,0:2|0:2,0:2:0:0:
410,119,159149,6,0,P|403:147|398:170,2,46.6666666666667,8|8|8,0:3|0:3|0:3,0:0:0:0:
331,110,159417,2,0,P|324:138|319:161,2,46.6666666666667,4|4|4,0:3|0:3|0:3,0:0:0:0:
281,38,159685,6,0,L|187:22,1,70,14|0,0:2|0:2,0:2:0:0:
234,134,159953,1,8,0:2:0:0:
234,134,160087,2,0,L|164:123,1,70,6|0,3:2|0:2,0:2:0:0:
204,235,160355,1,8,0:2:0:0:
204,235,160489,2,0,L|134:223,1,70,6|0,3:2|0:2,0:2:0:0:
85,156,160756,2,0,L|69:94,2,46.6666666666667,2|2|2,0:2|0:2|0:2,0:0:0:0:
44,241,161024,5,8,0:3:0:0:
44,241,161114,1,8,0:3:0:0:
44,241,161203,2,0,L|33:300,1,46.6666666666667,8|4,0:3|0:3,0:0:0:0:
74,306,161381,2,0,L|82:351,3,46.6666666666667,8|8|8|4,0:3|0:3|0:3|0:3,0:0:0:0:
158,313,161739,5,4,0:3:0:0:
187,325,161828,1,4,0:3:0:0:
208,350,161917,1,4,0:3:0:0:
231,373,162006,1,0,3:2:0:0:
261,384,162096,1,12,0:2:0:0:
36,384,174953,6,0,L|58:235,1,140,2|10,3:2|3:2,0:2:0:0:
437,227,176024,2,0,L|415:78,1,140,2|10,3:2|3:2,0:2:0:0:
401,10,176828,1,2,0:2:0:0:
309,90,177096,5,0,3:2:0:0:
309,90,177163,1,8,0:2:0:0:
309,90,177230,2,0,L|214:75,1,87.5000033378602,8|8,0:2|0:2,0:2:0:0:
161,19,177631,2,0,L|41:31,1,105.000004005432,8|8,0:2|0:2,0:2:0:0:
7,92,178033,1,4,3:2:0:0:
160,170,178301,5,8,0:2:0:0:
145,245,178435,1,4,3:2:0:0:
303,303,178703,5,8,0:2:0:0:
288,228,178837,1,6,3:2:0:0:
403,173,179105,1,8,0:2:0:0:
485,149,179239,6,2,B|520:244|391:230|518:264|453:349,1,210.000008010865,4|8,3:2|3:2,0:1:0:0:
264,367,180176,5,2,0:2:0:0:
264,367,180243,1,2,0:2:0:0:
264,367,180310,2,0,L|203:356,1,52.5000020027161,2|0,3:2|0:2,0:2:0:0:
123,368,180578,6,2,B|158:261|83:310|103:197,1,157.500006008148,2|0,0:2|0:0,0:1:0:0:
131,149,181114,1,2,0:2:0:0:
131,149,181180,1,2,0:2:0:0:
131,149,181247,6,2,P|136:116|64:73,1,105.000004005432,2|2,0:2|0:2,0:1:0:0:
18,109,181649,1,2,0:2:0:0:
80,61,181783,2,2,P|99:34|181:54,1,105.000004005432,2|2,0:2|0:2,0:1:0:0:
230,106,182185,5,2,0:2:0:0:
230,106,182252,1,2,0:2:0:0:
230,106,182319,2,2,B|217:163|305:85|368:162,1,157.500006008148,2|0,0:2|0:0,0:1:0:0:
370,169,182855,2,2,P|376:217|291:196,1,157.500006008148,2|0,0:2|0:2,0:1:0:0:
309,78,183390,6,2,B|334:199|222:130|244:246|286:264,1,210.000008010865,2|2,0:2|0:2,0:1:0:0:
303,337,184060,2,2,P|357:316|437:310,1,131.25000500679,10|2,3:2|0:3,0:2:0:0:
441,315,184462,1,2,0:3:0:0:
452,321,184529,1,2,0:3:0:0:
460,330,184596,6,0,P|506:366|534:382,2,78.7500030040742,0|2|2,3:2|0:2|0:2,0:0:0:0:
485,246,185131,2,2,B|497:200|438:172|484:143,1,105.000004005432,10|0,3:2|0:2,0:1:0:0:
492,145,185533,2,2,P|452:169|335:78,1,210.000008010865,2|0,0:2|0:2,0:1:0:0:
250,64,186203,6,0,P|262:42|267:6,1,52.5000020027161,10|0,3:2|0:2,0:2:0:0:
175,100,186471,2,0,P|163:78|158:42,2,52.5000020027161,2|0|2,0:2|0:2|0:2,0:2:0:0:
276,152,186872,6,0,P|243:157|223:186,1,52.5000020027161,10|2,0:1|3:2,0:0:0:0:
85,248,187140,2,0,P|118:253|138:282,2,52.5000020027161,2|10|2,0:1|0:2|3:2,0:0:0:0:
78,329,187542,2,0,P|67:367|64:393,1,52.5000020027161,2|10,0:2|0:2,0:0:0:0:
149,180,187810,5,6,3:1:0:0:
149,180,187944,2,0,B|126:169|126:169|161:189,1,52.5000020027161,2|0,0:2|0:2,0:2:0:0:
239,224,188212,2,0,B|216:235|216:235|251:215,1,52.5000020027161,2|8,0:2|3:2,0:2:0:0:
344,208,188480,2,0,B|321:197|321:197|356:217,1,52.5000020027161,2|0,0:2|0:2,0:2:0:0:
425,274,188792,5,2,0:2:0:0:
427,266,188881,1,2,3:2:0:0:
498,234,189015,2,0,B|521:223|521:223|486:243,1,52.5000020027161,2|0,0:2|0:2,0:2:0:0:
507,146,189283,2,0,B|530:135|530:135|495:155,1,52.5000020027161,2|8,0:2|3:2,0:2:0:0:
356,347,189819,5,2,0:2:0:0:
290,294,189953,2,0,B|262:305|262:305|273:345,1,52.5000020027161,2|2,3:2|0:2,0:0:0:0:
207,375,190221,2,0,B|179:364|179:364|190:324,1,52.5000020027161,2|2,0:2|0:2,0:0:0:0:
178,224,190489,2,0,B|206:235|206:235|195:275,1,52.5000020027161,10|2,3:2|0:2,0:0:0:0:
261,305,190757,2,0,B|289:294|289:294|278:254,1,52.5000020027161,2|10,0:2|0:2,0:0:0:0:
280,188,191024,6,0,B|323:175|323:175|306:135,2,52.5000020027161,2|2|2,3:2|0:2|0:2,0:0:0:0:
224,128,191426,6,0,B|195:118|195:118|217:143,1,52.5000020027161,2|8,0:2|3:2,0:2:0:0:
290,77,191694,2,0,B|319:67|319:67|297:92,1,52.5000020027161,2|0,0:2|0:2,0:2:0:0:
178,224,191962,1,4,3:2:0:0:
178,224,192274,5,2,3:2:0:0:
168,235,192364,2,0,P|121:218|84:214,1,70.0000026702882,2|2,0:2|3:2,0:2:0:0:
86,202,192631,6,0,P|45:211|25:219,2,35.0000013351441,10|2|2,0:2|0:2|0:2,0:2:0:0:
139,141,192899,2,0,P|180:150|200:158,2,35.0000013351441,2|2|0,0:2|0:2|3:2,0:0:0:0:
86,83,193167,2,0,P|45:92|25:100,2,35.0000013351441,2|2|2,0:2|0:2|3:2,0:0:0:0:
123,16,193435,1,10,0:2:0:0:
238,34,193703,5,2,0:2:0:0:
246,47,193792,1,2,0:2:0:0:
253,63,193881,2,0,L|245:116,2,35.0000013351441,2|2|2,3:2|0:2|0:2,0:0:0:0:
327,109,194149,2,0,L|335:162,2,35.0000013351441,2|10|0,3:2|0:2|0:0,0:0:0:0:
414,125,194417,5,2,0:2:0:0:
414,125,194596,1,2,0:2:0:0:
382,204,194774,2,0,L|390:257,2,35.0000013351441,2|0|2,0:2|0:2|3:2,0:2:0:0:
308,250,195042,2,0,L|300:303,2,35.0000013351441,10|2|2,0:2|0:2|0:2,0:0:0:0:
239,193,195310,2,0,P|177:184|155:181,1,70.0000026702882,2|2,0:2|3:2,0:2:0:0:
42,225,195756,5,2,3:2:0:0:
25,233,195846,2,0,P|24:348|54:362,1,157.500006008148,10|8,0:2|0:2,0:2:0:0:
129,361,196381,5,6,3:2:0:0:
129,361,196515,1,2,0:2:0:0:
155,283,196649,6,0,L|253:300,1,70,2|0,0:2|3:2,0:2:0:0:
374,382,196917,2,0,L|442:370,1,70,10|0,0:2|0:2,0:2:0:0:
328,253,197185,2,0,L|311:330,1,70,2|0,3:2|0:2,0:2:0:0:
411,288,197453,5,2,3:1:0:0:
331,236,197587,2,0,L|282:216,2,35,2|0|2,3:1|3:2|3:1,3:2:0:0:
414,194,197855,2,0,L|441:91,1,70,2|8,0:2|0:2,0:0:0:0:
510,81,198122,1,0,0:2:0:0:
450,14,198256,6,0,P|356:29|290:37,1,140,2|0,0:2|3:2,0:2:0:0:
296,126,198658,2,0,P|202:111|136:103,1,140,2|0,0:2|3:2,0:2:0:0:
129,27,199060,5,10,0:2:0:0:
129,27,199194,1,2,0:1:0:0:
45,57,199328,1,2,3:1:0:0:
45,57,199462,2,0,P|62:136|70:222,1,140,2|2,0:1|0:1,0:0:0:0:
150,228,199864,1,2,0:1:0:0:
205,165,199997,2,0,P|122:181|45:200,1,140,2|0,0:2|0:2,0:2:0:0:
25,268,200399,6,0,P|34:350|102:360,1,140,2|0,0:2|3:2,0:2:0:0:
179,384,200801,2,0,P|188:302|256:292,1,140,2|0,0:2|3:2,0:2:0:0:
290,221,201203,2,0,P|371:268|334:331,1,140,10|0,0:2|3:2,0:2:0:0:
303,369,201605,6,0,B|280:350|280:350|343:378,1,70,2|0,0:2|3:2,0:2:0:0:
411,383,201872,1,2,0:2:0:0:
411,383,202006,1,2,0:2:0:0:
411,383,202140,2,0,B|433:364|433:364|371:392,1,70,2|8,0:2|0:2,0:2:0:0:
366,299,202408,1,0,0:2:0:0:
366,299,202542,6,0,P|384:151|385:143,1,140,2|0,0:2|3:2,0:2:0:0:
286,168,202944,2,0,P|268:20|267:12,1,140,2|0,0:2|3:2,0:2:0:0:
359,13,203346,2,0,P|446:32|495:99,1,140,10|0,0:2|3:2,0:2:0:0:
512,162,203747,6,0,B|457:178|457:178|445:208|445:208|378:228,1,140,2|0,0:2|0:2,0:2:0:0:
366,299,204149,1,0,0:2:0:0:
351,383,204283,2,0,B|303:369|303:369|291:339|291:339|236:323,1,140,2|0,0:2|0:2,0:2:0:0:
166,367,204685,1,2,0:2:0:0:
164,285,204819,2,0,L|74:307,1,70,10|6,0:2|3:2,0:0:0:0:
231,235,205087,5,2,0:2:0:0:
231,235,205221,2,0,L|250:139,1,70,2|0,0:2|3:2,0:2:0:0:
80,178,205489,2,0,L|61:82,1,70,10|0,0:2|0:2,0:2:0:0:
259,84,205756,2,0,L|278:-12,1,70,2|0,3:2|0:2,0:2:0:0:
185,17,206024,5,2,3:1:0:0:
162,94,206158,2,0,L|177:148,2,35,2|0|2,3:1|3:2|3:1,3:2:0:0:
102,35,206426,2,0,P|26:23|1:19,1,70,2|8,0:2|0:2,0:2:0:0:
6,202,206694,1,2,0:2:0:0:
6,202,206828,6,0,P|94:218|190:244,1,140,2|0,0:2|3:2,0:2:0:0:
181,300,207230,2,0,P|249:284|318:272,1,140,2|0,0:2|3:2,0:2:0:0:
365,205,207631,5,10,0:2:0:0:
365,205,207765,1,2,0:1:0:0:
438,158,207899,1,2,3:1:0:0:
438,158,208033,2,0,P|506:184|515:253,1,140,2|2,0:1|0:1,0:0:0:0:
512,323,208435,1,0,0:0:0:0:
441,373,208569,6,2,P|366:341|350:338,1,70,2|8,0:2|0:2,0:1:0:0:
254,300,208837,2,2,P|329:268|345:265,1,70,2|2,0:2|0:2,0:1:0:0:
365,205,209105,2,2,P|377:125|392:34,2,140,2|2|0,0:2|0:2|0:2,0:1:0:0:
427,263,209774,1,10,0:2:0:0:
279,151,210042,5,0,3:2:0:0:
279,151,210176,2,0,B|241:143|241:143|279:170,1,70,2|0,0:2|3:2,0:2:0:0:
199,217,210444,1,2,0:2:0:0:
199,217,210578,1,2,0:2:0:0:
199,217,210712,2,0,B|128:232|128:232|199:198,1,140,2|0,0:2|0:2,0:0:0:0:
276,235,211114,6,0,P|251:317|191:294,1,140,2|0,0:2|3:2,0:2:0:0:
132,318,211515,2,0,P|56:358|30:300,1,140,2|0,0:2|3:2,0:2:0:0:
16,253,211917,1,10,0:2:0:0:
160,132,212185,5,2,3:2:0:0:
160,132,212319,1,2,0:0:0:0:
160,132,212453,2,0,L|143:58,2,46.6666666666667,8|8|8,3:3|0:3|0:3,0:0:0:0:
230,51,212721,2,0,L|247:-23,2,46.6666666666667,8|8|8,0:3|0:3|0:3,0:0:0:0:
317,126,212989,2,0,L|300:52,2,46.6666666666667,4|4|4,0:3|0:3|0:3,0:0:0:0:
387,45,213257,2,0,L|404:-29,2,46.6666666666667,4|4|4,0:3|0:3|0:3,0:0:0:0:
461,93,213524,5,0,3:2:0:0:
461,93,213658,1,0,0:2:0:0:
451,180,213792,6,0,P|383:186|358:198,1,70,2|0,0:2|3:2,0:2:0:0:
458,263,214060,2,0,P|390:269|365:281,1,70,10|0,0:2|0:2,0:2:0:0:
465,351,214328,2,0,P|397:357|372:369,1,70,2|0,3:2|0:2,0:2:0:0:
316,325,214596,5,2,3:2:0:0:
234,351,214730,2,0,L|221:400,2,35,0|0|0,3:2|3:2|3:2,0:0:0:0:
256,268,214997,2,0,P|235:201|216:147,1,70,2|8,0:2|0:2,0:2:0:0:
278,131,215265,1,0,0:2:0:0:
236,59,215399,6,0,P|137:29|114:74,1,140,2|0,0:2|3:2,0:2:0:0:
12,168,215801,2,0,P|111:138|134:183,1,140,2|2,0:2|3:2,0:2:0:0:
132,242,216203,5,10,0:2:0:0:
132,242,216337,1,2,0:1:0:0:
48,259,216471,1,2,3:1:0:0:
48,259,216605,2,0,L|31:343,1,70,2|0,0:1|3:2,0:0:0:0:
126,379,216872,5,2,0:1:0:0:
126,379,217006,1,2,0:1:0:0:
126,379,217140,2,2,P|192:343|282:324,1,140,2|2,0:0|0:2,0:1:0:0:
336,364,217542,6,0,B|413:351|413:351|418:265,1,140,2|0,0:2|3:2,0:2:0:0:
334,281,217944,2,0,B|257:268|257:268|252:182,1,140,2|0,0:2|3:2,0:2:0:0:
347,200,218346,2,0,B|424:187|424:187|429:101,1,140,10|0,0:2|3:2,0:2:0:0:
428,45,218747,6,0,B|440:10|440:10|439:56,1,70,2|0,0:2|3:2,0:2:0:0:
328,81,219015,2,0,B|340:116|340:116|339:70,1,70,2|0,0:2|0:2,0:2:0:0:
233,47,219283,2,0,B|245:12|245:12|244:58,1,70,2|8,3:2|0:2,0:2:0:0:
157,103,219551,1,2,0:2:0:0:
157,103,219685,6,0,P|71:83|-7:73,1,140,10|0,0:2|3:2,0:2:0:0:
8,173,220087,2,0,P|77:184|145:200,1,140,2|0,0:2|3:2,0:2:0:0:
222,159,220489,2,0,P|289:217|304:279,1,140,10|2,0:2|3:2,0:2:0:0:
269,343,220890,5,2,0:2:0:0:
269,343,221024,2,0,L|359:359,1,70,2|10,3:2|0:2,0:0:0:0:
388,289,221292,2,0,L|457:277,1,70,2|2,0:2|3:2,0:0:0:0:
478,195,221560,5,10,0:2:0:0:
478,195,221694,1,2,3:2:0:0:
406,140,221828,1,2,3:2:0:0:
406,140,221962,2,0,L|423:55,1,70,10|6,0:2|3:2,0:0:0:0:
333,190,222230,5,2,0:2:0:0:
333,190,222364,2,0,P|294:199|239:217,1,70,2|0,0:2|3:2,0:2:0:0:
223,92,222631,2,0,P|189:82|155:74,1,70,10|0,0:2|0:2,0:2:0:0:
148,243,222899,2,0,P|114:251|80:261,1,70,2|0,3:2|0:2,0:2:0:0:
26,191,223167,5,0,3:2:0:0:
106,149,223301,2,0,L|162:163,2,35,0|0|0,3:2|3:2|3:2,0:0:0:0:
34,95,223569,2,0,L|11:11,1,70,2|8,0:2|0:2,0:2:0:0:
154,73,223837,1,0,0:2:0:0:
154,73,223971,6,0,P|225:62|304:47,1,140,2|0,0:2|3:2,0:2:0:0:
367,7,224372,2,0,P|436:20|505:31,1,140,2|2,0:2|3:2,0:2:0:0:
497,113,224774,5,10,0:2:0:0:
497,113,224908,1,2,0:1:0:0:
421,157,225042,1,2,3:1:0:0:
421,157,225176,2,0,L|436:237,1,70,2|2,0:1|3:2,0:0:0:0:
495,291,225444,5,2,0:1:0:0:
495,291,225578,1,2,0:2:0:0:
495,291,225712,2,2,P|452:350|428:348,1,70,2|8,0:2|0:2,0:1:0:0:
377,376,225980,2,2,P|334:317|310:319,1,70,2|2,0:2|0:2,0:1:0:0:
336,233,226247,2,2,P|255:229|234:318,2,140,2|2|2,0:2|0:2|3:2,0:1:0:0:
419,267,226917,6,0,P|433:149|450:84,1,140,10|2,0:2|3:2,0:0:0:0:
443,38,227319,6,0,B|477:28|477:28|446:56,1,70,2|0,0:2|3:2,0:2:0:0:
338,73,227587,2,0,B|372:83|372:83|341:55,1,70,2|0,0:2|0:2,0:2:0:0:
240,21,227855,2,0,B|274:11|274:11|243:39,1,70,2|8,3:2|0:2,0:2:0:0:
172,65,228122,1,2,0:2:0:0:
172,65,228256,6,0,B|201:122|201:122|187:175|111:169,1,140,10|0,0:2|3:2,0:2:0:0:
24,179,228658,2,0,B|72:183|78:225|78:225|52:245|49:282,1,140,2|0,0:2|3:2,0:2:0:0:
64,373,229060,2,0,P|143:334|134:285,1,140,10|2,0:2|0:2,0:0:0:0:
255,219,229596,5,8,3:3:0:0:
255,219,229685,1,8,0:3:0:0:
255,219,229774,2,0,L|328:236,1,46.6666666666667,8|4,0:3|0:3,0:0:0:0:
323,262,229953,2,0,L|368:251,3,46.6666666666667,8|8|8|0,0:3|0:3|0:3|3:2,0:0:0:0:
414,182,230310,5,4,0:3:0:0:
422,160,230399,1,4,0:3:0:0:
430,137,230489,1,4,0:3:0:0:
438,115,230578,1,0,3:2:0:0:
445,93,230667,6,0,B|423:11|423:11|341:25|341:25|358:90,1,210,14|2,0:2|3:2,0:2:0:0:
358,77,231203,2,0,L|275:96,1,70,8|2,0:2|0:2,0:0:0:0:
213,113,231471,2,0,L|130:132,1,70,2|0,3:2|0:2,0:2:0:0:
81,191,231739,6,0,B|31:206|31:206|56:298,1,140,2|0,3:2|0:2,0:2:0:0:
174,384,232140,2,0,B|124:369|124:369|149:277,1,140,2|2,3:2|0:2,0:2:0:0:
221,237,232542,1,0,0:2:0:0:
221,237,232676,1,0,0:2:0:0:
282,302,232810,6,0,B|352:306|352:306|372:221,1,140,2|0,3:2|0:2,0:2:0:0:
444,198,233212,2,0,B|412:135|412:135|329:161,1,140,2|2,3:2|0:2,0:2:0:0:
287,93,233614,5,0,3:2:0:0:
287,93,233747,2,0,L|306:-3,1,70,2|0,0:2|3:2,0:2:0:0:
210,133,234015,2,0,L|191:37,1,70,2|0,0:2|0:2,0:2:0:0:
110,68,234283,2,0,L|129:-28,1,70,2|8,0:2|0:2,0:2:0:0:
33,108,234551,2,0,L|14:12,1,70,2|0,0:2|0:2,0:2:0:0:
117,154,234819,5,0,0:2:0:0:
117,154,234953,2,0,P|107:243|99:386,1,210,2|0,3:2|3:2,0:2:0:0:
189,344,235489,6,0,P|226:338|280:333,1,70,10|0,0:2|0:2,0:2:0:0:
69,273,235756,2,0,P|32:267|-22:262,1,70,2|0,3:2|0:2,0:2:0:0:
195,224,236024,1,0,3:2:0:0:
345,268,236292,6,0,L|361:202,2,46.6666666666667,8|8|8,0:2|0:2|0:2,0:0:0:0:
415,326,236560,2,0,L|431:392,2,46.6666666666667,4|4|4,0:3|0:3|0:3,0:0:0:0:
481,276,236828,6,0,L|500:189,1,70,6|0,3:2|0:2,0:2:0:0:
364,146,237096,5,8,0:2:0:0:
410,80,237230,2,0,L|483:91,1,70,6|0,3:2|0:2,0:2:0:0:
406,221,237497,5,8,0:2:0:0:
360,155,237631,2,0,L|216:176,1,140,6|2,3:2|0:2,0:2:0:0:
146,225,238167,5,8,0:2:0:0:
109,226,238256,1,8,0:2:0:0:
87,200,238346,1,8,0:2:0:0:
98,165,238435,1,8,0:2:0:0:
127,149,238524,2,0,L|137:93,3,46.6666666666667,8|8|8|8,0:3|0:3|0:3|0:3,0:0:0:0:
102,74,238881,2,0,L|92:18,3,46.6666666666667,4|4|4|4,0:3|0:3|0:3|0:3,0:0:0:0:
137,0,239239,1,14,3:1:0:0:
