osu file format v14

[General]
AudioFilename: audio.mp3
AudioLeadIn: 0
PreviewTime: 55483
Countdown: 0
SampleSet: Soft
StackLeniency: 0.7
Mode: 0
LetterboxInBreaks: 0
WidescreenStoryboard: 1

[Editor]
Bookmarks: 8667,23667,38667,55542,70542,85542,100542,115542
DistanceSpacing: 1.1
BeatDivisor: 4
GridSize: 32
TimelineZoom: 2.2

[Metadata]
Title:Midnight Lady
TitleUnicode:Midnight Lady
Artist:Dirty Androids
ArtistUnicode:Dirty Androids
Creator:Pentori
Version:Normal
Source:beatmania IIDX 25 CANNON BALLERS
Tags:bemani sound team destination nu 80s 80's disco funk akitsu daisuke 秋津大祐 shota on osu cubbby cubby -_heatwave_- heatwave electronic video game instrumental
BeatmapID:2508623
BeatmapSetID:1176375

[Difficulty]
HPDrainRate:4
CircleSize:3
OverallDifficulty:5
ApproachRate:6
SliderMultiplier:1.3
SliderTickRate:1

[Events]
//Background and Video events
0,0,"Konachan.com_-_301380_animal_bird_blue_eyes_brown_hair_building_butterfly_cat_city_dress_fish_frog_o.jpg",0,0
//Break Periods
//Storyboard Layer 0 (Background)
//Storyboard Layer 1 (Fail)
//Storyboard Layer 2 (Pass)
//Storyboard Layer 3 (Foreground)
//Storyboard Layer 4 (Overlay)
//Storyboard Sound Samples

[TimingPoints]
1167,468.75,4,2,0,60,1,0
8667,-100,4,2,0,70,0,0
53667,-100,4,2,0,80,0,0
55542,-100,4,2,0,90,0,1
85542,-100,4,2,0,70,0,0
98667,-100,4,2,0,80,0,0
100542,-100,4,2,0,90,0,1
115542,-100,4,2,0,90,0,0
115600,-100,4,2,0,40,0,0
118588,-100,4,2,0,5,0,0

[Colours]
Combo1 : 166,210,255
Combo2 : 187,187,255
Combo3 : 217,179,255

[HitObjects]
414,44,8198,5,4,0:3:0:0:
306,116,8667,6,0,P|242:104|166:93,1,130,4|0,0:0|1:0,0:0:0:0:
123,130,9370,1,2,0:2:0:0:
64,102,9604,2,0,P|24:167|45:225,1,130,4|0,0:3|1:0,0:0:0:0:
102,327,10542,1,4,0:3:0:0:
213,260,11010,1,0,1:0:0:0:
263,301,11245,1,2,0:0:0:0:
249,364,11479,2,0,P|313:352|389:341,1,130,4|0,0:3|1:0,0:0:0:0:
435,219,12417,6,0,P|372:229|322:192,1,130,4|0,0:3|1:0,0:0:0:0:
267,228,13120,1,2,0:0:0:0:
211,193,13354,2,0,P|201:128|189:64,1,130,4|0,0:3|1:0,0:0:0:0:
302,0,14292,1,4,0:3:0:0:
379,103,14760,1,0,1:0:0:0:
418,51,14995,1,2,0:0:0:0:
480,69,15229,2,0,P|498:105|495:139,1,65,4|2,0:3|0:0,0:0:0:0:
458,181,15698,2,0,P|440:217|443:251,1,65,2|2,1:2|0:0,0:0:0:0:
472,297,16167,6,0,P|421:259|359:270,1,130,4|0,0:3|1:0,0:0:0:0:
309,312,16870,1,2,0:0:0:0:
330,373,17104,2,0,P|266:361|190:350,1,130,4|0,0:3|1:0,0:0:0:0:
74,380,18042,1,4,0:3:0:0:
114,256,18510,1,0,1:0:0:0:
60,218,18745,1,2,0:0:0:0:
1,245,18979,2,0,B|-15:151|-15:151|8:105,1,130,4|0,0:3|1:0,0:0:0:0:
124,79,19917,6,0,P|186:89|236:51,1,130,4|0,0:3|1:0,0:0:0:0:
276,102,20620,1,2,0:0:0:0:
335,75,20854,2,0,P|397:64|447:102,1,130,4|0,0:3|1:0,0:0:0:0:
430,231,21792,2,0,P|442:295|453:371,1,130,4|0,0:3|1:0,0:0:0:0:
388,374,22495,1,2,0:0:0:0:
336,334,22729,2,0,P|304:328|266:322,1,65,4|0,0:3|0:0,0:0:0:0:
233,270,23198,1,2,1:2:0:0:
146,366,23667,5,4,0:0:0:0:
36,296,24135,1,0,1:0:0:0:
82,250,24370,1,2,0:0:0:0:
63,187,24604,2,0,P|31:181|-7:175,2,65,4|2|0,0:3|0:0|1:0,0:0:0:0:
153,93,25542,2,0,P|217:81|293:70,1,130,4|0,0:3|1:0,0:0:0:0:
328,26,26245,1,2,0:0:0:0:
388,49,26479,2,0,P|426:99|415:161,1,130,4|0,0:3|1:0,0:0:0:0:
509,250,27417,5,4,0:3:0:0:
451,366,27885,1,0,1:0:0:0:
405,318,28120,1,2,0:0:0:0:
345,343,28354,2,0,P|280:352|216:364,1,130,4|0,0:3|1:0,0:0:0:0:
125,271,29292,1,4,0:3:0:0:
189,156,29760,1,0,1:0:0:0:
232,204,29995,1,2,0:0:0:0:
294,186,30229,2,0,P|310:158|311:125,1,65,4|0,0:3|0:0,0:0:0:0:
356,79,30698,2,0,P|339:51|311:34,1,65,2|2,1:2|0:0,0:0:0:0:
252,7,31167,5,4,0:3:0:0:
132,58,31635,2,0,P|138:90|144:128,1,65,0|2,1:0|0:0,0:0:0:0:
89,158,32104,2,0,B|104:188|104:188|88:282,1,130,4|0,0:3|1:0,0:0:0:0:
182,373,33042,2,0,P|232:335|294:346,1,130,4|0,0:3|1:0,0:0:0:0:
336,296,33745,1,2,0:0:0:0:
397,316,33979,2,0,P|406:251|418:187,1,130,4|0,0:3|1:0,0:0:0:0:
444,60,34917,5,4,0:3:0:0:
317,87,35385,1,0,1:0:0:0:
270,133,35620,1,2,0:0:0:0:
297,191,35854,2,0,P|234:180|169:171,1,130,4|0,0:3|1:0,0:0:0:0:
41,142,36792,2,0,P|4:192|15:254,1,130,4|0,0:3|1:0,0:0:0:0:
55,303,37495,1,2,0:0:0:0:
118,287,37729,2,0,P|124:319|130:351,1,65,4|4,0:3|0:3,0:0:0:0:
185,384,38198,1,0,1:0:0:0:
268,293,38667,5,4,0:0:0:0:
394,322,39135,2,0,P|410:349|411:382,2,65,0|2|4,1:0|0:0|0:3,0:0:0:0:
433,269,39838,1,2,0:0:0:0:
400,212,40073,2,0,P|408:147|420:83,1,130,0|4,1:0|0:3,0:0:0:0:
319,0,41010,1,0,1:0:0:0:
271,44,41245,1,2,0:0:0:0:
210,19,41479,2,0,P|178:13|146:7,1,65,4|2,0:3|0:0,0:0:0:0:
90,40,41948,1,0,1:0:0:0:
11,143,42417,6,0,P|61:180|123:169,1,130,4|0,0:3|1:0,0:0:0:0:
173,127,43120,1,2,0:0:0:0:
231,154,43354,2,0,P|248:182|249:215,2,65,4|2|0,0:3|0:0|1:0,0:0:0:0:
350,165,44292,1,4,0:3:0:0:
391,114,44526,1,2,0:0:0:0:
363,55,44760,2,0,P|395:49|427:43,2,65,0|2|4,1:0|0:0|0:3,0:0:0:0:
242,5,45698,2,0,P|225:32|224:65,1,65,0|2,1:0|0:0,0:0:0:0:
265,114,46167,5,4,0:3:0:0:
156,184,46635,2,0,P|162:216|168:248,2,65,0|2|4,1:0|0:0|0:3,0:0:0:0:
112,135,47338,1,2,0:0:0:0:
47,146,47573,2,0,P|9:196|20:258,1,130,0|4,1:0|0:3,0:0:0:0:
102,358,48510,1,0,1:0:0:0:
146,310,48745,1,2,0:0:0:0:
209,324,48979,2,0,P|226:296|227:264,1,65,4|2,0:3|0:0,0:0:0:0:
192,209,49448,1,0,1:0:0:0:
305,145,49917,6,0,P|369:153|433:165,1,130,4|0,0:3|1:0,0:0:0:0:
482,207,50620,1,2,0:0:0:0:
452,264,50854,2,0,P|436:291|435:324,1,65,4|2,0:3|0:0,0:0:0:0:
476,373,51323,1,0,1:0:0:0:
346,363,51792,2,0,P|281:371|217:383,1,130,4|0,0:3|1:0,0:0:0:0:
248,325,52495,1,4,0:3:0:0:
209,272,52729,2,0,P|177:266|145:260,1,65,0|4,1:0|0:3,0:0:0:0:
91,297,53198,1,4,0:3:0:0:
8,196,53667,5,0,1:0:0:0:
78,86,54135,1,0,1:0:0:0:
204,118,54604,1,0,1:0:0:0:
212,247,55073,2,0,P|244:245|272:229,1,65,0|0,1:0|1:0,0:0:0:0:
311,176,55542,5,4,0:0:0:0:
436,217,56010,1,2,1:2:0:0:
485,259,56245,1,2,0:0:0:0:
463,320,56479,2,0,P|398:327|334:339,1,130,4|0,0:3|1:0,0:0:0:0:
284,297,57182,1,2,0:0:0:0:
155,318,57651,2,0,P|138:345|136:378,2,65,2|0|2,0:0|1:0|0:0,0:0:0:0:
112,268,58354,2,0,P|106:236|100:204,1,65,4|2,0:3|0:0,0:0:0:0:
50,161,58823,1,0,1:0:0:0:
104,42,59292,5,4,0:3:0:0:
215,108,59760,1,2,1:2:0:0:
262,63,59995,1,2,0:0:0:0:
321,89,60229,2,0,P|359:139|348:201,1,130,4|0,0:3|1:0,0:0:0:0:
302,248,60932,1,2,0:0:0:0:
419,303,61401,2,0,P|413:335|407:367,2,65,2|0|2,0:0|1:0|0:0,0:0:0:0:
470,263,62104,2,0,P|464:231|458:199,1,65,4|2,0:3|0:0,0:0:0:0:
471,169,62456,2,0,P|423:173|383:147,1,97.5,2|2,0:0|0:0,0:0:0:0:
327,180,63042,6,0,P|320:115|308:51,1,130,4|2,0:3|1:2,0:0:0:0:
249,22,63745,1,2,0:0:0:0:
192,54,63979,2,0,P|129:65|79:27,1,130,4|0,0:3|1:0,0:0:0:0:
25,64,64682,1,2,0:0:0:0:
104,166,65151,1,2,0:0:0:0:
59,212,65385,2,0,P|53:244|47:276,1,65,0|2,1:0|0:0,0:0:0:0:
85,328,65854,2,0,P|117:322|149:316,1,65,4|0,0:3|0:0,0:0:0:0:
197,272,66323,1,0,1:0:0:0:
309,338,66792,6,0,P|327:302|324:268,1,65,4|2,0:3|0:0,0:0:0:0:
286,226,67260,2,0,P|294:161|306:97,1,130,4|4,1:2|0:3,0:0:0:0:
354,54,67963,1,2,0:0:0:0:
417,67,68198,2,0,P|433:94|434:127,1,65,0|2,1:0|0:0,0:0:0:0:
400,182,68667,1,4,0:3:0:0:
463,295,69135,2,0,P|436:311|403:312,1,65,0|2,1:0|0:0,0:0:0:0:
366,366,69604,2,0,P|339:350|306:349,1,65,4|4,0:3|0:3,0:0:0:0:
277,365,69956,2,0,P|271:316|262:268,1,97.5,2|4,0:0|0:3,0:0:0:0:
276,204,70542,5,4,0:0:0:0:
150,238,71010,2,0,P|118:232|86:226,1,65,2|2,1:2|0:0,0:0:0:0:
74,161,71479,2,0,P|124:123|186:134,1,130,4|0,0:3|1:0,0:0:0:0:
233,179,72182,1,2,0:0:0:0:
288,61,72651,1,2,0:0:0:0:
254,5,72885,2,0,P|221:5|194:22,1,65,0|2,1:0|0:0,0:0:0:0:
133,45,73354,2,0,L|27:29,1,65,4|2,0:3|0:0,0:0:0:0:
13,70,73823,1,0,1:0:0:0:
47,195,74292,5,4,0:3:0:0:
173,163,74760,1,2,1:2:0:0:
212,214,74995,1,2,0:0:0:0:
181,271,75229,2,0,P|245:259|310:251,1,130,4|0,0:3|1:0,0:0:0:0:
345,196,75932,1,2,0:0:0:0:
458,258,76401,1,2,0:0:0:0:
492,202,76635,2,0,P|492:169|475:142,1,65,0|2,1:0|0:0,0:0:0:0:
423,102,77104,2,0,L|358:111,1,65,4|2,0:3|0:0,0:0:0:0:
337,86,77456,2,0,P|297:112|249:107,1,97.5,2|2,0:0|0:0,0:0:0:0:
190,79,78042,6,0,P|201:142|209:207,1,130,4|2,0:3|1:2,0:0:0:0:
263,244,78745,1,2,0:0:0:0:
322,218,78979,2,0,P|360:268|348:330,1,130,4|0,0:3|1:0,0:0:0:0:
305,379,79682,1,4,0:0:0:0:
180,341,80151,2,0,P|148:335|116:329,1,65,4|0,0:3|1:0,0:0:0:0:
51,339,80620,2,0,P|43:274|31:210,1,130,4|4,0:0|0:3,0:0:0:0:
64,153,81323,1,0,1:0:0:0:
161,239,81792,5,4,0:0:0:0:
275,178,82260,1,2,1:2:0:0:
317,129,82495,1,2,0:0:0:0:
290,70,82729,2,0,P|296:38|302:6,2,65,4|2|0,0:3|0:0|1:0,0:0:0:0:
419,60,83667,2,0,P|451:59|478:76,1,65,4|2,0:3|0:0,0:0:0:0:
491,140,84135,2,0,P|485:172|479:204,1,65,0|4,1:0|0:3,0:0:0:0:
424,240,84604,2,0,P|430:272|436:304,1,65,0|4,1:0|0:3,0:0:0:0:
417,330,84956,2,0,P|369:321|320:316,1,97.5,4|4,0:3|0:3,0:0:0:0:
288,259,85542,6,0,P|223:266|159:278,1,130,4|0,0:0|1:0,0:0:0:0:
150,148,86479,2,0,P|100:186|38:175,1,130,2|0,0:0|1:0,0:0:0:0:
0,122,87182,1,2,0:0:0:0:
104,45,87651,1,2,0:0:0:0:
156,6,87885,2,0,P|220:12|284:24,2,130,0|0|0,1:0|0:0|1:0,0:0:0:0:
80,111,89292,6,0,B|96:205|96:205|73:251,1,130,4|0,0:3|1:0,0:0:0:0:
209,244,90229,2,0,P|247:294|236:356,1,130,2|0,0:0|1:0,0:0:0:0:
295,382,90932,1,2,0:0:0:0:
397,301,91401,1,2,0:0:0:0:
457,325,91635,2,0,P|463:260|476:196,1,130,0|0,1:0|0:0,0:0:0:0:
449,68,92573,2,0,P|421:51|389:51,1,65,2|0,1:2|1:0,0:0:0:0:
351,103,93042,6,0,P|301:141|239:130,1,130,4|0,0:3|1:0,0:0:0:0:
120,184,93979,2,0,B|135:153|135:153|119:59,1,130,2|0,0:0|1:0,0:0:0:0:
174,24,94682,1,2,0:0:0:0:
295,71,95151,1,2,0:0:0:0:
343,27,95385,2,0,P|381:77|370:139,2,130,0|0|0,1:0|0:0|1:0,0:0:0:0:
234,98,96792,5,0,1:0:0:0:
108,66,97260,1,0,1:0:0:0:
76,193,97729,1,0,1:0:0:0:
203,224,98198,1,0,1:0:0:0:
330,255,98667,2,0,P|346:228|346:196,1,65,2|2,1:2|1:2,0:0:0:0:
387,145,99135,2,0,P|371:117|343:101,1,65,2|4,1:2|0:3,0:0:0:0:
297,54,99604,1,0,1:0:0:0:
179,110,100073,2,0,P|147:104|115:98,1,65,4|4,0:3|0:3,0:0:0:0:
57,128,100542,5,4,0:0:0:0:
95,251,101010,1,2,1:2:0:0:
141,297,101245,1,2,0:0:0:0:
125,360,101479,2,0,P|188:347|253:340,1,130,4|0,0:3|1:0,0:0:0:0:
286,283,102182,1,2,0:0:0:0:
411,319,102651,2,0,P|405:351|399:383,2,65,2|0|2,0:0|1:0|0:0,0:0:0:0:
471,294,103354,2,0,P|487:267|487:235,1,65,4|2,0:3|0:0,0:0:0:0:
455,176,103823,1,0,1:0:0:0:
333,129,104292,6,0,P|349:156|349:188,1,65,4|2,0:3|0:0,0:0:0:0:
310,241,104760,2,0,P|278:235|246:229,1,65,0|2,1:0|0:0,0:0:0:0:
201,181,105229,2,0,P|168:180|141:196,1,65,4|2,0:3|0:0,0:0:0:0:
115,217,105581,2,0,P|110:168|101:120,1,97.5,2|2,0:0|0:0,0:0:0:0:
58,71,106167,1,4,0:3:0:0:
166,0,106635,1,0,1:0:0:0:
236,108,107104,2,0,P|269:108|296:92,1,65,4|2,0:3|0:0,0:0:0:0:
343,47,107573,2,0,P|376:47|403:63,1,65,2|2,1:2|0:0,0:0:0:0:
464,42,108042,5,4,0:0:0:0:
506,164,108510,1,0,1:0:0:0:
463,213,108745,1,4,0:3:0:0:
401,191,108979,2,0,P|384:218|385:250,1,65,4|2,0:3|0:0,0:0:0:0:
359,271,109331,2,0,P|319:245|271:250,1,97.5,4|4,0:3|0:0,0:0:0:0:
176,339,110151,1,4,0:3:0:0:
133,290,110386,1,0,1:0:0:0:
71,312,110620,2,0,P|32:261|44:199,1,130,4|4,0:0|0:3,0:0:0:0:
90,153,111323,1,0,1:0:0:0:
208,207,111792,6,0,P|240:213|272:219,1,65,4|2,0:0|0:0,0:0:0:0:
321,261,112260,2,0,P|353:255|385:249,1,65,2|2,1:2|0:0,0:0:0:0:
434,206,112729,2,0,B|450:112|450:112|434:81,1,130,4|0,0:3|1:0,0:0:0:0:
312,126,113667,2,0,P|280:127|253:111,1,65,4|2,0:0|0:0,0:0:0:0:
216,56,114135,2,0,P|184:56|157:72,1,65,4|4,0:3|0:3,0:0:0:0:
92,86,114604,6,0,P|98:118|104:150,1,65,2|4,1:2|0:3,0:0:0:0:
78,169,114956,2,0,P|69:216|64:265,1,97.5,2|2,1:2|1:2,0:0:0:0:
109,312,115542,1,4,0:0:0:0:
256,192,115659,12,0,118588,0:0:0:0:
