osu file format v14

[General]
AudioFilename: audio.mp3
AudioLeadIn: 0
PreviewTime: 55483
Countdown: 0
SampleSet: Soft
StackLeniency: 0.8
Mode: 0
LetterboxInBreaks: 0
WidescreenStoryboard: 1

[Editor]
Bookmarks: 8667,23667,38667,55542,70542,85542,100542,115542
DistanceSpacing: 0.4
BeatDivisor: 8
GridSize: 32
TimelineZoom: 3.599998

[Metadata]
Title:Midnight Lady
TitleUnicode:Midnight Lady
Artist:Dirty Androids
ArtistUnicode:Dirty Androids
Creator:Pentori
Version:Extra
Source:beatmania IIDX 25 CANNON BALLERS
Tags:bemani sound team destination nu 80s 80's disco funk akitsu daisuke 秋津大祐 shota on osu cubbby cubby -_heatwave_- heatwave electronic video game instrumental
BeatmapID:2453613
BeatmapSetID:1176375

[Difficulty]
HPDrainRate:6.7
CircleSize:4.1
OverallDifficulty:9
ApproachRate:9.7
SliderMultiplier:3.2
SliderTickRate:1

[Events]
//Background and Video events
0,0,"Konachan.com_-_301380_animal_bird_blue_eyes_brown_hair_building_butterfly_cat_city_dress_fish_frog_o.jpg",0,0
//Break Periods
//Storyboard Layer 0 (Background)
//Storyboard Layer 1 (Fail)
//Storyboard Layer 2 (Pass)
//Storyboard Layer 3 (Foreground)
//Storyboard Layer 4 (Overlay)
//Storyboard Sound Samples

[TimingPoints]
1167,468.75,4,2,0,60,1,0
7963,-125,4,2,0,60,0,0
8667,-100,4,2,0,70,0,0
53667,-100,4,2,0,80,0,0
55542,-100,4,2,0,90,0,1
56479,-200,4,2,0,90,0,1
56948,-66.6666666666667,4,2,0,90,0,1
57182,-100,4,2,0,90,0,1
58940,-50,4,2,0,90,0,1
59292,-200,4,2,0,90,0,1
60698,-66.6666666666667,4,2,0,90,0,1
60932,-100,4,2,0,90,0,1
62104,-50,4,2,0,90,0,1
62807,-100,4,2,0,90,0,1
63042,-200,4,2,0,90,0,1
64448,-66.6666666666667,4,2,0,90,0,1
64682,-100,4,2,0,90,0,1
65971,-50,4,2,0,90,0,1
66792,-200,4,2,0,90,0,1
67260,-50,4,2,0,90,0,1
67729,-200,4,2,0,90,0,1
68198,-66.6666666666667,4,2,0,90,0,1
68432,-100,4,2,0,90,0,1
71479,-200,4,2,0,90,0,1
71948,-66.6666666666667,4,2,0,90,0,1
72182,-100,4,2,0,90,0,1
73940,-50,4,2,0,90,0,1
74292,-200,4,2,0,90,0,1
74760,-50,4,2,0,90,0,1
75229,-200,4,2,0,90,0,1
75698,-66.6666666666667,4,2,0,90,0,1
75932,-100,4,2,0,90,0,1
77104,-50,4,2,0,90,0,1
77807,-100,4,2,0,90,0,1
78042,-200,4,2,0,90,0,1
78510,-50,4,2,0,90,0,1
78979,-200,4,2,0,90,0,1
79682,-100,4,2,0,90,0,1
80620,-66.6666666666667,4,2,0,90,0,1
81323,-100,4,2,0,90,0,1
85542,-200,4,2,0,70,0,0
98667,-200,4,2,0,80,0,0
99370,-100,4,2,0,80,0,0
100542,-100,4,2,0,90,0,1
101479,-200,4,2,0,90,0,1
101948,-66.6666666666667,4,2,0,90,0,1
102182,-100,4,2,0,90,0,1
103940,-50,4,2,0,90,0,1
104292,-100,4,2,0,90,0,1
104760,-66.6666666666667,4,2,0,90,0,1
105229,-50,4,2,0,90,0,1
105932,-100,4,2,0,90,0,1
107338,-66.6666666666667,4,2,0,90,0,1
107573,-50,4,2,0,90,0,1
108042,-100,4,2,0,90,0,1
108979,-200,4,2,0,90,0,1
109682,-100,4,2,0,90,0,1
110620,-66.6666666666667,4,2,0,90,0,1
111323,-100,4,2,0,90,0,1
115542,-100,4,2,0,90,0,0
118588,-100,4,2,0,5,0,0

[Colours]
Combo1 : 166,210,255
Combo2 : 187,187,255
Combo3 : 217,179,255

[HitObjects]
413,241,7963,6,0,P|390:230|352:236,2,42.6666666666667,4|4|4,2:3|2:3|2:3,2:0:0:0:
304,175,8198,6,0,P|283:189|269:225,1,64,4|4,2:3|2:3,2:0:0:0:
287,318,8432,1,4,2:3:0:0:
287,318,8667,6,0,B|204:342|227:258|122:295,1,160,4|2,2:0|2:0,2:0:0:0:
23,247,9018,1,0,2:0:0:0:
23,247,9135,2,0,P|1:284|6:326,1,80,0|0,1:0|2:0,2:0:0:0:
168,169,9370,2,0,L|152:77,1,80,2|0,2:0|2:0,2:0:0:0:
63,147,9604,5,4,2:3:0:0:
328,46,9838,1,2,2:0:0:0:
324,29,9955,1,0,2:0:0:0:
376,119,10073,2,0,P|299:128|245:73,1,160,0|2,1:0|2:0,2:0:0:0:
343,263,10424,1,4,2:3:0:0:
434,200,10542,6,0,L|526:184,1,80,4|0,2:3|2:0,2:0:0:0:
253,324,10776,2,0,P|231:287|236:245,1,80,2|0,2:0|2:0,2:0:0:0:
445,306,11010,2,0,L|429:398,1,80,0|0,1:0|2:0,2:0:0:0:
319,130,11245,1,2,2:0:0:0:
323,147,11362,1,0,2:0:0:0:
343,263,11479,6,0,B|373:92|373:92|317:131,1,240,4|0,2:3|2:0,2:0:0:0:
418,2,11948,2,0,P|473:56|463:132,1,160,0|2,1:0|2:0,2:0:0:0:
319,130,12299,1,4,2:3:0:0:
252,24,12417,6,0,B|149:-3|149:-3|75:29,1,160,4|2,2:3|2:0,2:0:0:0:
153,170,12768,1,0,2:0:0:0:
153,170,12885,2,0,B|170:134|170:134|157:84,1,80,0|0,1:0|2:0,2:0:0:0:
1,204,13120,2,0,L|17:296,1,80,2|0,2:0|2:0,2:0:0:0:
70,129,13354,5,4,2:3:0:0:
253,206,13588,1,2,2:0:0:0:
249,189,13705,1,0,2:0:0:0:
340,186,13823,2,0,B|407:173|407:173|431:179|431:179|497:167,1,160,0|2,1:0|2:0,2:0:0:0:
496,167,14174,1,4,2:3:0:0:
485,259,14292,6,0,L|470:350,1,80,4|0,2:3|2:0,2:0:0:0:
440,89,14526,2,0,L|453:10,1,80,2|0,2:0|2:0,2:0:0:0:
220,192,14760,1,0,1:0:0:0:
270,108,14877,2,0,P|307:86|349:91,2,80,0|2|0,2:0|2:0|2:0,2:0:0:0:
99,0,15229,6,0,L|126:157,1,160,4|2,2:3|2:0,2:0:0:0:
220,192,15581,1,0,2:0:0:0:
80,256,15698,2,0,B|171:227|153:309|249:280,1,160,2|2,1:2|2:0,2:0:0:0:
351,228,16049,1,4,2:3:0:0:
334,345,16166,6,0,P|351:276|444:302,1,160,4|2,2:3|2:0,2:0:0:0:
512,384,16518,1,0,2:0:0:0:
512,384,16635,2,0,L|433:371,1,80,0|0,1:0|2:0,2:0:0:0:
418,174,16870,2,0,L|497:187,1,80,2|0,2:0|2:0,2:0:0:0:
427,278,17104,5,4,2:3:0:0:
218,27,17338,2,0,P|196:64|201:106,1,80,2|0,2:0|2:0,2:0:0:0:
415,36,17573,2,0,P|360:91|284:81,1,160,0|2,1:0|2:0,2:0:0:0:
123,159,17924,1,4,2:3:0:0:
218,257,18042,6,0,B|205:190|205:190|211:166|211:166|199:100,2,160,4|2|0,2:3|2:0|1:0,2:0:0:0:
214,274,18745,1,2,2:0:0:0:
293,198,18863,1,0,2:0:0:0:
386,229,18979,6,0,P|408:266|403:308,1,80,4|0,2:3|2:0,2:0:0:0:
273,101,19213,2,0,L|286:22,1,80,2|0,2:0|2:0,2:0:0:0:
0,115,19448,2,0,P|54:169|131:159,1,160,0|2,1:0|2:0,2:0:0:0:
181,75,19799,1,4,2:3:0:0:
273,101,19917,6,0,L|245:269,1,160,4|2,2:3|2:0,2:0:0:0:
338,307,20268,1,0,2:0:0:0:
338,307,20385,2,0,P|377:308|410:287,1,80,0|0,1:0|2:0,2:0:0:0:
160,312,20620,2,0,P|138:345|140:384,1,80,2|0,2:0|2:0,2:0:0:0:
248,375,20854,5,4,2:3:0:0:
29,297,21088,1,2,2:0:0:0:
25,280,21206,2,0,L|38:201,1,80,2|0,2:0|1:0,2:0:0:0:
108,135,21440,2,0,L|95:56,1,80,2|0,2:0|2:0,2:0:0:0:
14,4,21674,1,2,2:0:0:0:
189,73,21792,6,0,B|272:97|249:13|354:50,1,160,4|2,2:3|2:0,2:0:0:0:
395,141,22143,1,0,2:0:0:0:
395,141,22260,2,0,L|316:128,1,80,0|0,1:0|2:0,2:0:0:0:
493,0,22495,2,0,P|515:37|510:79,1,80,2|0,2:0|2:0,2:0:0:0:
428,58,22729,5,4,2:3:0:0:
479,290,22846,2,0,P|425:236|348:246,1,160,0|0,1:0|2:0,2:0:0:0:
230,372,23198,2,0,B|274:365|291:321|291:321|328:351|382:334,1,160,2|2,1:2|2:0,2:0:0:0:
206,285,23549,1,4,2:3:0:0:
107,310,23667,6,0,L|133:152,1,160,4|2,2:0|2:0,2:0:0:0:
29,83,24018,1,0,2:0:0:0:
29,83,24135,2,0,P|7:120|12:162,1,80,0|0,1:0|2:0,2:0:0:0:
246,114,24370,2,0,P|247:74|226:41,1,80,2|0,2:0|2:0,2:0:0:0:
133,152,24604,5,4,2:3:0:0:
360,45,24838,1,2,2:0:0:0:
356,62,24955,1,0,2:0:0:0:
329,153,25073,2,0,B|396:142|396:142|416:128|416:128|483:117,1,160,0|2,1:0|2:0,2:0:0:0:
455,208,25424,1,4,2:3:0:0:
235,219,25542,6,0,P|252:150|345:176,1,160,4|2,2:3|2:0,2:0:0:0:
391,300,25893,1,0,2:0:0:0:
391,300,26010,2,0,L|312:287,1,80,0|0,1:0|2:0,2:0:0:0:
123,262,26245,2,0,L|136:341,1,80,2|0,2:0|2:0,2:0:0:0:
170,173,26479,6,0,P|116:228|40:219,1,160,4|2,2:3|2:0,2:0:0:0:
163,84,26831,1,0,2:0:0:0:
73,63,26948,2,0,L|86:142,2,80,0|0|2,1:0|2:0|2:0,2:0:0:0:
39,218,27299,1,4,2:3:0:0:
170,173,27417,6,0,L|328:199,1,160,4|2,2:3|2:0,2:0:0:0:
360,327,27768,1,0,2:0:0:0:
360,327,27885,2,0,P|326:307|287:308,1,80,0|0,1:0|2:0,2:0:0:0:
408,141,28120,2,0,P|428:175|426:214,1,80,2|0,2:0|2:0,2:0:0:0:
328,199,28354,5,4,2:3:0:0:
483,22,28588,1,2,2:0:0:0:
487,39,28706,2,0,L|408:26,1,80,2|0,2:0|1:0,2:0:0:0:
322,69,28940,2,0,P|288:49|249:51,1,80,2|0,2:0|2:0,2:0:0:0:
174,111,29174,1,4,2:3:0:0:
271,287,29292,6,0,B|292:237|292:237|265:134,2,160,4|2|0,2:3|2:0|1:0,2:0:0:0:
116,215,29877,1,0,2:0:0:0:
116,215,29995,2,0,L|195:228,1,80,2|0,2:0|2:0,2:0:0:0:
265,384,30229,6,0,B|94:353|94:353|156:328,1,240,4|0,2:3|2:0,2:0:0:0:
271,287,30698,2,0,B|324:264|352:283|352:283|382:323|424:318,1,160,2|2,1:2|2:0,2:0:0:0:
425,231,31049,1,4,2:3:0:0:
492,375,31167,6,0,P|512:341|510:302,2,80,4|0|2,2:3|2:0|2:0,2:0:0:0:
407,157,31518,1,0,2:0:0:0:
407,157,31635,2,0,P|427:191|425:230,1,80,0|0,1:0|2:0,2:0:0:0:
314,302,31870,2,0,L|235:289,1,80,2|0,2:0|2:0,2:0:0:0:
333,210,32104,5,4,2:3:0:0:
108,319,32338,1,2,2:0:0:0:
91,315,32455,1,0,2:0:0:0:
181,367,32573,2,0,P|190:290|135:236,1,160,0|2,1:0|2:0,2:0:0:0:
235,102,32924,1,4,2:3:0:0:
142,147,33042,6,0,L|62:158,1,80,4|0,2:3|2:0,2:0:0:0:
328,57,33276,2,0,L|408:68,1,80,2|0,2:0|2:0,2:0:0:0:
154,61,33510,2,0,P|134:26|136:-12,1,80,0|0,1:0|2:0,2:0:0:0:
316,143,33745,2,0,P|336:178|334:216,1,80,2|0,2:0|2:0,2:0:0:0:
235,102,33979,5,4,2:3:0:0:
225,357,34213,2,0,B|208:321|208:321|221:271,1,80,2|0,2:0|2:0,2:0:0:0:
248,197,34448,2,0,B|157:168|175:250|79:221,1,160,0|2,1:0|2:0,2:0:0:0:
18,170,34799,1,4,2:3:0:0:
218,282,34917,6,0,L|376:256,1,160,4|0,2:3|2:0,2:0:0:0:
467,300,35268,1,0,2:0:0:0:
467,300,35385,2,0,P|487:335|485:373,1,80,0|0,1:0|2:0,2:0:0:0:
464,196,35620,2,0,L|475:116,1,80,2|0,2:0|2:0,2:0:0:0:
394,349,35854,5,4,2:3:0:0:
277,62,36088,2,0,P|257:97|259:135,1,80,2|0,2:0|2:0,2:0:0:0:
375,256,36323,2,0,B|331:249|314:205|314:205|277:235|223:218,1,160,0|2,1:0|2:0,2:0:0:0:
167,160,36674,1,4,2:3:0:0:
77,196,36792,6,0,P|57:161|59:123,1,80,4|0,2:3|2:0,2:0:0:0:
246,239,37026,1,2,2:0:0:0:
242,222,37143,2,0,L|228:300,1,80,2|0,2:0|1:0,2:0:0:0:
149,99,37377,1,2,2:0:0:0:
153,82,37495,2,0,L|167:160,1,80,2|0,2:0|2:0,2:0:0:0:
228,14,37729,5,4,2:3:0:0:
427,49,37846,1,0,1:0:0:0:
334,75,37963,2,0,L|324:22,2,53.3333333333333,4|4|4,2:3|2:3|2:3,2:0:0:0:
325,96,38198,5,0,1:0:0:0:
241,53,38315,1,4,2:3:0:0:
153,82,38432,1,4,2:3:0:0:
114,165,38549,1,4,2:3:0:0:
143,253,38667,6,0,B|210:240|210:240|234:246|234:246|300:234,1,160,4|2,2:0|2:0,2:0:0:0:
313,243,39135,2,0,L|235:257,1,80,0|0,1:0|2:0,2:0:0:0:
73,182,39370,2,0,P|51:219|56:261,1,80,2|0,2:0|2:0,2:0:0:0:
197,336,39604,5,4,2:3:0:0:
180,340,39721,1,0,2:0:0:0:
143,253,39838,2,0,L|157:175,1,80,2|0,2:0|2:0,2:0:0:0:
261,71,40073,2,0,P|207:16|131:25,1,160,0|2,1:0|2:0,2:0:0:0:
130,26,40424,1,0,2:0:0:0:
327,166,40542,6,0,P|366:167|399:146,1,80,4|0,2:3|2:0,2:0:0:0:
177,102,40776,2,0,P|155:135|157:174,1,80,2|0,2:0|2:0,2:0:0:0:
346,67,41010,1,0,1:0:0:0:
342,84,41127,1,0,2:0:0:0:
434,69,41245,2,0,L|512:55,1,80,2|0,2:0|2:0,2:0:0:0:
360,251,41479,6,0,B|277:275|300:191|195:228,1,160,4|2,2:3|2:0,2:0:0:0:
152,290,41831,1,0,2:0:0:0:
250,383,41948,2,0,L|235:293,2,80,0|0|2,1:0|2:0|2:0,2:0:0:0:
334,334,42299,1,4,2:3:0:0:
76,344,42417,6,0,B|54:294|54:294|81:191,1,160,4|2,2:3|2:0,2:0:0:0:
70,180,42885,2,0,L|148:166,1,80,0|0,1:0|2:0,2:0:0:0:
274,19,43120,2,0,P|252:52|254:91,1,80,2|0,2:0|2:0,2:0:0:0:
422,258,43354,6,0,P|368:203|292:212,1,160,4|2,2:3|2:0,2:0:0:0:
291,212,43706,1,0,2:0:0:0:
456,120,43823,2,0,P|457:80|435:48,1,80,0|0,1:0|2:0,2:0:0:0:
254,91,44057,2,0,L|332:105,1,80,2|0,2:0|2:0,2:0:0:0:
355,363,44292,6,0,L|341:285,1,80,4|0,2:3|2:0,2:0:0:0:
108,234,44526,2,0,B|91:270|91:270|104:320,1,80,2|0,2:0|2:0,2:0:0:0:
237,218,44760,1,0,1:0:0:0:
233,201,44877,1,0,2:0:0:0:
183,282,44995,2,0,P|215:304|254:302,1,80,2|0,2:0|2:0,2:0:0:0:
418,241,45229,6,0,B|437:131|437:131|435:115|435:115|460:-21,1,240,4|0,2:3|2:0,2:0:0:0:
331,146,45698,2,0,P|254:155|200:100,1,160,0|2,1:0|2:0,2:0:0:0:
100,282,46049,1,4,2:3:0:0:
16,251,46167,6,0,P|70:195|146:205,1,160,4|2,2:3|2:0,2:0:0:0:
141,189,46635,2,0,P|163:156|161:117,1,80,0|0,1:0|2:0,2:0:0:0:
0,70,46870,2,0,P|34:87|52:123,1,80,2|0,2:0|2:0,2:0:0:0:
100,282,47104,6,0,B|166:294|166:294|190:288|190:288|257:301,1,160,4|2,2:3|2:0,2:0:0:0:
256,300,47456,1,0,2:0:0:0:
360,321,47573,2,0,L|346:243,1,80,0|0,1:0|2:0,2:0:0:0:
453,127,47807,2,0,P|475:160|473:199,1,80,2|0,2:0|2:0,2:0:0:0:
248,177,48042,6,0,L|262:99,1,80,4|0,2:3|2:0,2:0:0:0:
100,282,48276,2,0,P|133:260|172:262,1,80,2|0,2:0|2:0,2:0:0:0:
54,75,48510,1,0,1:0:0:0:
50,58,48627,1,0,2:0:0:0:
0,139,48745,2,0,P|32:161|71:159,1,80,2|0,2:0|2:0,2:0:0:0:
262,98,48979,5,4,2:3:0:0:
186,167,49096,2,0,L|172:245,2,80,0|2|0,2:0|2:0|2:0,2:0:0:0:
331,301,49448,2,0,B|278:278|250:297|250:297|220:337|178:332,1,160,0|2,1:0|2:0,2:0:0:0:
104,301,49799,1,4,2:3:0:0:
360,217,49917,6,0,P|415:271|405:347,1,160,4|2,2:3|2:0,2:0:0:0:
411,362,50385,2,0,L|489:348,1,80,0|0,1:0|2:0,2:0:0:0:
252,286,50620,2,0,L|330:300,1,80,2|0,2:0|2:0,2:0:0:0:
512,176,50854,6,0,L|354:202,1,160,4|2,2:3|2:0,2:0:0:0:
354,201,51206,1,0,2:0:0:0:
252,41,51323,2,0,P|230:74|232:113,1,80,0|0,1:0|2:0,2:0:0:0:
424,78,51557,2,0,L|438:0,1,80,2|0,2:0|2:0,2:0:0:0:
324,99,51792,6,0,B|265:61|196:106|218:115|171:170|93:142,1,240,4|0,2:3|2:0,2:0:0:0:
58,36,52260,2,0,P|97:34|129:56,1,80,0|0,1:0|2:0,2:0:0:0:
279,178,52495,2,0,L|269:231,2,53.3333333333333,4|4|4,2:3|2:3|2:3,2:0:0:0:
273,322,52729,5,0,1:0:0:0:
152,174,52846,1,4,2:3:0:0:
95,353,52963,1,4,2:3:0:0:
176,307,53081,1,4,2:3:0:0:
71,232,53198,5,4,2:3:0:0:
75,261,53315,1,4,2:3:0:0:
277,353,53432,5,4,2:3:0:0:
273,322,53549,1,4,2:3:0:0:
176,307,53667,6,0,B|206:136|206:136|150:175,1,240,0|0,1:0|2:0,2:0:0:0:
125,13,54135,6,0,P|18:28|32:136,1,240,0|0,1:0|2:0,2:0:0:0:
277,353,54604,6,0,B|387:334|387:334|403:336|403:336|539:311,1,240,0|0,1:0|2:0,2:0:0:0:
502,211,55073,5,0,1:0:0:0:
379,190,55190,1,0,1:0:0:0:
257,169,55307,1,0,1:0:0:0:
135,150,55424,1,0,1:0:0:0:
15,129,55542,6,0,L|28:207,1,80,4|0,2:0|2:0,2:0:0:0:
265,85,55776,2,0,P|266:45|244:13,1,80,2|0,2:0|2:0,2:0:0:0:
0,0,56010,5,2,1:2:0:0:
174,71,56127,1,2,2:0:0:0:
76,51,56245,5,2,2:0:0:0:
244,13,56362,1,2,2:0:0:0:
197,234,56479,6,0,B|214:198|214:198|201:148,1,80,4|2,2:3|2:0,2:0:0:0:
109,192,56831,1,0,2:0:0:0:
291,124,56948,2,0,P|339:162|407:142,1,120.000004577637,0|0,1:0|2:0,2:0:0:0:
106,176,57182,2,0,L|28:163,1,80,2|0,2:0|2:0,2:0:0:0:
233,384,57417,6,0,L|220:306,1,80,4|0,2:3|2:0,2:0:0:0:
354,384,57651,1,2,2:0:0:0:
422,308,57768,1,0,2:0:0:0:
512,353,57885,2,0,P|522:276|467:222,1,160,0|2,1:0|2:0,2:0:0:0:
366,225,58237,5,0,2:0:0:0:
487,58,58354,1,4,2:3:0:0:
480,72,58588,6,0,P|440:73|408:51,1,80,2|0,2:0|2:0,2:0:0:0:
211,248,58823,1,0,1:0:0:0:
126,192,58940,2,0,B|170:186|187:142|187:142|223:172|276:155,1,160,2|0,2:0|2:0,2:0:0:0:
326,96,59174,1,0,2:0:0:0:
136,12,59292,6,0,P|98:60|118:128,1,120.000004577637,4|0,2:3|2:0,2:0:0:0:
259,159,59760,5,2,1:2:0:0:
183,80,59877,1,2,2:0:0:0:
183,229,59995,5,2,2:0:0:0:
259,10,60112,1,2,2:0:0:0:
410,109,60229,6,0,P|377:131|338:129,1,80,4|2,2:3|2:0,2:0:0:0:
183,229,60581,1,0,2:0:0:0:
254,178,60698,2,0,P|206:140|138:160,1,120.000004577637,0|0,1:0|2:0,2:0:0:0:
36,83,60932,2,0,B|25:44|25:44|42:8,1,80,2|0,2:0|2:0,2:0:0:0:
183,229,61167,6,0,B|200:265|200:265|189:303,1,80,4|0,2:3|2:0,2:0:0:0:
0,384,61401,2,0,L|26:226,1,160,2|0,2:0|1:0,2:0:0:0:
109,273,61752,1,0,2:0:0:0:
194,142,61870,2,0,L|116:155,1,80,2|0,2:0|2:0,2:0:0:0:
282,324,62104,6,0,B|335:301|363:320|363:320|393:360|435:355,1,160,4|0,2:3|2:0,2:0:0:0:
512,208,62338,1,2,2:0:0:0:
435,268,62456,2,0,B|422:201|422:201|428:177|428:177|416:111,1,160,2|0,2:0|1:0,2:0:0:0:
503,10,62690,1,0,2:0:0:0:
353,43,62807,2,0,P|315:91|335:159,1,120,2|0,2:0|2:0,2:0:0:0:
324,145,63042,6,0,L|195:123,1,120,4|0,2:3|2:0,2:0:0:0:
118,244,63510,5,2,1:2:0:0:
236,223,63627,1,2,2:0:0:0:
149,342,63745,5,2,2:0:0:0:
205,125,63862,1,2,2:0:0:0:
22,189,63979,6,0,P|0:222|2:261,1,80,4|2,2:3|2:0,2:0:0:0:
236,223,64331,1,0,2:0:0:0:
118,244,64448,2,0,L|247:222,1,120.000004577637,0|0,1:0|2:0,2:0:0:0:
131,55,64682,2,0,L|118:133,1,80,2|0,2:0|2:0,2:0:0:0:
351,379,64917,6,0,L|377:221,1,160,4|2,2:3|2:0,2:0:0:0:
448,114,65268,1,0,2:0:0:0:
335,49,65385,2,0,P|313:82|315:121,1,80,0|0,1:0|2:0,2:0:0:0:
455,281,65620,5,2,2:0:0:0:
377,221,65737,1,2,2:0:0:0:
282,267,65854,1,4,2:3:0:0:
278,251,65971,2,0,B|195:275|218:191|113:228,1,160,2|0,2:0|2:0,2:0:0:0:
60,373,66206,2,0,P|133:377|153:305,1,160,2|0,2:0|1:0,2:0:0:0:
0,210,66440,1,2,2:0:0:0:
28,122,66557,2,0,L|59:312,1,160,2|0,2:0|2:0,2:0:0:0:
287,32,66792,6,0,L|278:81,1,40,4|0,2:3|2:0,2:0:0:0:
288,108,67026,2,0,L|294:68,1,40,2|0,2:0|2:0,2:0:0:0:
127,96,67260,6,0,B|277:70|277:70|299:72|299:72|485:38,1,320,4|2,1:2|2:0,2:0:0:0:
395,245,67612,1,0,2:0:0:0:
336,178,67729,6,0,P|373:156|415:161,1,80,4|2,2:3|2:0,2:0:0:0:
483,302,68081,1,0,2:0:0:0:
267,384,68198,2,0,L|287:265,1,120.000004577637,0|0,1:0|2:0,2:0:0:0:
395,245,68432,2,0,L|382:323,1,80,2|0,2:0|2:0,2:0:0:0:
170,142,68667,6,0,B|214:148|231:192|231:192|267:162|320:179,1,160,4|2,2:3|2:0,2:0:0:0:
148,225,69018,1,0,2:0:0:0:
242,14,69135,2,0,P|264:47|263:87,1,80,0|0,1:0|2:0,2:0:0:0:
62,268,69370,2,0,L|49:190,1,80,2|0,2:0|2:0,2:0:0:0:
0,14,69604,5,4,2:3:0:0:
180,70,69721,1,0,1:0:0:0:
82,95,69838,2,0,L|92:42,2,53.3333333333333,4|4|4,2:3|2:3|2:3,2:0:0:0:
91,116,70073,5,0,1:0:0:0:
180,70,70190,1,4,2:3:0:0:
274,101,70307,1,4,2:3:0:0:
316,189,70424,1,4,2:3:0:0:
285,283,70542,6,0,L|207:296,1,80,4|0,2:0|2:0,2:0:0:0:
459,203,70776,2,0,P|481:236|480:276,1,80,2|0,2:0|2:0,2:0:0:0:
417,104,71010,5,2,1:2:0:0:
316,189,71127,1,2,2:0:0:0:
344,32,71245,5,2,2:0:0:0:
389,261,71362,1,2,2:0:0:0:
145,153,71479,6,0,L|67:140,1,80,4|2,2:3|2:0,2:0:0:0:
0,66,71831,1,0,2:0:0:0:
187,0,71948,2,0,P|139:38|71:18,1,120.000004577637,0|0,1:0|2:0,2:0:0:0:
216,98,72182,2,0,P|238:131|237:171,1,80,2|0,2:0|2:0,2:0:0:0:
74,329,72417,6,0,L|61:251,1,80,4|0,2:3|2:0,2:0:0:0:
145,153,72651,1,2,2:0:0:0:
237,170,72768,1,0,2:0:0:0:
295,97,72885,2,0,P|295:57|273:24,1,80,0|0,1:0|2:0,2:0:0:0:
330,184,73120,5,2,2:0:0:0:
213,82,73237,1,0,2:0:0:0:
173,299,73354,1,4,2:3:0:0:
169,282,73588,6,0,L|248:295,1,80,2|0,2:0|2:0,2:0:0:0:
330,184,73823,1,0,1:0:0:0:
498,245,73940,2,0,B|431:256|431:256|411:270|411:270|344:281,1,160,2|0,2:0|2:0,2:0:0:0:
248,295,74174,1,0,2:0:0:0:
398,137,74292,6,0,P|350:99|282:119,1,120.000004577637,4|0,2:3|2:0,2:0:0:0:
291,91,74760,6,0,P|236:145|160:135,1,160,2|2,1:2|2:0,2:0:0:0:
25,384,74995,2,0,P|80:330|156:340,1,160,2|2,2:0|2:0,2:0:0:0:
23,165,75229,6,0,L|36:244,1,80,4|2,2:3|2:0,2:0:0:0:
159,134,75581,1,0,2:0:0:0:
177,222,75698,2,0,L|155:351,1,120.000004577637,0|0,1:0|2:0,2:0:0:0:
300,231,75932,2,0,P|300:191|278:158,1,80,2|0,2:0|2:0,2:0:0:0:
145,39,76167,6,0,P|179:58|218:56,1,80,4|0,2:3|2:0,2:0:0:0:
389,0,76401,2,0,P|354:19|336:54,1,80,2|0,2:0|2:0,2:0:0:0:
439,165,76635,2,0,L|426:86,2,80,0|0|2,1:0|2:0|2:0,2:0:0:0:
512,67,76987,1,0,2:0:0:0:
415,259,77104,6,0,B|371:253|354:209|354:209|318:239|265:222,1,160,4|0,2:3|2:0,2:0:0:0:
215,106,77338,1,2,2:0:0:0:
300,140,77456,2,0,P|245:194|169:184,1,160,2|0,2:0|1:0,2:0:0:0:
74,213,77690,1,0,2:0:0:0:
24,128,77807,2,0,L|44:10,1,120,2|0,2:0|2:0,2:0:0:0:
44,9,78042,6,0,B|80:26|80:26|176:9,1,120,4|0,2:3|2:0,2:0:0:0:
169,23,78510,6,0,B|158:90|158:90|144:110|144:110|133:177,1,160,2|2,1:2|2:0,2:0:0:0:
366,354,78745,2,0,B|355:287|355:287|341:267|341:267|330:200,1,160,2|2,2:0|2:0,2:0:0:0:
511,16,78979,6,0,L|498:95,1,80,4|2,2:3|2:0,2:0:0:0:
512,195,79331,1,4,2:3:0:0:
312,107,79448,5,0,1:0:0:0:
399,56,79565,1,0,1:0:0:0:
330,200,79682,6,0,B|255:219|223:161|247:163|202:90|123:124,1,240,4|0,2:0|2:0,2:0:0:0:
35,253,80151,5,4,2:3:0:0:
157,206,80268,1,4,2:3:0:0:
198,358,80385,5,0,1:0:0:0:
210,328,80502,1,0,1:0:0:0:
330,200,80620,6,0,B|374:170|438:191|456:251|433:294|433:294|438:271|428:247|409:236,1,240.000009155274,4|0,2:0|2:0,2:0:0:0:
334,293,80971,5,0,1:0:0:0:
512,369,81088,1,4,2:3:0:0:
512,195,81206,5,0,1:0:0:0:
422,247,81323,2,0,L|409:168,1,80,0|0,1:0|2:0,2:0:0:0:
508,41,81557,5,4,2:3:0:0:
504,72,81674,1,0,1:0:0:0:
381,38,81792,6,0,P|341:38|308:60,1,80,4|0,2:0|2:0,2:0:0:0:
130,10,82026,2,0,P|108:44|108:83,1,80,0|0,2:0|2:0,2:0:0:0:
120,246,82260,5,2,1:2:0:0:
210,74,82377,1,2,2:0:0:0:
222,178,82495,5,2,2:0:0:0:
130,10,82612,1,2,2:0:0:0:
78,160,82729,6,0,L|-1:147,1,80,4|0,2:3|2:0,2:0:0:0:
273,384,82963,2,0,B|290:348|290:348|277:298,1,80,2|0,2:0|2:0,2:0:0:0:
211,236,83198,1,0,1:0:0:0:
34,362,83315,2,0,B|101:349|101:349|125:355|125:355|191:343,1,160,2|0,2:0|2:0,2:0:0:0:
117,163,83667,5,4,2:3:0:0:
211,236,83784,1,0,2:0:0:0:
315,176,83901,2,0,P|336:143|337:103,1,80,2|0,2:0|2:0,2:0:0:0:
198,31,84135,2,0,P|219:64|220:104,1,80,0|0,1:0|2:0,2:0:0:0:
117,163,84370,2,0,L|64:153,2,53.3333333333333,4|4|4,2:3|2:3|2:3,2:0:0:0:
78,252,84604,5,0,1:0:0:0:
220,104,84721,1,4,2:3:0:0:
277,300,84838,1,4,2:3:0:0:
211,236,84956,1,4,2:3:0:0:
161,353,85073,5,4,2:3:0:0:
190,349,85190,1,4,2:3:0:0:
277,300,85307,5,4,2:3:0:0:
306,304,85424,1,4,2:3:0:0:
402,352,85542,6,0,P|412:275|357:221,1,160,4|0,2:0|1:0,2:0:0:0:
366,126,86245,1,2,2:0:0:0:
366,126,86362,1,4,2:3:0:0:
366,126,86479,2,0,P|326:123|294:146,1,80,2|4,2:0|2:3,2:0:0:0:
200,115,86948,2,0,P|178:147|182:187,1,80,0|2,1:0|2:0,2:0:0:0:
191,206,87299,2,0,L|184:245,1,40,2|0,2:0|2:0,2:0:0:0:
84,321,87651,6,0,L|92:367,1,40,2|0,2:0|2:0,2:0:0:0:
1,346,87885,2,0,B|-10:308|-10:308|7:272,1,80,0|2,1:0|2:0,2:0:0:0:
7,272,88237,1,4,2:3:0:0:
7,272,88354,2,0,B|17:234|17:234|0:198,1,80,0|2,2:0|2:0,2:0:0:0:
68,122,88823,2,0,P|137:139|111:232,1,160,0|4,1:0|2:3,2:0:0:0:
282,134,89526,5,2,2:0:0:0:
386,118,89760,2,0,L|372:196,1,80,0|2,1:0|2:0,2:0:0:0:
382,213,90112,2,0,L|421:206,1,40,4|2,2:3|2:0,2:0:0:0:
322,285,90463,1,2,2:0:0:0:
244,246,90698,2,0,P|204:243|172:266,1,80,0|2,1:0|2:0,2:0:0:0:
172,266,91049,1,4,2:3:0:0:
172,266,91167,6,0,P|132:268|100:245,1,80,0|2,2:0|2:0,2:0:0:0:
14,213,91635,2,0,L|0:135,1,80,0|2,1:0|2:0,2:0:0:0:
11,117,91987,1,4,2:3:0:0:
142,0,92221,1,2,1:2:0:0:
155,14,92338,2,0,P|163:40|161:61,1,40,2|0,2:0|2:0,2:0:0:0:
29,35,92573,2,0,P|55:41|72:53,1,40,2|0,1:2|2:0,2:0:0:0:
161,161,92807,5,0,1:0:0:0:
235,147,92924,1,0,1:0:0:0:
309,133,93042,1,4,2:3:0:0:
361,258,93276,2,0,L|283:244,2,80,2|0|2,2:0|1:0|2:0,2:0:0:0:
361,258,93862,1,4,2:3:0:0:
368,265,93979,2,0,L|446:251,1,80,2|2,2:0|2:0,2:0:0:0:
473,127,94448,2,0,L|395:141,1,80,0|2,1:0|2:0,2:0:0:0:
394,141,94917,5,0,2:0:0:0:
443,31,95151,1,2,2:0:0:0:
359,68,95385,2,0,P|319:71|287:48,1,80,0|2,1:0|2:0,2:0:0:0:
287,48,95737,1,4,2:3:0:0:
287,48,95854,2,0,P|309:80|306:119,1,80,0|2,2:0|2:0,2:0:0:0:
207,184,96323,2,0,L|221:106,1,80,0|0,1:0|1:0,2:0:0:0:
135,126,96674,1,0,1:0:0:0:
70,63,96792,5,0,1:0:0:0:
451,232,97260,1,0,1:0:0:0:
99,289,97729,1,0,1:0:0:0:
480,6,98198,1,0,1:0:0:0:
183,362,98667,5,2,1:2:0:0:
91,39,98901,1,2,1:2:0:0:
416,121,99135,1,2,1:2:0:0:
230,174,99370,6,0,L|240:227,2,53.3333333333333,4|4|4,2:3|2:3|2:3,2:0:0:0:
156,109,99604,5,0,1:0:0:0:
332,189,99721,1,0,1:0:0:0:
155,279,99838,1,0,1:0:0:0:
230,174,99956,1,0,1:0:0:0:
321,289,100073,5,4,2:3:0:0:
325,318,100190,1,4,2:3:0:0:
226,380,100307,5,4,2:3:0:0:
230,351,100424,1,4,2:3:0:0:
155,279,100542,6,0,L|77:292,1,80,4|0,2:0|2:0,2:0:0:0:
12,81,100776,2,0,P|45:59|84:60,1,80,2|0,2:0|2:0,2:0:0:0:
327,43,101010,5,2,1:2:0:0:
152,132,101127,1,2,2:0:0:0:
260,150,101245,5,2,2:0:0:0:
85,61,101362,1,2,2:0:0:0:
327,43,101479,6,0,L|405:56,1,80,4|2,2:3|2:0,2:0:0:0:
497,231,101831,1,0,2:0:0:0:
390,163,101948,2,0,L|519:141,1,120.000004577637,0|0,1:0|2:0,2:0:0:0:
314,220,102182,2,0,P|293:186|294:147,1,80,2|0,2:0|2:0,2:0:0:0:
192,275,102417,6,0,L|179:353,1,80,4|0,2:3|2:0,2:0:0:0:
11,154,102651,1,2,2:0:0:0:
74,225,102768,1,0,2:0:0:0:
163,191,102885,2,0,B|254:162|236:244|332:215,1,160,0|2,1:0|2:0,2:0:0:0:
390,163,103237,5,0,2:0:0:0:
192,275,103354,1,4,2:3:0:0:
196,292,103588,6,0,L|209:214,1,80,2|0,2:0|2:0,2:0:0:0:
0,339,103823,1,0,1:0:0:0:
45,253,103940,2,0,P|99:307|89:383,1,160,2|0,2:0|2:0,2:0:0:0:
196,292,104174,1,0,2:0:0:0:
280,356,104292,6,0,L|358:343,1,80,4|0,2:3|2:0,2:0:0:0:
512,225,104526,2,0,L|434:238,1,80,2|0,2:0|2:0,2:0:0:0:
307,172,104760,6,0,P|269:124|289:56,1,120.000004577637,0|0,1:0|2:0,2:0:0:0:
477,0,104995,2,0,P|515:48|495:116,1,120.000004577637,2|0,2:0|2:0,2:0:0:0:
128,342,105229,6,0,B|169:105|169:105|92:159,1,320,4|2,2:3|2:0,2:0:0:0:
60,62,105581,1,0,2:0:0:0:
278,69,105698,2,0,P|201:78|147:23,1,160,0|0,1:0|2:0,2:0:0:0:
307,172,105932,2,0,P|328:206|327:245,1,80,2|0,2:0|2:0,2:0:0:0:
105,276,106167,6,0,P|159:220|235:230,1,160,4|2,2:3|2:0,2:0:0:0:
292,340,106518,1,0,2:0:0:0:
176,384,106635,2,0,L|189:306,1,80,0|0,1:0|2:0,2:0:0:0:
18,217,106870,2,0,L|5:295,1,80,2|0,2:0|2:0,2:0:0:0:
105,276,107104,6,0,L|131:125,1,120,4|0,2:3|2:0,2:0:0:0:
121,140,107338,6,0,B|216:167|189:71|310:113,1,180.000006866455,2|0,2:0|2:0,2:0:0:0:
294,123,107573,6,0,P|409:123|390:27,1,240,2|0,1:2|2:0,2:0:0:0:
376,33,107807,5,2,2:0:0:0:
427,287,107924,1,0,1:0:0:0:
238,243,108042,6,0,B|194:249|177:293|177:293|141:263|88:280,1,160,4|2,2:0|2:0,2:0:0:0:
257,328,108393,1,4,2:3:0:0:
136,17,108510,2,0,P|115:51|116:90,1,80,0|0,1:0|2:0,2:0:0:0:
449,54,108745,2,0,P|409:52|375:73,1,80,4|0,2:3|2:0,2:0:0:0:
238,243,108979,6,0,L|251:164,1,80,4|2,2:3|2:0,2:0:0:0:
213,72,109331,1,4,2:3:0:0:
398,237,109448,5,0,1:0:0:0:
435,145,109565,1,0,1:0:0:0:
251,164,109682,6,0,B|163:178|163:178|137:175|137:175|114:187|114:187|7:205,1,240,4|0,2:0|2:0,2:0:0:0:
97,384,110151,5,4,2:3:0:0:
152,265,110268,1,4,2:3:0:0:
276,332,110385,5,0,1:0:0:0:
290,361,110502,1,0,1:0:0:0:
512,293,110620,6,0,P|496:189|360:220,1,240.000009155274,4|0,2:0|2:0,2:0:0:0:
268,217,110971,5,0,1:0:0:0:
413,287,111088,1,4,2:3:0:0:
474,137,111206,5,0,1:0:0:0:
381,189,111323,2,0,P|382:149|361:116,1,80,0|0,1:0|2:0,2:0:0:0:
170,237,111557,5,4,2:3:0:0:
166,268,111674,1,0,1:0:0:0:
70,202,111792,6,0,L|57:123,1,80,4|0,2:0|2:0,2:0:0:0:
266,19,112026,2,0,L|253:98,1,80,2|0,2:0|2:0,2:0:0:0:
350,83,112260,5,2,1:2:0:0:
169,135,112377,1,2,2:0:0:0:
421,175,112495,5,2,2:0:0:0:
253,97,112612,1,2,2:0:0:0:
419,23,112729,6,0,P|440:57|439:96,1,80,4|0,2:3|2:0,2:0:0:0:
458,265,112963,2,0,L|379:252,1,80,2|0,2:0|2:0,2:0:0:0:
175,309,113198,1,0,1:0:0:0:
297,206,113315,2,0,P|263:227|224:226,1,80,2|0,2:0|2:0,2:0:0:0:
48,74,113549,1,0,1:0:0:0:
114,221,113667,6,0,L|127:142,1,80,4|0,2:0|2:0,2:0:0:0:
369,67,113901,2,0,B|386:103|386:103|373:153,1,80,2|0,2:0|2:0,2:0:0:0:
273,113,114135,1,4,2:3:0:0:
474,56,114252,1,0,1:0:0:0:
393,241,114370,2,0,L|340:231,2,53.3333333333333,4|4|4,2:3|2:3|2:3,2:0:0:0:
339,319,114604,5,2,1:2:0:0:
252,227,114721,1,4,2:3:0:0:
135,271,114838,1,4,2:3:0:0:
0,317,114956,5,2,1:2:0:0:
123,288,115073,1,4,2:3:0:0:
144,164,115190,1,4,2:3:0:0:
170,24,115307,5,2,1:2:0:0:
133,145,115424,1,4,2:3:0:0:
230,224,115541,1,4,2:0:0:0:
256,192,115600,12,0,118588,2:0:0:0:
