osu file format v14

[General]
AudioFilename: audio.mp3
AudioLeadIn: 0
PreviewTime: 82063
Countdown: 0
SampleSet: Soft
StackLeniency: 0.2
Mode: 0
LetterboxInBreaks: 0
WidescreenStoryboard: 1

[Editor]
Bookmarks: 1247,11042,20838,40430,42879,62471,72267,77165,82063,119869,122471,129818
DistanceSpacing: 0.8
BeatDivisor: 8
GridSize: 16
TimelineZoom: 3.199999

[Metadata]
Title:Egret and Willow
TitleUnicode:Egret and Willow
Artist:Dirty Androids
ArtistUnicode:Dirty Androids
Creator:X Light
Version:nika's Dove and Olive Extra
Source:beatmania IIDX 24 SINOBUZ
Tags:FUTURE BEATS nika mika my angel yayoi music bass game instrumental electronic
BeatmapID:2448956
BeatmapSetID:1159124

[Difficulty]
HPDrainRate:6.3
CircleSize:3.3
OverallDifficulty:8.3
ApproachRate:9.3
SliderMultiplier:2
SliderTickRate:1

[Events]
//Background and Video events
0,0,"bg.jpg",0,0
//Break Periods
//Storyboard Layer 0 (Background)
//Storyboard Layer 1 (Fail)
//Storyboard Layer 2 (Pass)
//Storyboard Layer 3 (Foreground)
//Storyboard Layer 4 (Overlay)
//Storyboard Sound Samples

[TimingPoints]
1247,306.122448979592,4,2,1,20,1,0
1247,-250,4,2,1,20,0,0
6144,-250,4,2,1,30,0,0
11042,-125,4,2,1,50,0,0
20226,-500,4,2,1,50,0,0
20816,-500,4,2,1,50,0,0
20838,-100,4,2,1,70,0,0
21757,-303.030303030303,4,2,1,70,0,0
22063,-100,4,2,1,70,0,0
22981,-303.030303030303,4,2,1,70,0,0
23287,-100,4,2,1,70,0,0
25124,-83.3333333333333,4,2,1,70,0,0
25583,-100,4,2,1,70,0,0
27573,-83.3333333333333,4,2,1,70,0,0
28185,-100,4,2,1,70,0,0
28644,-125,4,2,1,70,0,0
29104,-166.666666666667,4,2,1,70,0,0
30634,-100,4,2,1,70,0,0
31553,-303.030303030303,4,2,1,70,0,0
31859,-100,4,2,1,70,0,0
32777,-200,4,2,1,70,0,0
33083,-100,4,2,1,70,0,0
34920,-166.666666666667,4,2,1,70,0,0
35226,-100,4,2,1,70,0,0
37369,-133.333333333333,4,2,1,70,0,0
37675,-100,4,2,1,70,0,0
37981,-50,4,2,1,70,0,0
38593,-100,4,2,1,70,0,0
40430,-100,4,2,1,50,0,0
41961,-500,4,2,1,50,0,0
42879,-125,4,2,1,50,0,0
46247,-71.4285714285714,4,2,1,50,0,0
46553,-166.666666666667,4,2,1,50,0,0
47777,-125,4,2,1,50,0,0
49155,-166.666666666667,4,2,1,50,0,0
49767,-125,4,2,1,50,0,0
50226,-83.3333333333333,4,2,1,50,0,0
50838,-100,4,2,1,50,0,0
52675,-125,4,2,1,50,0,0
56349,-166.666666666667,4,2,1,50,0,0
57573,-125,4,2,1,50,0,0
59104,-250,4,2,1,50,0,0
59869,-83.3333333333333,4,2,1,50,0,0
62471,-100,4,2,1,50,0,0
64002,-400,4,2,1,50,0,0
64614,-100,4,2,1,50,0,0
66451,-400,4,2,1,50,0,0
67369,-100,4,2,1,50,0,0
68593,-200,4,2,1,50,0,0
68900,-400,4,2,1,50,0,0
69359,-100,4,2,1,50,0,0
72267,-142.857142857143,4,2,1,50,0,0
76837,-142.857142857143,4,2,1,50,0,0
76859,-142.857142857143,4,2,1,30,0,0
77165,-333.333333333334,4,2,1,30,0,0
79614,-666.666666666667,4,2,1,30,0,0
81451,-66.6666666666667,4,2,1,30,0,0
81757,-500,4,2,1,30,0,0
82041,-500,4,2,1,30,0,0
82063,-100,4,2,1,70,0,0
82981,-303.030303030303,4,2,1,70,0,0
83287,-100,4,2,1,70,0,0
84206,-250,4,2,1,70,0,0
84512,-100,4,2,1,70,0,0
86349,-83.3333333333333,4,2,1,70,0,0
86961,-100,4,2,1,70,0,0
88798,-83.3333333333333,4,2,1,70,0,0
89410,-100,4,2,1,70,0,0
89869,-125,4,2,1,70,0,0
90328,-166.666666666667,4,2,1,70,0,0
91859,-100,4,2,1,70,0,0
92777,-303.030303030303,4,2,1,70,0,0
93083,-100,4,2,1,70,0,0
94002,-303.030303030303,4,2,1,70,0,0
94308,-100,4,2,1,70,0,0
98593,-133.333333333333,4,2,1,70,0,0
99206,-100,4,2,1,70,0,0
102573,-151.515151515152,4,2,1,70,0,0
102879,-100,4,2,1,70,0,0
103798,-83.3333333333333,4,2,1,70,0,0
104104,-100,4,2,1,70,0,0
105022,-100,4,2,1,70,0,0
105481,-100,4,2,1,70,0,0
106553,-125,4,2,1,70,0,0
106859,-83.3333333333333,4,2,1,70,0,0
107165,-62.5,4,2,1,70,0,0
107471,-250,4,2,1,70,0,0
107930,-100,4,2,1,70,0,0
109461,-125,4,2,1,70,0,0
109920,-166.666666666667,4,2,1,70,0,0
111451,-62.5,4,2,1,70,0,0
111757,-250,4,2,1,70,0,0
112675,-166.666666666667,4,2,1,70,0,0
113134,-100,4,2,1,70,0,0
115736,-250,4,2,1,70,0,0
116042,-100,4,2,1,70,0,0
118185,-250,4,2,1,70,0,0
118798,-166.666666666667,4,2,1,70,0,0
119410,-100,4,2,1,70,0,0
119847,-100,4,2,1,70,0,0
119869,-500,4,2,1,50,0,0

[Colours]
Combo1 : 91,65,124
Combo2 : 248,190,120
Combo3 : 243,138,52
Combo4 : 183,51,54
Combo5 : 162,251,102

[HitObjects]
117,17,1247,6,0,P|175:24|220:62,1,120,2|0,0:0|0:0,0:0:0:0:
230,82,1859,1,2,0:0:0:0:
30,173,2471,6,0,P|65:125|121:105,1,120,2|0,0:0|0:0,0:0:0:0:
141,108,3083,1,2,0:0:0:0:
121,329,3695,6,0,P|97:274|108:216,1,120,2|0,0:0|0:0,0:0:0:0:
121,199,4308,1,2,0:0:0:0:
226,185,4614,1,2,0:0:0:0:
317,242,4920,6,0,P|346:213|392:206,1,80,2|0,0:0|0:0,0:0:0:0:
461,332,5532,2,0,P|422:323|394:294,1,80,2|0,0:0|0:0,0:0:0:0:
455,79,6144,6,0,L|468:239,1,160,2|0,0:0|0:0,0:0:0:0:
324,131,7063,1,2,0:0:0:0:
176,294,7369,6,0,P|135:279|78:371,2,160,2|0|0,0:0|0:0|0:0,0:0:0:0:
261,338,8747,1,0,0:0:0:0:
321,357,8900,1,0,0:0:0:0:
356,359,9053,1,0,0:0:0:0:
371,355,9206,1,0,0:0:0:0:
378,351,9512,1,0,0:0:0:0:
382,344,9818,5,0,0:0:0:0:
409,252,9971,1,0,0:0:0:0:
478,318,10124,1,0,0:0:0:0:
396,206,10430,5,0,0:0:0:0:
409,252,10583,1,0,0:0:0:0:
444,219,10736,1,0,0:0:0:0:
124,273,11042,6,0,P|176:236|236:236,2,120,6|0|0,1:2|0:0|1:0,0:0:0:0:
324,303,11655,2,0,L|300:299,1,20,8|0,0:2|0:0,0:0:0:0:
93,349,11961,1,0,1:0:0:0:
206,328,12267,5,2,0:0:0:0:
124,273,12573,1,2,1:2:0:0:
47,221,12879,1,10,0:2:0:0:
47,221,13185,1,2,0:2:0:0:
28,130,13338,1,2,0:2:0:0:
113,4,13491,6,0,P|65:41|4:45,2,120,2|0|0,1:2|0:0|1:0,0:0:0:0:
215,160,14104,2,0,L|221:80,1,80,8|0,0:2|0:0,0:0:0:0:
127,236,14410,2,0,L|120:156,1,80,2|2,1:2|0:2,0:0:0:0:
294,355,14716,6,0,P|323:308|309:201,2,160,2|0|8,0:2|1:0|0:2,0:0:0:0:
237,273,15481,1,2,0:0:0:0:
397,341,15634,2,0,P|440:330|465:303,1,80,2|0,0:0|0:0,0:0:0:0:
339,118,15940,6,0,L|499:101,1,160,2|2,1:2|0:0,0:0:0:0:
201,2,16400,1,0,1:0:0:0:
204,16,16553,2,0,L|217:139,1,106.666666666667,8|0,0:2|0:0,0:0:0:0:
124,47,16859,1,2,0:2:0:0:
126,61,16961,2,0,L|133:121,1,53.3333333333333
74,222,17165,6,0,L|155:240,1,80,2|0,0:2|0:0,0:0:0:0:
229,308,17471,2,0,L|310:290,1,80,2|0,1:2|0:0,0:0:0:0:
368,89,17777,2,0,P|304:119|252:196,1,160,8|0,0:2|0:0,0:0:0:0:
406,274,18236,1,0,0:0:0:0:
387,185,18389,1,0,1:0:0:0:
256,192,18542,12,0,19614,0:0:0:0:
421,352,20226,6,0,L|431:286,1,60,2|0,0:2|0:0,0:0:0:0:
421,105,20838,6,0,L|425:157,1,50,4|0,1:2|0:0,0:0:0:0:
494,195,20991,1,2,0:2:0:0:
491,207,21068,1,2,0:0:0:0:
488,218,21144,1,2,0:2:0:0:
290,142,21298,6,0,L|294:194,1,50,0|0,1:0|0:0,0:0:0:0:
363,232,21451,1,10,0:2:0:0:
360,244,21527,1,2,0:2:0:0:
357,255,21604,1,2,0:2:0:0:
159,171,21757,6,0,L|163:223,1,49.499999848938,0|0,1:0|0:0,0:0:0:0:
232,269,22063,1,2,0:2:0:0:
229,281,22139,1,2,0:2:0:0:
226,292,22216,1,2,0:2:0:0:
223,304,22292,1,2,0:2:0:0:
215,374,22369,2,0,L|204:324,1,50,0|0,1:0|0:0,0:0:0:0:
87,248,22522,5,2,0:2:0:0:
22,365,22675,2,0,P|64:333|109:328,1,100,8|0,0:2|0:0,0:0:0:0:
11,206,22981,6,0,L|0:158,1,49.499999848938,2|0,0:2|0:0,0:0:0:0:
97,79,23287,6,0,L|46:71,1,50,0|0,1:0|0:0,0:0:0:0:
162,26,23440,1,2,0:2:0:0:
174,23,23517,1,2,0:0:0:0:
186,20,23593,1,2,0:2:0:0:
246,131,23747,6,0,L|195:123,1,50,0|0,1:0|0:0,0:0:0:0:
311,78,23900,1,10,0:2:0:0:
323,75,23976,1,2,0:0:0:0:
334,72,24053,1,2,0:0:0:0:
509,82,24206,6,0,B|437:81|407:21|407:21|437:81|397:138,1,250,0|0,1:0|0:0,0:0:0:0:
297,196,24665,5,2,0:2:0:0:
379,223,24741,1,2,0:2:0:0:
463,248,24818,2,0,L|512:239,1,50,8|8,0:3|0:3,0:0:0:0:
353,304,24971,2,0,L|303:298,1,50,4|4,0:3|0:3,0:0:0:0:
179,327,25124,6,0,P|81:323|17:273,1,179.999994506836,2|0,0:2|0:0,0:0:0:0:
8,255,25430,1,8,0:2:0:0:
115,193,25583,1,2,0:3:0:0:
115,193,25660,1,2,0:3:0:0:
115,193,25736,6,0,L|120:247,1,50,0|0,1:0|0:0,0:0:0:0:
193,143,25889,2,0,L|197:93,2,50,2|2|2,0:0|0:0|0:0,0:0:0:0:
281,174,26195,6,0,L|286:228,1,50,0|0,1:0|0:0,0:0:0:0:
364,137,26349,2,0,L|368:87,2,50,10|2|2,0:2|0:2|0:2,0:0:0:0:
356,286,26655,6,0,P|414:297|496:244,1,150,0|0,1:0|0:0,0:0:0:0:
454,174,26961,2,0,L|461:125,1,50,2|2,0:2|0:2,0:0:0:0:
471,49,27114,2,0,L|478:0,1,50,2|2,0:2|0:2,0:0:0:0:
369,88,27267,1,0,1:0:0:0:
383,84,27343,1,2,0:0:0:0:
395,80,27420,1,2,0:2:0:0:
308,150,27573,6,0,L|187:125,1,119.999996337891,2|2,0:2|0:2,0:0:0:0:
38,106,27879,1,2,0:3:0:0:
53,100,27956,1,2,0:3:0:0:
69,95,28032,1,2,0:3:0:0:
86,91,28109,1,2,0:3:0:0:
25,162,28185,6,0,P|50:93|117:64,1,150,2|0,1:2|0:0,0:0:0:0:
133,67,28491,1,2,0:2:0:0:
0,365,28644,6,0,P|59:340|91:289,1,120,2|0,1:2|0:0,0:0:0:0:
93,276,28951,1,0,0:0:0:0:
196,353,29104,5,2,1:2:0:0:
279,346,29257,2,0,L|376:339,1,89.9999972534181,2|0,0:0|0:0,0:0:0:0:
230,274,29563,5,2,1:2:0:0:
314,264,29716,2,0,L|413:255,1,89.9999972534181,2|2,0:2|0:2,0:0:0:0:
487,162,30022,5,0,1:0:0:0:
396,29,30175,1,8,0:2:0:0:
414,46,30328,1,2,0:0:0:0:
248,22,30481,1,2,0:0:0:0:
266,39,30634,6,0,L|259:91,1,50,4|0,1:2|0:0,0:0:0:0:
182,135,30787,1,2,0:2:0:0:
185,147,30864,1,2,0:0:0:0:
188,159,30940,1,2,0:2:0:0:
133,17,31093,6,0,L|126:69,1,50,0|0,1:0|0:0,0:0:0:0:
49,113,31247,1,10,0:2:0:0:
52,125,31323,1,2,0:2:0:0:
55,137,31400,1,2,0:2:0:0:
356,152,31553,6,0,L|345:212,1,49.499999848938,2|0,1:2|0:0,0:0:0:0:
436,235,31859,1,2,0:2:0:0:
439,247,31935,1,2,0:2:0:0:
442,259,32012,1,2,0:2:0:0:
445,271,32088,1,2,0:2:0:0:
503,331,32165,6,0,L|450:320,1,50,2|0,1:2|0:0,0:0:0:0:
354,296,32318,1,2,0:2:0:0:
263,328,32471,6,0,P|304:300|353:296,1,100,8|0,0:2|0:0,0:0:0:0:
173,337,32777,6,0,L|123:327,1,49.499999848938,0|2,0:0|0:3,0:0:0:0:
43,304,33007,1,2,0:3:0:0:
9,274,33083,6,0,L|58:265,1,50,0|0,1:0|0:0,0:0:0:0:
118,196,33236,1,2,0:2:0:0:
130,198,33313,1,2,0:0:0:0:
142,201,33389,1,2,0:2:0:0:
43,123,33542,6,0,L|92:114,1,50,0|0,1:0|0:0,0:0:0:0:
152,45,33695,1,10,0:2:0:0:
164,48,33772,1,2,0:0:0:0:
176,50,33849,1,2,0:0:0:0:
317,139,34002,6,0,B|382:180|380:258|380:258|376:310|416:358,1,250,0|0,1:0|0:0,0:0:0:0:
430,364,34461,5,0,1:0:0:0:
367,293,34537,1,0,0:0:0:0:
288,239,34614,2,0,L|230:233,1,50,8|8,1:3|0:3,0:0:0:0:
463,271,34767,2,0,L|515:259,1,50,4|4,0:3|0:3,0:0:0:0:
302,349,34920,6,0,P|273:353|247:368,1,60,10|0,0:2|0:0,0:0:0:0:
142,321,35226,6,0,P|187:323|234:352,1,100,2|2,0:2|0:3,0:0:0:0:
58,384,35456,1,2,0:3:0:0:
58,384,35532,6,0,L|44:282,1,100,0|0,1:0|0:0,0:0:0:0:
129,90,35838,1,2,0:0:0:0:
143,212,35991,1,0,1:0:0:0:
227,60,36144,5,8,0:2:0:0:
229,72,36221,1,0,0:0:0:0:
230,84,36298,1,0,0:0:0:0:
241,182,36451,1,0,1:0:0:0:
325,30,36604,6,0,L|338:142,1,100,2|0,0:2|0:0,0:0:0:0:
339,152,36910,1,2,0:2:0:0:
437,122,37063,5,2,1:2:0:0:
423,0,37216,1,2,0:0:0:0:
501,248,37369,6,0,P|458:212|402:207,1,112.500004291535,10|0,0:2|0:0,0:0:0:0:
496,365,37675,1,2,0:2:0:0:
425,292,37828,1,2,0:2:0:0:
182,334,37981,6,0,L|244:325,6,50,2|0|0|0|0|0|0,1:2|0:0|0:0|0:0|0:0|0:0|0:0,0:0:0:0:
311,281,38287,2,0,L|319:334,6,50,0|0|0|0|0|0|0,1:0|0:0|0:0|0:0|0:0|0:0|0:0,0:0:0:0:
252,207,38593,6,0,L|259:156,1,50,10|0,0:0|0:0,0:0:0:0:
171,177,38747,2,0,L|121:168,1,50,2|0,1:2|0:0,0:0:0:0:
94,85,38900,1,2,0:0:0:0:
36,157,39053,6,0,B|27:219|79:256|66:311,1,150,2|0,1:2|0:0,0:0:0:0:
61,323,39359,1,0,1:0:0:0:
276,354,39512,1,0,1:0:0:0:
421,129,39818,6,0,L|415:162,1,25,8|0,0:2|0:0,0:0:0:0:
383,51,40124,2,0,P|420:141|388:233,1,200,2|0,0:2|1:0,0:0:0:0:
192,254,41961,6,0,P|167:240|153:219,1,50
151,212,42420,2,0,P|149:184|160:160,1,50
297,133,42879,6,0,L|289:184,1,40,2|0,1:2|0:0,0:0:0:0:
386,152,43109,2,0,L|378:203,1,40,2|0,0:2|0:0,0:0:0:0:
474,169,43338,1,2,1:2:0:0:
471,189,43491,6,0,L|465:218,1,20,8|0,0:2|0:0,0:0:0:0:
417,350,43644,1,2,0:0:0:0:
417,350,43798,2,0,L|402:264,1,80,2|0,0:0|0:0,0:0:0:0:
314,269,44027,1,0,0:0:0:0:
322,252,44104,1,0,0:0:0:0:
388,142,44410,5,0,1:0:0:0:
474,169,44563,2,0,L|517:155,1,40,0|2,0:0|0:2,0:0:0:0:
393,30,44716,1,10,0:2:0:0:
393,30,44869,2,0,P|436:50|454:80,1,80,2|2,0:2|0:2,0:0:0:0:
305,115,45175,1,2,0:0:0:0:
201,153,45328,6,0,L|159:146,1,40,2|0,1:2|0:0,0:0:0:0:
172,234,45558,2,0,L|130:227,1,40,2|0,0:2|0:0,0:0:0:0:
145,316,45787,1,2,1:2:0:0:
123,313,45940,6,0,L|95:308,1,20,8|0,0:2|0:0,0:0:0:0:
33,364,46093,1,2,0:0:0:0:
33,364,46247,6,0,P|16:328|17:295,1,69.9999978637696,2|0,0:2|0:0,0:0:0:0:
39,182,46400,1,2,0:0:0:0:
55,217,46553,6,0,P|68:183|67:151,1,59.9999981689454,2|0,0:2|0:0,0:0:0:0:
142,128,46859,2,0,P|119:99|90:84,1,59.9999981689454,2|0,1:2|0:0,0:0:0:0:
155,120,47165,2,0,P|132:91|103:76,1,59.9999981689454,10|0,0:2|1:2,0:0:0:0:
118,0,47471,2,0,P|82:5|54:22,1,59.9999981689454,2|0,0:0|0:0,0:0:0:0:
246,126,47777,6,0,L|259:83,1,40,2|0,1:2|0:0,0:0:0:0:
335,134,48007,2,0,L|349:88,1,40,2|0,0:2|0:0,0:0:0:0:
425,143,48236,1,2,1:2:0:0:
429,127,48389,6,0,L|438:93,1,20,8|0,0:2|0:0,0:0:0:0:
508,177,48542,1,0,0:0:0:0:
445,295,48695,2,0,P|424:251|435:210,1,80,2|0,0:2|0:0,0:0:0:0:
508,177,48925,5,0,0:0:0:0:
512,186,49002,1,2,0:2:0:0:
454,303,49155,1,2,0:2:0:0:
336,301,49308,2,0,L|266:312,1,59.9999981689454,2|2,1:2|0:2,0:0:0:0:
238,209,49614,5,2,0:2:0:0:
145,238,49767,1,2,0:2:0:0:
109,320,49920,1,2,0:0:0:0:
16,304,50073,2,0,L|21:356,1,40,2|0,0:2|0:0,0:0:0:0:
0,363,50226,6,0,P|-6:262|-21:182,2,179.999994506836,2|2|2,1:2|0:2|1:2,0:0:0:0:
67,116,50838,2,0,L|63:147,1,25,8|0,0:2|0:0,0:0:0:0:
154,165,50991,1,2,0:2:0:0:
155,173,51298,1,2,0:2:0:0:
156,181,51451,5,2,0:2:0:0:
271,73,51604,1,0,1:0:0:0:
311,218,51757,2,0,B|280:202|280:202|345:185,1,100,0|0,1:0|0:0,0:0:0:0:
442,195,52063,2,0,B|471:176|471:176|453:240,1,100,8|0,0:2|1:0,0:0:0:0:
396,320,52369,2,0,B|397:354|397:354|350:307,1,100,2|0,0:2|0:0,0:0:0:0:
147,352,52675,6,0,L|200:345,1,40,2|0,1:2|0:0,0:0:0:0:
163,270,52905,2,0,L|216:263,1,40,2|0,0:2|0:0,0:0:0:0:
179,188,53134,1,2,1:2:0:0:
198,185,53287,6,0,L|233:179,1,20,8|0,0:2|0:0,0:0:0:0:
311,218,53593,5,2,0:2:0:0:
460,161,53747,1,2,0:0:0:0:
460,161,53823,1,2,0:0:0:0:
460,161,53900,2,0,L|381:144,1,80,2|0,0:2|0:0,0:0:0:0:
324,72,54129,1,0,0:0:0:0:
324,72,54206,2,0,L|409:62,1,80,2|2,0:2|0:2,0:0:0:0:
219,32,54512,6,0,L|224:59,1,20,10|0,0:2|0:0,0:0:0:0:
196,132,54665,1,2,0:2:0:0:
123,63,54818,1,2,0:0:0:0:
29,184,54971,5,2,0:0:0:0:
29,184,55048,1,2,0:0:0:0:
29,184,55124,2,0,L|40:227,1,40,2|0,1:2|0:0,0:0:0:0:
116,192,55354,2,0,L|127:235,1,40,2|0,0:2|0:0,0:0:0:0:
203,197,55583,1,0,1:0:0:0:
207,216,55736,6,0,L|215:251,1,20,8|0,0:2|0:0,0:0:0:0:
295,341,56042,6,0,L|322:336,1,20,2|0,0:2|0:0,0:0:0:0:
460,355,56195,2,0,L|425:362,1,20,2|0,0:2|0:0,0:0:0:0:
339,260,56349,6,0,P|337:230|349:203,1,59.9999981689454,2|0,0:2|1:0,0:0:0:0:
297,146,56655,2,0,P|321:129|351:126,1,59.9999981689454,2|0,1:2|0:0,0:0:0:0:
488,143,56884,1,0,0:0:0:0:
481,153,56961,2,0,P|456:169|427:173,1,59.9999981689454,10|0,0:2|0:0,0:0:0:0:
385,45,57267,2,0,P|411:58|429:82,1,59.9999981689454,2|0,0:2|0:0,0:0:0:0:
211,132,57573,6,0,L|161:125,1,40,2|0,1:2|0:0,0:0:0:0:
183,217,57803,2,0,L|133:210,1,40,2|0,0:0|0:0,0:0:0:0:
154,305,58032,1,2,1:2:0:0:
134,302,58185,6,0,L|104:297,1,20,8|0,0:2|0:0,0:0:0:0:
37,366,58491,5,2,0:2:0:0:
238,343,58644,1,0,0:0:0:0:
253,334,58798,5,2,0:2:0:0:
335,278,58951,1,2,0:2:0:0:
433,299,59104,2,0,L|424:348,1,40,2|2,1:2|0:2,0:0:0:0:
491,214,59410,5,10,0:2:0:0:
410,131,59563,1,2,0:2:0:0:
428,18,59716,1,2,0:2:0:0:
451,46,59869,2,0,L|387:29,1,59.9999981689454,2|0,0:2|0:0,0:0:0:0:
154,98,60022,6,0,P|230:55|328:63,2,179.999994506836,0|2|0,1:0|0:2|1:0,0:0:0:0:
143,231,60634,6,0,L|135:195,1,29.9999990844727,8|0,0:2|0:0,0:0:0:0:
236,168,60787,1,2,0:0:0:0:
233,185,60940,1,2,0:2:0:0:
230,203,61093,1,2,0:2:0:0:
22,365,61247,6,0,P|71:328|130:331,1,119.999996337891,2|2,0:2|0:2,0:0:0:0:
223,350,61553,2,0,L|252:354,6,29.9999990844727,0|0|0|0|0|0|0,1:0|0:0|0:0|0:0|0:0|0:0|0:0,0:0:0:0:
350,374,61859,6,0,P|410:370|456:330,1,119.999996337891,10|0,0:2|0:0,0:0:0:0:
361,212,62088,1,2,0:2:0:0:
321,284,62165,2,0,P|366:245|425:242,1,119.999996337891,0|2,0:0|0:2,0:0:0:0:
421,40,62471,6,0,B|443:-4|443:-4|471:144,1,200,6|0,1:2|0:0,0:0:0:0:
239,38,62930,1,2,1:2:0:0:
239,38,63083,2,0,P|283:15|336:16,1,100,10|0,0:2|0:0,0:0:0:0:
301,109,63389,2,0,P|257:132|204:131,1,100,2|0,1:2|0:0,0:0:0:0:
139,62,63695,5,2,0:2:0:0:
239,38,63849,1,2,0:2:0:0:
192,177,64002,2,0,P|195:149|210:129,1,50,2|8,0:2|0:2,0:0:0:0:
315,234,64461,5,0,0:0:0:0:
315,234,64614,2,0,P|313:258|299:279,1,50,2|0,0:2|0:0,0:0:0:0:
95,337,64767,1,2,0:2:0:0:
95,337,64843,1,2,0:0:0:0:
95,337,64920,6,0,B|245:356|245:356|213:319,1,200,2|2,1:2|0:2,0:0:0:0:
72,160,65379,1,0,1:0:0:0:
72,160,65532,2,0,P|43:203|45:258,1,100,10|0,0:2|0:0,0:0:0:0:
144,222,65838,2,0,P|173:179|171:124,1,100,2|0,1:2|0:0,0:0:0:0:
101,62,66144,5,2,0:2:0:0:
72,160,66298,1,2,0:2:0:0:
219,150,66451,2,0,P|197:136|171:133,2,50,2|10|0,0:2|0:2|0:0,0:0:0:0:
320,272,67216,5,2,0:2:0:0:
320,272,67369,6,0,B|472:257|472:257|430:232,1,200,2|2,1:2|0:2,0:0:0:0:
241,335,67828,1,2,1:2:0:0:
241,335,67981,2,0,P|197:306|151:304,1,100,10|0,0:2|0:0,0:0:0:0:
0,347,68287,2,0,P|44:376|90:378,1,100,0|0,1:0|0:0,0:0:0:0:
67,289,68517,1,2,0:0:0:0:
67,289,68593,6,0,L|60:239,1,50,2|2,0:2|0:2,0:0:0:0:
135,187,68900,2,0,L|142:137,1,50,2|10,0:2|0:2,0:0:0:0:
156,54,69359,5,0,0:0:0:0:
50,150,69512,1,2,0:2:0:0:
48,137,69588,1,0,0:0:0:0:
46,125,69665,1,2,0:0:0:0:
44,112,69741,1,0,0:0:0:0:
33,41,69818,6,0,B|8:82|8:82|157:53,1,200,2|2,1:2|0:2,0:0:0:0:
334,112,70277,1,0,1:0:0:0:
334,112,70430,2,0,P|386:110|423:80,1,100,10|0,0:2|0:0,0:0:0:0:
354,27,70736,5,2,1:2:0:0:
239,139,70889,1,2,0:2:0:0:
394,186,71042,2,0,B|446:183|446:183|486:210,1,100,2|0,0:2|0:0,0:0:0:0:
486,210,71272,1,0,0:0:0:0:
486,210,71349,1,2,0:0:0:0:
326,257,71502,1,2,0:2:0:0:
443,372,71655,5,10,0:2:0:0:
239,316,71808,1,0,0:0:0:0:
326,257,71961,1,2,0:2:0:0:
109,311,72114,1,2,0:0:0:0:
29,354,72267,6,0,B|18:307|18:307|49:213,1,139.999995727539,6|0,1:2|0:0,0:0:0:0:
109,311,72726,1,2,0:0:0:0:
20,351,72879,2,0,B|9:304|9:304|40:210,1,139.999995727539,8|2,1:2|0:2,0:0:0:0:
223,165,73491,5,2,1:2:0:0:
133,150,73644,1,2,0:0:0:0:
43,135,73798,1,2,0:2:0:0:
218,152,73951,1,2,0:2:0:0:
348,46,74104,6,0,L|445:62,2,93.3333304850261,10|2|2,1:2|0:2|0:2,0:0:0:0:
381,172,74716,6,0,B|413:146|413:146|513:132,1,139.999995727539,6|0,1:2|0:0,0:0:0:0:
447,226,75175,1,2,0:2:0:0:
376,164,75328,2,0,B|408:138|408:138|508:124,1,139.999995727539,8|2,1:2|0:2,0:0:0:0:
358,252,75787,1,2,0:0:0:0:
316,370,75940,6,0,L|213:353,1,104.999996795654,2|0,1:2|0:0,0:0:0:0:
124,372,76247,2,0,L|17:355,1,104.999996795654,2|0,1:2|0:0,0:0:0:0:
62,215,76553,5,2,1:2:0:0:
53,263,76655,1,0,0:0:0:0:
101,246,76757,1,0,0:0:0:0:
200,205,76859,5,2,1:2:0:0:
245,167,76961,1,0,0:0:0:0:
257,225,77063,1,0,0:0:0:0:
234,198,77165,6,0,P|250:227|252:260,1,59.9999981689454,2|0,0:2|0:0,0:0:0:0:
116,133,77777,2,0,P|149:133|178:148,1,59.9999981689454,2|0,0:2|0:0,0:0:0:0:
0,202,78389,2,0,P|17:173|44:155,1,59.9999981689454,2|0,0:2|0:0,0:0:0:0:
139,37,78849,1,0,0:0:0:0:
227,80,79002,2,0,L|271:74,2,39.9999987792969,2|0|0,0:2|0:0|0:0,0:0:0:0:
490,151,79614,6,0,L|340:130,1,149.999995422363,6|0,0:2|0:0,0:0:0:0:
490,151,81451,6,0,L|340:130,1,149.999995422363,2|0,0:0|0:0,0:0:0:0:
269,175,81757,6,0,P|259:155|257:139,1,30,2|0,0:0|0:0,0:0:0:0:
296,14,82063,6,0,L|289:71,1,50,4|0,1:2|0:0,0:0:0:0:
174,44,82216,1,2,0:2:0:0:
186,40,82292,1,2,0:0:0:0:
198,37,82369,1,2,0:2:0:0:
163,129,82522,6,0,L|156:186,1,50,0|0,1:0|0:0,0:0:0:0:
41,159,82675,1,10,0:2:0:0:
53,155,82752,1,2,0:2:0:0:
65,152,82828,1,2,0:2:0:0:
30,244,82981,6,0,L|23:301,1,50,0|0,1:0|0:0,0:0:0:0:
101,354,83287,1,2,0:2:0:0:
113,350,83364,1,2,0:2:0:0:
125,347,83440,1,2,0:2:0:0:
137,343,83517,1,2,0:2:0:0:
218,367,83593,2,0,L|269:376,1,50,0|0,1:0|0:0,0:0:0:0:
413,222,83747,5,2,0:2:0:0:
512,343,83900,2,0,P|472:318|422:316,1,100,8|0,0:2|0:0,0:0:0:0:
335,321,84206,6,0,L|324:262,1,60
193,223,84512,6,0,L|244:234,1,50,0|0,1:0|0:0,0:0:0:0:
314,179,84665,1,2,0:2:0:0:
325,177,84741,1,2,0:0:0:0:
337,174,84818,1,2,0:2:0:0:
354,86,84971,6,0,L|405:97,1,50,0|0,1:0|0:0,0:0:0:0:
477,43,85124,1,10,0:2:0:0:
488,41,85201,1,2,0:0:0:0:
500,38,85277,1,2,0:0:0:0:
222,57,85430,6,0,B|250:70|255:97|255:97|173:35|69:50,1,250,0|0,1:0|0:0,0:0:0:0:
6,232,85889,5,2,0:2:0:0:
71,179,85966,1,2,0:2:0:0:
152,152,86042,2,0,P|185:148|206:151,1,50,8|8,0:3|0:3,0:0:0:0:
280,170,86195,2,0,P|307:177|335:196,1,50,4|4,0:3|0:3,0:0:0:0:
411,259,86349,6,0,B|480:226|490:159|461:127|426:136|415:168,1,179.999994506836,2|0,0:2|0:0,0:0:0:0:
512,284,86655,1,2,0:3:0:0:
438,359,86808,1,2,0:3:0:0:
438,359,86884,1,2,0:3:0:0:
438,359,86961,6,0,L|495:350,1,50,0|0,1:0|0:0,0:0:0:0:
411,259,87114,2,0,L|353:251,2,50,2|0|0,0:2|0:0|0:0,0:0:0:0:
253,352,87420,6,0,L|310:344,1,50,0|0,1:0|0:0,0:0:0:0:
226,252,87573,2,0,L|172:244,2,50,8|2|2,0:2|0:2|0:2,0:0:0:0:
27,382,87879,6,0,P|99:372|156:311,1,150,0|0,1:0|0:0,0:0:0:0:
12,237,88185,2,0,L|6:292,1,50,2|2,0:2|0:2,0:0:0:0:
97,216,88338,2,0,L|91:271,1,50,2|2,0:2|0:2,0:0:0:0:
167,162,88491,1,0,1:0:0:0:
166,150,88568,1,0,0:0:0:0:
164,138,88644,1,2,0:2:0:0:
372,191,88798,6,0,B|253:176,1,119.999996337891,2|2,0:2|0:2,0:0:0:0:
208,48,89104,5,2,0:3:0:0:
190,50,89180,1,2,0:3:0:0:
103,73,89257,1,2,0:3:0:0:
86,75,89333,1,2,0:3:0:0:
31,152,89410,6,0,B|73:46|73:46|57:10,1,150,0|0,1:0|0:0,0:0:0:0:
54,0,89716,1,2,0:2:0:0:
280,95,89869,6,0,B|369:82|369:82|389:59,1,120,2|0,1:2|0:0,0:0:0:0:
396,50,90175,1,2,0:0:0:0:
486,111,90328,5,2,1:2:0:0:
472,198,90481,2,0,L|457:290,1,89.9999972534181,2|0,0:2|0:0,0:0:0:0:
401,146,90787,5,2,1:2:0:0:
387,233,90940,2,0,L|372:325,1,89.9999972534181,2|0,0:2|0:0,0:0:0:0:
449,376,91247,5,10,0:2:0:0:
275,296,91400,1,2,0:0:0:0:
285,312,91553,1,2,0:0:0:0:
114,335,91706,1,2,0:0:0:0:
124,351,91859,6,0,L|130:292,1,50,4|0,1:2|0:0,0:0:0:0:
38,262,92012,1,2,0:2:0:0:
40,275,92088,1,2,0:0:0:0:
42,288,92165,1,2,0:2:0:0:
120,209,92318,6,0,L|126:150,1,50,0|0,1:0|0:0,0:0:0:0:
34,120,92471,1,10,0:2:0:0:
36,133,92548,1,2,0:2:0:0:
38,146,92624,1,2,0:2:0:0:
143,109,92777,6,0,L|149:50,1,50,0|0,1:0|0:0,0:0:0:0:
29,31,93083,5,2,0:2:0:0:
41,28,93160,1,2,0:2:0:0:
53,25,93236,1,2,0:2:0:0:
65,22,93313,1,2,0:2:0:0:
154,9,93389,6,0,L|148:58,1,50,0|0,1:0|0:0,0:0:0:0:
238,159,93542,1,2,0:2:0:0:
238,159,93695,2,0,B|252:124|252:124|235:57,1,100,8|0,0:2|0:0,0:0:0:0:
134,282,94002,6,0,P|134:255|143:232,1,49.499999848938,2|0,0:2|0:0,0:0:0:0:
255,272,94308,6,0,L|308:278,1,50,0|0,1:0|0:0,0:0:0:0:
386,376,94461,1,2,0:2:0:0:
382,364,94537,1,2,0:2:0:0:
378,352,94614,1,2,0:2:0:0:
273,152,94767,6,0,L|326:158,1,50,0|0,1:0|0:0,0:0:0:0:
404,256,94920,1,8,0:2:0:0:
400,244,94997,1,2,0:0:0:0:
396,232,95073,1,2,0:0:0:0:
291,32,95226,6,0,B|342:39|342:39|452:139|452:139|501:147,1,250,0|2,1:0|0:0,0:0:0:0:
489,66,95685,6,0,P|497:42|499:18,1,50,2|2,0:2|0:2,0:0:0:0:
302,119,95838,1,8,1:3:0:0:
307,143,95915,1,8,0:3:0:0:
311,167,95991,1,4,0:3:0:0:
316,191,96068,1,4,0:3:0:0:
269,271,96144,5,8,0:2:0:0:
117,229,96298,1,2,0:2:0:0:
208,192,96451,1,2,0:3:0:0:
231,359,96604,5,2,0:3:0:0:
231,359,96680,1,2,0:3:0:0:
231,359,96757,2,0,L|330:349,1,100,0|0,1:0|0:0,0:0:0:0:
512,261,97063,1,2,0:0:0:0:
390,272,97216,1,2,1:2:0:0:
489,174,97369,5,8,0:2:0:0:
476,175,97445,1,2,0:0:0:0:
463,176,97522,1,2,0:0:0:0:
367,185,97675,1,2,0:0:0:0:
466,87,97828,6,0,L|354:97,1,100,0|0,1:0|0:0,0:0:0:0:
344,98,98134,1,2,0:0:0:0:
443,0,98287,5,0,1:0:0:0:
324,9,98440,1,2,0:0:0:0:
324,9,98517,1,2,0:0:0:0:
324,9,98593,6,0,P|268:12|219:40,1,112.500004291535,8|0,0:2|0:0,0:0:0:0:
215,48,98900,1,2,0:2:0:0:
109,25,99053,1,2,0:2:0:0:
16,78,99206,6,0,B|7:122|7:122|25:226,1,150,2|0,1:2|0:0,0:0:0:0:
124,338,99512,2,0,B|133:294|133:294|115:190,1,150,2|0,1:2|0:0,0:0:0:0:
198,153,99818,6,0,B|239:159|239:159|251:169,1,50,10|0,0:2|0:0,0:0:0:0:
358,242,99971,2,0,B|317:236|317:236|305:226,1,50,2|0,1:2|0:0,0:0:0:0:
229,254,100124,1,2,0:0:0:0:
478,207,100277,6,0,P|427:153|355:142,1,150,2|0,1:2|0:0,0:0:0:0:
338,147,100583,1,2,1:2:0:0:
449,329,100736,1,2,1:2:0:0:
256,33,101042,6,0,L|259:57,1,25,10|0,0:2|0:0,0:0:0:0:
193,355,101349,2,0,L|204:205,1,150,2|0,0:2|0:0,0:0:0:0:
326,124,101655,6,0,L|380:114,1,50,4|0,1:2|0:0,0:0:0:0:
445,163,101808,1,2,0:0:0:0:
457,165,101884,1,2,0:0:0:0:
467,167,101961,1,2,0:0:0:0:
345,249,102114,6,0,L|399:239,1,50,0|0,1:0|0:0,0:0:0:0:
475,299,102267,1,10,0:2:0:0:
486,300,102343,1,2,0:2:0:0:
496,302,102420,1,2,0:2:0:0:
295,378,102573,6,0,P|334:348|383:338,1,100,0|0,1:0|0:0,0:0:0:0:
212,338,102879,1,2,0:2:0:0:
200,337,102956,1,2,0:2:0:0:
187,336,103032,1,2,0:2:0:0:
175,335,103109,1,2,0:2:0:0:
163,334,103185,2,0,L|171:386,1,50,0|2,1:0|0:2,0:0:0:0:
105,268,103338,6,0,L|128:259,2,25,2|0|0,0:0|0:0|0:0,0:0:0:0:
21,297,103491,2,0,P|21:241|43:203,1,100,10|0,0:0|0:0,0:0:0:0:
156,64,103798,6,0,P|106:22|44:18,1,119.999996337891,2|2,0:3|0:3,0:0:0:0:
140,160,104027,1,2,0:3:0:0:
140,160,104104,6,0,P|196:152|233:124,1,100,0|0,1:0|0:0,0:0:0:0:
254,37,104333,1,0,0:0:0:0:
254,37,104410,1,2,0:0:0:0:
304,190,104563,1,2,1:2:0:0:
419,73,104716,6,0,L|389:76,1,25,8|0,0:2|0:0,0:0:0:0:
321,107,104869,1,2,0:0:0:0:
446,210,105022,6,0,B|386:233|377:317|412:359|412:359|459:361|488:333,1,250,0|0,1:0|0:0,0:0:0:0:
512,359,105481,5,2,0:2:0:0:
435,310,105558,1,2,0:2:0:0:
344,303,105634,2,0,P|319:304|292:314,1,50,8|8,0:3|0:3,0:0:0:0:
175,344,105787,2,0,P|150:343|123:333,1,50,4|4,0:3|0:3,0:0:0:0:
45,270,105940,5,10,0:2:0:0:
30,232,106017,1,2,0:2:0:0:
34,192,106093,1,2,0:2:0:0:
60,161,106170,1,2,0:2:0:0:
72,163,106247,5,2,0:2:0:0:
82,164,106324,1,2,0:2:0:0:
91,166,106400,1,2,0:2:0:0:
101,168,106477,1,2,0:2:0:0:
178,216,106553,6,0,P|201:162|258:157,1,120,2|0,0:0|0:0,0:0:0:0:
323,315,106859,6,0,B|359:341|359:341|338:208,1,179.999994506836,2|0,1:2|0:0,0:0:0:0:
512,54,107165,6,0,B|515:118|468:165|406:157|406:157|387:130|348:122,1,240,2|0,1:2|0:0,0:0:0:0:
204,20,107471,6,0,L|303:10,1,100,2|0,1:2|0:0,0:0:0:0:
397,49,107930,1,2,0:0:0:0:
397,49,108083,1,2,0:0:0:0:
397,49,108236,2,0,L|429:51,2,25,2|0|0,0:0|0:0|0:0,0:0:0:0:
303,10,108389,6,0,L|204:20,1,100,8|0,0:2|0:0,0:0:0:0:
124,58,108695,1,2,0:0:0:0:
112,56,108772,1,2,0:0:0:0:
100,54,108849,1,2,0:0:0:0:
49,199,109002,6,0,P|113:156|190:156,1,150,2|0,1:2|0:0,0:0:0:0:
194,158,109308,6,0,L|186:208,1,50,2|0,0:2|0:0,0:0:0:0:
61,372,109461,6,0,P|70:308|124:262,1,120,2|0,1:2|0:0,0:0:0:0:
120,266,109767,5,0,0:2:0:0:
204,293,109843,1,2,0:0:0:0:
219,307,109920,6,0,L|282:300,2,59.9999981689454,2|0|2,1:2|0:0|0:2,0:0:0:0:
312,222,110379,2,0,P|351:254|364:291,1,89.9999972534181,2|0,1:2|0:0,0:0:0:0:
332,367,110685,2,0,L|320:380,2,14.9999995422363
452,350,110838,5,2,1:2:0:0:
469,222,110991,1,2,0:0:0:0:
481,244,111144,1,10,0:2:0:0:
491,99,111298,1,2,0:2:0:0:
505,122,111451,6,0,B|462:68|407:54|407:54|362:94|295:91,1,240,2|0,0:2|0:0,0:0:0:0:
282,84,111757,6,0,P|259:55|254:23,1,60,0|0,1:0|0:0,0:0:0:0:
162,163,112063,6,0,P|177:129|204:111,1,60,8|2,1:2|0:2,0:0:0:0:
33,98,112369,6,0,P|69:95|99:108,1,60,0|0,1:0|0:0,0:0:0:0:
240,223,112675,6,0,L|337:214,1,89.9999972534181,6|0,1:2|0:0,0:0:0:0:
427,206,112981,1,2,0:2:0:0:
266,316,113134,5,0,1:0:0:0:
172,294,113287,1,8,0:2:0:0:
84,273,113440,1,2,0:0:0:0:
84,273,113517,1,2,0:0:0:0:
84,273,113593,2,0,P|56:327|62:371,1,100,0|0,1:0|0:0,0:0:0:0:
150,202,113900,5,2,1:2:0:0:
150,202,113976,2,0,L|184:198,2,25,2|0|2,0:2|0:0|0:2,0:0:0:0:
68,157,114129,2,0,L|18:164,2,50,2|0|0,0:2|0:0|0:0,0:0:0:0:
149,112,114359,5,2,1:2:0:0:
149,112,114435,2,0,L|188:108,2,25,2|0|8,0:0|0:0|0:2,0:0:0:0:
61,68,114588,2,0,L|11:75,2,50,2|2|2,0:0|0:2|0:2,0:0:0:0:
246,33,114818,6,0,B|259:86|316:97|316:97|380:85|380:85|435:82|474:112,1,250,2|0,1:2|0:0,0:0:0:0:
482,126,115277,5,2,1:2:0:0:
398,173,115354,1,2,0:0:0:0:
403,267,115430,2,0,L|454:255,1,50,2|0,0:2|0:2,0:0:0:0:
320,224,115583,5,2,0:2:0:0:
288,204,115660,1,2,0:2:0:0:
250,206,115736,2,0,L|260:270,1,60,2|0,1:2|0:0,0:0:0:0:
379,382,116042,6,0,P|337:354|288:347,1,100,2|0,1:2|0:0,0:0:0:0:
202,330,116272,1,0,0:0:0:0:
190,332,116349,6,0,P|140:324|99:297,1,100,0|0,1:0|0:0,0:0:0:0:
12,200,116655,1,0,0:0:0:0:
47,75,116808,1,0,1:0:0:0:
137,171,116961,5,8,0:2:0:0:
139,159,117037,1,2,0:0:0:0:
143,148,117114,1,2,0:0:0:0:
170,45,117267,1,2,1:2:0:0:
260,141,117420,6,0,L|288:38,1,100,2|0,1:2|0:0,0:0:0:0:
293,15,117726,1,0,1:0:0:0:
293,15,117879,1,0,1:0:0:0:
385,108,118032,6,0,L|410:115,2,25
453,185,118185,6,0,L|516:175,1,60,8|0,0:2|0:0,0:0:0:0:
332,206,118491,5,2,0:2:0:0:
344,204,118567,1,2,0:2:0:0:
356,202,118644,1,2,1:2:0:0:
468,281,118798,6,0,P|497:323|499:367,1,89.9999972534181,2|0,1:2|0:0,0:0:0:0:
329,327,119104,2,0,P|373:326|412:348,1,89.9999972534181,2|0,1:2|0:0,0:0:0:0:
152,178,119410,5,10,0:0:0:0:
165,271,119563,2,0,L|178:372,1,100,10|0,1:2|1:0,0:0:0:0:
248,208,119869,6,0,L|265:29,1,180,2|0,1:2|0:0,0:0:0:0:
