osu file format v14

[General]
AudioFilename: audio.mp3
AudioLeadIn: 0
PreviewTime: -1
Countdown: 0
SampleSet: None
StackLeniency: 0.2
Mode: 0
LetterboxInBreaks: 0
WidescreenStoryboard: 0

[Editor]
DistanceSpacing: 0.5
BeatDivisor: 8
GridSize: 8
TimelineZoom: 3.099999

[Metadata]
Title:Egret and Willow
TitleUnicode:Egret and Willow
Artist:Dirty Androids
ArtistUnicode:Dirty Androids
Creator:Stingy
Version:uwu
Source:
Tags:
BeatmapID:1734528
BeatmapSetID:827810

[Difficulty]
HPDrainRate:8
CircleSize:4
OverallDifficulty:8
ApproachRate:9.5
SliderMultiplier:1.5
SliderTickRate:1

[Events]
//Background and Video events
0,0,"anime.jpg",0,0
//Break Periods
//Storyboard Layer 0 (Background)
//Storyboard Layer 1 (Fail)
//Storyboard Layer 2 (Pass)
//Storyboard Layer 3 (Foreground)
//Storyboard Sound Samples

[TimingPoints]
965,306.122448979592,4,3,1,60,1,0
10720,-100,4,3,1,60,0,0
20556,-83.3333333333333,4,3,1,60,0,0
22699,-200,4,3,1,60,0,0
23005,-83.3333333333333,4,3,1,60,0,0
24842,-111.111111111111,4,3,1,60,0,0
25148,-83.3333333333333,4,3,1,60,0,0
29128,-133.333333333333,4,3,1,60,0,0
29281,-83.3333333333333,4,3,1,60,0,0
29587,-60.6060606060606,4,3,1,60,0,0
29893,-133.333333333333,4,3,1,60,0,0
30046,-74.0740740740741,4,3,1,60,0,0
30352,-83.3333333333333,4,3,1,60,0,0

[Colours]
Combo1 : 255,128,128
Combo2 : 255,198,84
Combo3 : 255,113,84
Combo4 : 255,0,128

[HitObjects]
90,164,965,5,0,0:0:0:0:
126,170,1118,1,0,0:0:0:0:
162,176,1271,1,0,0:0:0:0:
198,182,1424,1,0,0:0:0:0:
234,188,1577,1,0,0:0:0:0:
234,188,2189,5,0,0:0:0:0:
270,182,2342,1,0,0:0:0:0:
306,176,2495,1,0,0:0:0:0:
342,170,2648,1,0,0:0:0:0:
378,164,2801,1,0,0:0:0:0:
378,164,3413,5,0,0:0:0:0:
342,158,3566,1,0,0:0:0:0:
306,152,3719,1,0,0:0:0:0:
270,146,3872,1,0,0:0:0:0:
234,140,4026,1,0,0:0:0:0:
252,172,4179,1,0,0:0:0:0:
260,208,4332,1,0,0:0:0:0:
255,245,4485,1,0,0:0:0:0:
203,303,4638,5,0,0:0:0:0:
192,290,4791,1,0,0:0:0:0:
255,245,4944,5,0,0:0:0:0:
249,229,5097,1,0,0:0:0:0:
323,208,5251,5,0,0:0:0:0:
323,191,5404,1,0,0:0:0:0:
399,196,5556,5,0,0:0:0:0:
405,180,5709,1,0,0:0:0:0:
474,210,5863,5,0,0:0:0:0:
489,168,6016,1,0,0:0:0:0:
474,125,6169,1,0,0:0:0:0:
435,103,6322,1,0,0:0:0:0:
391,111,6475,1,0,0:0:0:0:
362,145,6628,1,0,0:0:0:0:
362,190,6781,1,0,0:0:0:0:
391,225,6934,1,0,0:0:0:0:
435,232,7086,5,0,0:0:0:0:
389,258,7239,1,0,0:0:0:0:
337,249,7392,1,0,0:0:0:0:
304,208,7545,1,0,0:0:0:0:
327,77,7698,5,0,0:0:0:0:
353,123,7851,1,0,0:0:0:0:
344,175,8004,1,0,0:0:0:0:
304,208,8157,1,0,0:0:0:0:
173,185,8312,5,0,0:0:0:0:
159,126,8465,1,0,0:0:0:0:
197,79,8618,1,0,0:0:0:0:
257,79,8771,1,0,0:0:0:0:
294,126,8924,1,0,0:0:0:0:
281,185,9077,1,0,0:0:0:0:
227,211,9230,1,0,0:0:0:0:
193,239,9383,1,0,0:0:0:0:
181,266,9536,5,0,0:0:0:0:
171,238,9689,1,0,0:0:0:0:
171,192,9842,1,0,0:0:0:0:
203,142,9995,1,0,0:0:0:0:
311,93,10148,5,0,0:0:0:0:
250,49,10301,1,0,0:0:0:0:
189,93,10454,1,0,0:0:0:0:
212,164,10607,1,0,0:0:0:0:
379,189,10760,6,0,B|480:179|480:179|417:161,1,150
330,255,11220,1,0,0:0:0:0:
433,165,11373,2,0,P|440:121|362:43,1,150
350,131,11985,2,0,P|306:124|228:202,1,150
316,214,12597,2,0,P|309:258|387:336,1,150
155,186,13209,6,0,B|1:203,1,150
88,294,13669,1,0,0:0:0:0:
5,202,13822,2,0,P|-2:158|76:80,1,150
88,168,14434,2,0,P|132:161|210:239,1,150
122,251,15046,2,0,P|129:295|51:373,1,150
39,285,15505,1,0,0:0:0:0:
217,171,15658,6,0,B|254:149|254:149|370:161,1,150
283,278,16118,1,0,0:0:0:0:
217,171,16271,2,0,P|173:164|95:242,1,150
183,254,16883,2,0,P|176:298|254:376,1,150
266,288,17495,2,0,P|310:295|388:217,1,150
385,231,18107,5,0,0:0:0:0:
256,192,18184,12,0,19944,0:0:0:0:
4,60,20556,5,0,0:0:0:0:
191,21,20709,1,0,0:0:0:0:
191,21,20786,1,0,0:0:0:0:
191,21,20862,1,0,0:0:0:0:
68,148,21016,1,0,0:0:0:0:
255,109,21169,1,0,0:0:0:0:
255,109,21246,1,0,0:0:0:0:
255,109,21322,2,0,L|218:150,1,44.999998626709
132,236,21475,1,0,0:0:0:0:
319,197,21628,1,0,0:0:0:0:
319,197,21705,1,0,0:0:0:0:
319,197,21781,5,0,0:0:0:0:
291,232,21857,1,0,0:0:0:0:
281,276,21934,1,0,0:0:0:0:
291,319,22011,1,0,0:0:0:0:
319,355,22087,1,0,0:0:0:0:
360,374,22164,1,0,0:0:0:0:
405,374,22240,2,0,L|465:369,1,44.999998626709
511,285,22393,2,0,L|396:275,1,89.9999972534181
421,277,22699,6,0,L|428:253,1,18.75
319,197,22852,2,0,L|326:221,1,18.75
205,354,23005,5,0,0:0:0:0:
38,298,23158,1,0,0:0:0:0:
38,298,23235,1,0,0:0:0:0:
38,298,23311,1,0,0:0:0:0:
169,281,23465,1,0,0:0:0:0:
113,114,23618,1,0,0:0:0:0:
113,114,23695,1,0,0:0:0:0:
113,114,23771,1,0,0:0:0:0:
74,205,23924,1,0,0:0:0:0:
115,22,24077,6,0,P|66:33|32:149,1,179.999994506836
74,205,24459,1,0,0:0:0:0:
118,214,24535,1,0,0:0:0:0:
162,223,24612,1,0,0:0:0:0:
206,232,24688,1,0,0:0:0:0:
243,211,24765,1,0,0:0:0:0:
280,185,24842,6,0,L|275:142,1,33.7499989700318
292,193,24995,2,0,L|287:150,1,33.7499989700318
201,277,25148,6,0,L|207:220,1,44.999998626709
189,285,25301,2,0,L|195:228,1,44.999998626709
407,335,25454,5,0,0:0:0:0:
512,240,25607,1,0,0:0:0:0:
512,240,25684,1,0,0:0:0:0:
512,240,25760,1,0,0:0:0:0:
346,266,25913,1,0,0:0:0:0:
399,134,26066,1,0,0:0:0:0:
399,134,26143,1,0,0:0:0:0:
399,134,26220,2,0,L|440:176,1,44.999998626709
512,240,26373,1,0,0:0:0:0:
346,266,26526,1,0,0:0:0:0:
449,84,26679,5,0,0:0:0:0:
408,63,26756,1,0,0:0:0:0:
368,70,26832,1,0,0:0:0:0:
341,94,26909,1,0,0:0:0:0:
330,123,26985,1,0,0:0:0:0:
330,150,27062,1,0,0:0:0:0:
338,170,27138,1,0,0:0:0:0:
338,170,27291,6,0,P|322:149|300:131,1,44.999998626709
173,109,27444,2,0,P|199:105|227:108,1,44.999998626709
346,266,27597,1,0,0:0:0:0:
328,307,27673,1,0,0:0:0:0:
296,338,27750,1,0,0:0:0:0:
254,354,27826,1,0,0:0:0:0:
210,353,27903,5,0,0:0:0:0:
65,262,28056,1,0,0:0:0:0:
65,262,28133,1,0,0:0:0:0:
65,262,28209,1,0,0:0:0:0:
228,228,28362,1,0,0:0:0:0:
82,136,28515,1,0,0:0:0:0:
82,136,28592,1,0,0:0:0:0:
82,136,28668,1,0,0:0:0:0:
168,285,28822,2,0,P|230:311|300:268,1,134.999995880127
301,267,29128,6,0,L|308:239,1,28.1250010728836
382,136,29281,6,0,L|389:164,1,22.4999993133545
423,143,29357,2,0,L|416:171,1,22.4999993133545
464,167,29434,1,0,0:0:0:0:
464,167,29510,1,0,0:0:0:0:
464,167,29587,6,0,B|458:185|458:185|468:208|455:203|468:242,1,61.875000590086
473,330,29740,1,0,0:0:0:0:
301,267,29893,6,0,L|308:239,1,28.1250010728836
382,136,30046,6,0,B|349:119|349:119|359:132,1,50.6250001931191
391,127,30199,2,0,B|374:94|374:94|387:104,1,50.6250001931191
171,186,30352,5,0,0:0:0:0:
