osu file format v14

[General]
AudioFilename: audio.mp3
AudioLeadIn: 0
PreviewTime: 19953
Countdown: 0
SampleSet: Normal
StackLeniency: 0.7
Mode: 1
LetterboxInBreaks: 0
WidescreenStoryboard: 0

[Editor]
DistanceSpacing: 0.8
BeatDivisor: 4
GridSize: 4
TimelineZoom: 2.599999

[Metadata]
Title:Egret and Willow
TitleUnicode:Egret and Willow
Artist:Dirty Androids
ArtistUnicode:Dirty Androids
Creator:Nifty
Version:Ebb and Flow
Source:beatmania IIDX 24 SINOBUZ
Tags:future beats sv bms bemani 秋津大祐 akitsu daisuke
BeatmapID:1722264
BeatmapSetID:821745

[Difficulty]
HPDrainRate:4.5
CircleSize:2
OverallDifficulty:6.5
ApproachRate:10
SliderMultiplier:1.4
SliderTickRate:1

[Events]
//Background and Video events
0,0,"anime.jpg",0,60
//Break Periods
//Storyboard Layer 0 (Background)
//Storyboard Layer 1 (Fail)
//Storyboard Layer 2 (Pass)
//Storyboard Layer 3 (Foreground)
//Storyboard Sound Samples

[TimingPoints]
968,306.122448979592,4,1,0,70,1,0
968,-166.666666666667,4,1,0,70,0,0
15658,-166.666666666667,4,1,0,70,0,0
15968,-161.773817554724,4,1,0,70,0,0
16118,-159.433437337079,4,1,0,70,0,0
16271,-157.159807950715,4,1,0,70,0,0
16577,-152.801928971551,4,1,0,70,0,0
16883,-148.678987198739,4,1,0,70,0,0
17189,-144.772901987298,4,1,0,70,0,0
17495,-141.066604597361,4,1,0,70,0,0
17801,-137.545527569626,4,1,0,70,0,0
18107,-134.195764781664,4,1,0,70,0,0
18413,-131.00545375704,4,1,0,70,0,0
18567,-129.466430002033,4,1,0,70,0,0
18720,-127.963310359654,4,1,0,70,0,0
19026,-125.059090420224,4,1,0,70,0,0
19944,-100.037814293803,4,1,0,80,0,0
20097,-95.2380952380952,4,1,0,80,0,0
20250,-90.9090909090909,4,1,0,80,0,0
20559,-76.9230769230769,4,1,0,80,0,1
20633,-77.6673089753119,4,1,0,80,0,1
20709,-78.4260211264016,4,1,0,80,0,1
20786,-79.1997655686939,4,1,0,80,0,1
20862,-79.9889295321528,4,1,0,80,0,1
20939,-80.7939785863639,4,1,0,80,0,1
21016,-81.6153306237044,4,1,0,80,0,1
21092,-82.4536218990223,4,1,0,80,0,1
21169,-83.3093124815678,4,1,0,80,0,1
21245,-84.1829497537228,4,1,0,80,0,1
21322,-85.0750319244057,4,1,0,80,0,1
21398,-85.9862972236744,4,1,0,80,0,1
21475,-86.9172955857313,4,1,0,80,0,1
21551,-87.8686749931023,4,1,0,80,0,1
21628,-88.8410331856795,4,1,0,80,0,1
21704,-89.8352331987901,4,1,0,80,0,1
21781,-90.8519367815883,4,1,0,80,0,1
21857,-91.8919167275451,4,1,0,80,0,1
21934,-92.9558952163967,4,1,0,80,0,1
22010,-94.0448895066593,4,1,0,80,0,1
22087,-95.1597017694947,4,1,0,80,0,1
22163,-96.3012611613162,4,1,0,80,0,1
22240,-97.4704469604816,4,1,0,80,0,1
22317,-98.6684690107006,4,1,0,80,0,1
22393,-99.8963076326773,4,1,0,80,0,1
22546,-102.040816326531,4,1,0,80,0,1
22699,-104.166666666667,4,1,0,80,0,1
23005,-100,4,1,0,80,0,1
23082,-99.0735631113458,4,1,0,80,0,1
23158,-98.1642307212813,4,1,0,80,0,1
23235,-97.271344251069,4,1,0,80,0,1
23311,-96.3945544788284,4,1,0,80,0,1
23388,-95.5335212796142,4,1,0,80,0,1
23465,-94.6876443986577,4,1,0,80,0,1
23541,-93.8566152488843,4,1,0,80,0,1
23618,-93.0401328613097,4,1,0,80,0,1
23694,-92.2376484564952,4,1,0,80,0,1
23771,-91.4489723878973,4,1,0,80,0,1
23847,-90.6735868748169,4,1,0,80,0,1
23924,-89.9112396242429,4,1,0,80,0,1
24000,-89.1616840145583,4,1,0,80,0,1
24077,-88.4244444071097,4,1,0,80,0,1
24153,-87.6992966516409,4,1,0,80,0,1
24230,-86.9860213463696,4,1,0,80,0,1
24306,-86.284180399513,4,1,0,80,0,1
24383,-85.5935743191887,4,1,0,80,0,1
24459,-84.9140075845192,4,1,0,80,0,1
24536,-84.2450756647147,4,1,0,80,0,1
24689,-82.9384082792437,4,1,0,80,0,1
24766,-82.3001238616864,4,1,0,80,0,1
24842,-81.6715887410815,4,1,0,80,0,1
24995,-80.4429510657484,4,1,0,80,0,1
25148,-79.2507318805089,4,1,0,80,0,1
25301,-76.9230769230769,4,1,0,80,0,1
25531,-77.6673089753119,4,1,0,80,0,1
25607,-78.4260211264016,4,1,0,80,0,1
25684,-79.1997655686939,4,1,0,80,0,1
25760,-79.9889295321528,4,1,0,80,0,1
25837,-80.7939785863639,4,1,0,80,0,1
25914,-81.6153306237044,4,1,0,80,0,1
25990,-82.4536218990223,4,1,0,80,0,1
26067,-83.3093124815678,4,1,0,80,0,1
26143,-84.1829497537228,4,1,0,80,0,1
26220,-85.0750319244057,4,1,0,80,0,1
26296,-85.9862972236744,4,1,0,80,0,1
26373,-86.9172955857313,4,1,0,80,0,1
26449,-87.8686749931023,4,1,0,80,0,1
26526,-88.8410331856795,4,1,0,80,0,1
26602,-89.8352331987901,4,1,0,80,0,1
26679,-90.8519367815883,4,1,0,80,0,1
26755,-91.8919167275451,4,1,0,80,0,1
26832,-92.9558952163967,4,1,0,80,0,1
26908,-94.0448895066593,4,1,0,80,0,1
26985,-95.1597017694947,4,1,0,80,0,1
27061,-96.3012611613162,4,1,0,80,0,1
27138,-97.4704469604816,4,1,0,80,0,1
27215,-98.6684690107006,4,1,0,80,0,1
27291,-99.8963076326773,4,1,0,80,0,1
27444,-96.1538461538461,4,1,0,80,0,1
27597,-92.5925925925926,4,1,0,80,0,1
27674,-89.2857142857143,4,1,0,80,0,1
27750,-86.2068965517241,4,1,0,80,0,1
27827,-83.3333333333333,4,1,0,80,0,1
27903,-80.6451612903226,4,1,0,80,0,1
27980,-81.2989623000452,4,1,0,80,0,1
28056,-81.9635180381212,4,1,0,80,0,1
28133,-82.6389594763334,4,1,0,80,0,1
28209,-83.3256257129549,4,1,0,80,0,1
28286,-84.0237989008007,4,1,0,80,0,1
28362,-84.7338425272377,4,1,0,80,0,1
28439,-85.455915856687,4,1,0,80,0,1
28516,-86.1904014921282,4,1,0,80,0,1
28592,-86.9376978375986,4,1,0,80,0,1
28669,-87.6979891728063,4,1,0,80,0,1
28745,-88.4716956927555,4,1,0,80,0,1
28822,-89.2592552921812,4,1,0,80,0,1
28898,-90.0608811556612,4,1,0,80,0,1
28975,-90.8770360999938,4,1,0,80,0,1
29051,-91.7081187363355,4,1,0,80,0,1
29128,-92.554628055344,4,1,0,80,0,1
29204,-93.4168230619979,4,1,0,80,0,1
29281,-94.2952327159196,4,1,0,80,0,1
29332,-94.8901646344356,4,1,0,80,0,1
29383,-95.4925601746368,4,1,0,80,0,1
29434,-96.102653009839,4,1,0,80,0,1
29510,-97.0325505394039,4,1,0,80,0,1
29587,-97.980715435588,4,1,0,80,0,1
29663,-98.9474954904679,4,1,0,80,0,1
29740,-99.9335441931116,4,1,0,80,0,1
29893,-101.96590260217,4,1,0,80,0,1
30046,-104.082533285594,4,1,0,80,0,1
30199,-106.289014711463,4,1,0,80,0,1
30352,-76.9230769230769,4,1,0,80,0,1
30429,-77.4803993959628,4,1,0,80,0,1
30505,-78.0457957120079,4,1,0,80,0,1
30582,-78.6195662086815,4,1,0,80,0,1
30658,-79.2018355817414,4,1,0,80,0,1
30735,-79.7927304035039,4,1,0,80,0,1
30811,-80.3925730125348,4,1,0,80,0,1
30888,-81.0015025778728,4,1,0,80,0,1
30965,-81.6196605438318,4,1,0,80,0,1
31041,-82.2473935800975,4,1,0,80,0,1
31118,-82.8847884863083,4,1,0,80,0,1
31194,-83.5322096023616,4,1,0,80,0,1
31271,-84.1898244810539,4,1,0,80,0,1
31347,-84.8578037782089,4,1,0,80,0,1
31424,-85.5365407825396,4,1,0,80,0,1
31500,-86.2262231189749,4,1,0,80,0,1
31577,-86.9270421335373,4,1,0,80,0,1
31653,-87.63942336765,4,1,0,80,0,1
31730,-88.3635772403701,4,1,0,80,0,1
31806,-89.0997186230886,4,1,0,80,0,1
31883,-89.8483090997469,4,1,0,80,0,1
31959,-90.6095850443443,4,1,0,80,0,1
32036,-91.3837881504469,4,1,0,80,0,1
32112,-92.1714204076742,4,1,0,80,0,1
32189,-92.9727478281566,4,1,0,80,0,1
32342,-94.6178526856804,4,1,0,80,0,1
32495,-96.3222248122198,4,1,0,80,0,1
32648,-100,4,1,0,80,0,1
32878,-98.5281859581571,4,1,0,80,0,1
32954,-97.0990682373412,4,1,0,80,0,1
33031,-95.7109071192644,4,1,0,80,0,1
33107,-94.3617887598124,4,1,0,80,0,1
33184,-93.0501754461058,4,1,0,80,0,1
33260,-91.7745246767931,4,1,0,80,0,1
33337,-90.5334593559087,4,1,0,80,0,1
33413,-89.3254322011037,4,1,0,80,0,1
33490,-88.1492189979197,4,1,0,80,0,1
33567,-87.0035793272535,4,1,0,80,0,1
33643,-85.8874101939767,4,1,0,80,0,1
33720,-84.7994450724314,4,1,0,80,0,1
33796,-83.738698415915,4,1,0,80,0,1
33873,-82.7041614252904,4,1,0,80,0,1
33949,-81.6949412858457,4,1,0,80,0,1
34026,-80.7099896368373,4,1,0,80,0,1
34102,-79.7485051142716,4,1,0,80,0,1
34179,-78.8096589117962,4,1,0,80,0,1
34255,-77.8927214704276,4,1,0,80,0,1
34332,-76.9968161816509,4,1,0,80,0,1
34485,-80,4,1,0,80,0,1
34561,-81.6326530612245,4,1,0,80,0,1
34638,-83.3333333333333,4,1,0,80,0,1
34791,-86.9565217391304,4,1,0,80,0,1
34944,-90.9090909090909,4,1,0,80,0,1
35097,-100,4,1,0,80,0,1
35253,-100,4,1,0,80,0,0
35327,-98.7696267594574,4,1,0,80,0,0
35403,-97.5692570979195,4,1,0,80,0,0
35480,-96.397620906716,4,1,0,80,0,0
35556,-95.2537894338782,4,1,0,80,0,0
35633,-94.1367845133693,4,1,0,80,0,0
35709,-93.0457599047211,4,1,0,80,0,0
35786,-91.9796504221406,4,1,0,80,0,0
35862,-90.9376949476836,4,1,0,80,0,0
35939,-89.9190818182717,4,1,0,80,0,0
36016,-88.9231144075898,4,1,0,80,0,0
36092,-87.9488911403805,4,1,0,80,0,0
36169,-86.9957833143827,4,1,0,80,0,0
36245,-86.063111801146,4,1,0,80,0,0
36322,-85.1502987923985,4,1,0,80,0,0
36398,-84.2565747511693,4,1,0,80,0,0
36475,-83.3814166169158,4,1,0,80,0,0
36551,-82.524251814502,4,1,0,80,0,0
36628,-81.6845977972931,4,1,0,80,0,0
36704,-80.8617926412534,4,1,0,80,0,0
36781,-80.0553983356483,4,1,0,80,0,0
36934,-78.4899783995579,4,1,0,80,0,0
36985,-77.981647799007,4,1,0,80,0,0
37036,-77.4799191419564,4,1,0,80,0,0
37087,-76.9845461222114,4,1,0,80,0,0
37240,-83.4054790727312,4,1,0,80,0,0
37393,-90.9949570594798,4,1,0,80,0,0
37546,-95.2380952380952,4,1,0,80,0,0
37699,-76.9230769230769,4,1,0,80,0,0
37750,-77.2937300872028,4,1,0,80,0,0
37801,-77.667972524178,4,1,0,80,0,0
37852,-78.0457957120079,4,1,0,80,0,0
37929,-78.6195662086815,4,1,0,80,0,0
38005,-79.2018355817414,4,1,0,80,0,0
38056,-79.5947671216304,4,1,0,80,0,0
38107,-79.99168086519,4,1,0,80,0,0
38158,-80.3925730125348,4,1,0,80,0,0
38235,-81.0015025778728,4,1,0,80,0,0
38311,-81.6196605438318,4,1,0,80,0,0
38362,-82.0370791190202,4,1,0,80,0,0
38413,-82.4587891586482,4,1,0,80,0,0
38465,-82.8847884863083,4,1,0,80,0,0
38541,-83.5322096023616,4,1,0,80,0,0
38618,-84.1898244810539,4,1,0,80,0,0
38694,-84.8578037782089,4,1,0,80,0,0
38771,-85.5365407825396,4,1,0,80,0,0
38847,-86.2262231189749,4,1,0,80,0,0
38924,-86.9270421335373,4,1,0,80,0,0
39000,-87.63942336765,4,1,0,80,0,0
39077,-88.3635772403701,4,1,0,80,0,0
39128,-88.8529528057541,4,1,0,80,0,0
39179,-89.347858912583,4,1,0,80,0,0
39230,-89.8483090997469,4,1,0,80,0,0
39306,-90.6095850443443,4,1,0,80,0,0
39383,-91.3837881504469,4,1,0,80,0,0
39459,-92.1714204076742,4,1,0,80,0,0
39536,-92.9727478281566,4,1,0,80,0,0
39612,-93.7880427748506,4,1,0,80,0,0
39689,-94.6178526856804,4,1,0,80,0,0
39766,-95.4624775185866,4,1,0,80,0,0
39842,-96.3222248122198,4,1,0,80,0,0
39919,-97.1976933043425,4,1,0,80,0,0
39995,-98.0891257414312,4,1,0,80,0,0
40072,-98.997158781543,4,1,0,80,0,0
40148,-99.9221606368639,4,1,0,80,0,0
40225,-100,4,1,0,10,0,0
41373,-125,4,1,0,10,0,0
42521,-99.9221606368639,4,1,0,60,0,0
49026,-97.2222627314984,4,1,0,60,0,0
49179,-94.594581811543,4,1,0,60,0,0
49255,-93.3332960000149,4,1,0,60,0,0
49332,-92.1052873961283,4,1,0,60,0,0
49485,-89.7435667324188,4,1,0,60,0,0
49638,-87.5000109375014,4,1,0,60,0,0
49791,-85.3658224271381,4,1,0,60,0,0
49868,-84.3373697198481,4,1,0,60,0,0
49944,-83.3333333333333,4,1,0,60,0,0
52010,-85.7142612244968,4,1,0,60,0,0
52087,-88.2353200692118,4,1,0,60,0,0
52163,-90.9090909090909,4,1,0,60,0,0
52240,-93.7499707031342,4,1,0,60,0,0
52317,-96.774224765879,4,1,0,60,0,0
52393,-100,4,1,0,60,0,0
59893,-98.1642307212813,4,1,0,60,0,0
59970,-97.271344251069,4,1,0,60,0,0
60046,-96.3945544788284,4,1,0,60,0,0
60199,-94.6876443986577,4,1,0,60,0,0
60352,-93.0401328613097,4,1,0,60,0,0
60505,-91.4489723878973,4,1,0,60,0,0
60658,-89.9112396242429,4,1,0,60,0,0
60811,-88.4244444071097,4,1,0,60,0,0
60965,-86.9860213463696,4,1,0,60,0,0
61118,-85.5935743191887,4,1,0,60,0,0
61271,-84.2450756647147,4,1,0,60,0,0
61322,-83.8049456650635,4,1,0,60,0,0
61373,-83.3693905947656,4,1,0,60,0,0
61424,-82.9384082792437,4,1,0,60,0,0
61475,-82.5117909349246,4,1,0,60,0,0
61526,-82.0895399866358,4,1,0,60,0,0
61577,-81.6715887410815,4,1,0,60,0,0
61730,-80.4429510657484,4,1,0,60,0,0
61806,-79.8423592459049,4,1,0,60,0,0
61883,-79.2507318805089,4,1,0,60,0,0
62036,-78.0933355928338,4,1,0,60,0,0
62189,-76.9691992355419,4,1,0,60,0,0
62266,-100,4,1,0,70,0,0
76806,-100,4,1,0,40,0,0
76959,-125,4,1,0,40,0,0
79485,-100,4,1,0,70,0,0
80556,-100,4,1,0,70,0,0
80633,-98.0497896832011,4,1,0,70,0,0
80709,-96.1742831890238,4,1,0,70,0,0
80760,-94.9632444762255,4,1,0,70,0,0
80811,-93.7824135466821,4,1,0,70,0,0
80862,-92.6305024834238,4,1,0,70,0,0
80939,-90.954733648158,4,1,0,70,0,0
81016,-89.3385995459812,4,1,0,70,0,0
81092,-87.7788184444365,4,1,0,70,0,0
81169,-86.2726422549598,4,1,0,70,0,0
81245,-84.8172104298027,4,1,0,70,0,0
81322,-83.4101401707405,4,1,0,70,0,0
81398,-82.0489257744393,4,1,0,70,0,0
81475,-80.731491901824,4,1,0,70,0,0
81551,-79.4556335633309,4,1,0,70,0,0
81628,-78.2195356419047,4,1,0,70,0,0
81704,-77.5193798449612,4,1,0,70,0,0
81784,-76.9230769230769,4,1,0,80,0,1
81858,-77.6673089753119,4,1,0,80,0,1
81934,-78.4260211264016,4,1,0,80,0,1
82011,-79.1997655686939,4,1,0,80,0,1
82087,-79.9889295321528,4,1,0,80,0,1
82164,-80.7939785863639,4,1,0,80,0,1
82241,-81.6153306237044,4,1,0,80,0,1
82317,-82.4536218990223,4,1,0,80,0,1
82394,-83.3093124815678,4,1,0,80,0,1
82470,-84.1829497537228,4,1,0,80,0,1
82547,-85.0750319244057,4,1,0,80,0,1
82623,-85.9862972236744,4,1,0,80,0,1
82700,-86.9172955857313,4,1,0,80,0,1
82776,-87.8686749931023,4,1,0,80,0,1
82853,-88.8410331856795,4,1,0,80,0,1
82929,-89.8352331987901,4,1,0,80,0,1
83006,-90.8519367815883,4,1,0,80,0,1
83082,-91.8919167275451,4,1,0,80,0,1
83159,-92.9558952163967,4,1,0,80,0,1
83235,-94.0448895066593,4,1,0,80,0,1
83312,-95.1597017694947,4,1,0,80,0,1
83388,-96.3012611613162,4,1,0,80,0,1
83465,-97.4704469604816,4,1,0,80,0,1
83542,-98.6684690107006,4,1,0,80,0,1
83618,-99.8963076326773,4,1,0,80,0,1
83771,-102.040816326531,4,1,0,80,0,1
83924,-104.166666666667,4,1,0,80,0,1
84230,-100,4,1,0,80,0,1
84307,-99.0735631113458,4,1,0,80,0,1
84383,-98.1642307212813,4,1,0,80,0,1
84460,-97.271344251069,4,1,0,80,0,1
84536,-96.3945544788284,4,1,0,80,0,1
84613,-95.5335212796142,4,1,0,80,0,1
84690,-94.6876443986577,4,1,0,80,0,1
84766,-93.8566152488843,4,1,0,80,0,1
84843,-93.0401328613097,4,1,0,80,0,1
84919,-92.2376484564952,4,1,0,80,0,1
84996,-91.4489723878973,4,1,0,80,0,1
85072,-90.6735868748169,4,1,0,80,0,1
85149,-89.9112396242429,4,1,0,80,0,1
85225,-89.1616840145583,4,1,0,80,0,1
85302,-88.4244444071097,4,1,0,80,0,1
85378,-87.6992966516409,4,1,0,80,0,1
85455,-86.9860213463696,4,1,0,80,0,1
85531,-86.284180399513,4,1,0,80,0,1
85608,-85.5935743191887,4,1,0,80,0,1
85684,-84.9140075845192,4,1,0,80,0,1
85761,-84.2450756647147,4,1,0,80,0,1
85914,-82.9384082792437,4,1,0,80,0,1
85991,-82.3001238616864,4,1,0,80,0,1
86067,-81.6715887410815,4,1,0,80,0,1
86220,-80.4429510657484,4,1,0,80,0,1
86373,-79.2507318805089,4,1,0,80,0,1
86526,-76.9230769230769,4,1,0,80,0,1
86756,-77.6673089753119,4,1,0,80,0,1
86832,-78.4260211264016,4,1,0,80,0,1
86909,-79.1997655686939,4,1,0,80,0,1
86985,-79.9889295321528,4,1,0,80,0,1
87062,-80.7939785863639,4,1,0,80,0,1
87139,-81.6153306237044,4,1,0,80,0,1
87215,-82.4536218990223,4,1,0,80,0,1
87292,-83.3093124815678,4,1,0,80,0,1
87368,-84.1829497537228,4,1,0,80,0,1
87445,-85.0750319244057,4,1,0,80,0,1
87521,-85.9862972236744,4,1,0,80,0,1
87598,-86.9172955857313,4,1,0,80,0,1
87674,-87.8686749931023,4,1,0,80,0,1
87751,-88.8410331856795,4,1,0,80,0,1
87827,-89.8352331987901,4,1,0,80,0,1
87904,-90.8519367815883,4,1,0,80,0,1
87980,-91.8919167275451,4,1,0,80,0,1
88057,-92.9558952163967,4,1,0,80,0,1
88133,-94.0448895066593,4,1,0,80,0,1
88210,-95.1597017694947,4,1,0,80,0,1
88286,-96.3012611613162,4,1,0,80,0,1
88363,-97.4704469604816,4,1,0,80,0,1
88440,-98.6684690107006,4,1,0,80,0,1
88516,-99.8963076326773,4,1,0,80,0,1
88669,-96.1538461538461,4,1,0,80,0,1
88822,-92.5925925925926,4,1,0,80,0,1
88899,-89.2857142857143,4,1,0,80,0,1
88976,-86.2068965517241,4,1,0,80,0,1
89052,-83.3333333333333,4,1,0,80,0,1
89129,-80.6451612903226,4,1,0,80,0,1
89205,-81.2989623000452,4,1,0,80,0,1
89281,-81.9635180381212,4,1,0,80,0,1
89358,-82.6389594763334,4,1,0,80,0,1
89434,-83.3256257129549,4,1,0,80,0,1
89511,-84.0237989008007,4,1,0,80,0,1
89587,-84.7338425272377,4,1,0,80,0,1
89664,-85.455915856687,4,1,0,80,0,1
89741,-86.1904014921282,4,1,0,80,0,1
89817,-86.9376978375986,4,1,0,80,0,1
89894,-87.6979891728063,4,1,0,80,0,1
89970,-88.4716956927555,4,1,0,80,0,1
90047,-89.2592552921812,4,1,0,80,0,1
90123,-90.0608811556612,4,1,0,80,0,1
90200,-90.8770360999938,4,1,0,80,0,1
90276,-91.7081187363355,4,1,0,80,0,1
90353,-92.554628055344,4,1,0,80,0,1
90429,-93.4168230619979,4,1,0,80,0,1
90506,-94.2952327159196,4,1,0,80,0,1
90557,-94.8901646344356,4,1,0,80,0,1
90608,-95.4925601746368,4,1,0,80,0,1
90659,-96.102653009839,4,1,0,80,0,1
90735,-97.0325505394039,4,1,0,80,0,1
90812,-97.980715435588,4,1,0,80,0,1
90888,-98.9474954904679,4,1,0,80,0,1
90965,-99.9335441931116,4,1,0,80,0,1
91118,-101.96590260217,4,1,0,80,0,1
91271,-104.082533285594,4,1,0,80,0,1
91424,-106.289014711463,4,1,0,80,0,1
91577,-76.9230769230769,4,1,0,80,0,1
91654,-77.4803993959628,4,1,0,80,0,1
91730,-78.0457957120079,4,1,0,80,0,1
91807,-78.6195662086815,4,1,0,80,0,1
91883,-79.2018355817414,4,1,0,80,0,1
91960,-79.7927304035039,4,1,0,80,0,1
92036,-80.3925730125348,4,1,0,80,0,1
92113,-81.0015025778728,4,1,0,80,0,1
92190,-81.6196605438318,4,1,0,80,0,1
92266,-82.2473935800975,4,1,0,80,0,1
92343,-82.8847884863083,4,1,0,80,0,1
92419,-83.5322096023616,4,1,0,80,0,1
92496,-84.1898244810539,4,1,0,80,0,1
92572,-84.8578037782089,4,1,0,80,0,1
92649,-85.5365407825396,4,1,0,80,0,1
92725,-86.2262231189749,4,1,0,80,0,1
92802,-86.9270421335373,4,1,0,80,0,1
92878,-87.63942336765,4,1,0,80,0,1
92955,-88.3635772403701,4,1,0,80,0,1
93031,-89.0997186230886,4,1,0,80,0,1
93108,-89.8483090997469,4,1,0,80,0,1
93184,-90.6095850443443,4,1,0,80,0,1
93261,-91.3837881504469,4,1,0,80,0,1
93337,-92.1714204076742,4,1,0,80,0,1
93414,-92.9727478281566,4,1,0,80,0,1
93567,-94.6178526856804,4,1,0,80,0,1
93720,-96.3222248122198,4,1,0,80,0,1
93873,-100,4,1,0,80,0,1
94103,-98.5281859581571,4,1,0,80,0,1
94179,-97.0990682373412,4,1,0,80,0,1
94256,-95.7109071192644,4,1,0,80,0,1
94332,-94.3617887598124,4,1,0,80,0,1
94409,-93.0501754461058,4,1,0,80,0,1
94485,-91.7745246767931,4,1,0,80,0,1
94562,-90.5334593559087,4,1,0,80,0,1
94638,-89.3254322011037,4,1,0,80,0,1
94715,-88.1492189979197,4,1,0,80,0,1
94792,-87.0035793272535,4,1,0,80,0,1
94868,-85.8874101939767,4,1,0,80,0,1
94945,-84.7994450724314,4,1,0,80,0,1
95021,-83.738698415915,4,1,0,80,0,1
95098,-82.7041614252904,4,1,0,80,0,1
95174,-81.6949412858457,4,1,0,80,0,1
95251,-80.7099896368373,4,1,0,80,0,1
95327,-79.7485051142716,4,1,0,80,0,1
95404,-78.8096589117962,4,1,0,80,0,1
95480,-77.8927214704276,4,1,0,80,0,1
95557,-76.9968161816509,4,1,0,80,0,1
95710,-80,4,1,0,80,0,1
95786,-81.6326530612245,4,1,0,80,0,1
95863,-83.3333333333333,4,1,0,80,0,1
96016,-86.9565217391304,4,1,0,80,0,1
96169,-90.9090909090909,4,1,0,80,0,1
96322,-100,4,1,0,80,0,1
96478,-100,4,1,0,80,0,0
96552,-98.7696267594574,4,1,0,80,0,0
96628,-97.5692570979195,4,1,0,80,0,0
96705,-96.397620906716,4,1,0,80,0,0
96781,-95.2537894338782,4,1,0,80,0,0
96858,-94.1367845133693,4,1,0,80,0,0
96934,-93.0457599047211,4,1,0,80,0,0
97011,-91.9796504221406,4,1,0,80,0,0
97087,-90.9376949476836,4,1,0,80,0,0
97164,-89.9190818182717,4,1,0,80,0,0
97241,-88.9231144075898,4,1,0,80,0,0
97317,-87.9488911403805,4,1,0,80,0,0
97394,-86.9957833143827,4,1,0,80,0,0
97470,-86.063111801146,4,1,0,80,0,0
97547,-85.1502987923985,4,1,0,80,0,0
97623,-84.2565747511693,4,1,0,80,0,0
97700,-83.3814166169158,4,1,0,80,0,0
97776,-82.524251814502,4,1,0,80,0,0
97853,-81.6845977972931,4,1,0,80,0,0
97929,-80.8617926412534,4,1,0,80,0,0
98006,-80.0553983356483,4,1,0,80,0,0
98159,-78.4899783995579,4,1,0,80,0,0
98210,-77.981647799007,4,1,0,80,0,0
98261,-77.4799191419564,4,1,0,80,0,0
98312,-76.9845461222114,4,1,0,80,0,0
98465,-83.4054790727312,4,1,0,80,0,0
98618,-90.9949570594798,4,1,0,80,0,0
98771,-95.2380952380952,4,1,0,80,0,0
98924,-76.9230769230769,4,1,0,80,0,0
98975,-77.2937300872028,4,1,0,80,0,0
99026,-77.667972524178,4,1,0,80,0,0
99077,-78.0457957120079,4,1,0,80,0,0
99154,-78.6195662086815,4,1,0,80,0,0
99230,-79.2018355817414,4,1,0,80,0,0
99281,-79.5947671216304,4,1,0,80,0,0
99332,-79.99168086519,4,1,0,80,0,0
99383,-80.3925730125348,4,1,0,80,0,0
99460,-81.0015025778728,4,1,0,80,0,0
99536,-81.6196605438318,4,1,0,80,0,0
99587,-82.0370791190202,4,1,0,80,0,0
99638,-82.4587891586482,4,1,0,80,0,0
99690,-82.8847884863083,4,1,0,80,0,0
99766,-83.5322096023616,4,1,0,80,0,0
99843,-84.1898244810539,4,1,0,80,0,0
99919,-84.8578037782089,4,1,0,80,0,0
99996,-85.5365407825396,4,1,0,80,0,0
100072,-86.2262231189749,4,1,0,80,0,0
100149,-86.9270421335373,4,1,0,80,0,0
100225,-87.63942336765,4,1,0,80,0,0
100302,-88.3635772403701,4,1,0,80,0,0
100353,-88.8529528057541,4,1,0,80,0,0
100404,-89.347858912583,4,1,0,80,0,0
100455,-89.8483090997469,4,1,0,80,0,0
100531,-90.6095850443443,4,1,0,80,0,0
100608,-91.3837881504469,4,1,0,80,0,0
100684,-92.1714204076742,4,1,0,80,0,0
100761,-92.9727478281566,4,1,0,80,0,0
100837,-93.7880427748506,4,1,0,80,0,0
100914,-94.6178526856804,4,1,0,80,0,0
100991,-95.4624775185866,4,1,0,80,0,0
101067,-96.3222248122198,4,1,0,80,0,0
101144,-97.1976933043425,4,1,0,80,0,0
101220,-98.0891257414312,4,1,0,80,0,0
101297,-98.997158781543,4,1,0,80,0,0
101376,-100,4,1,0,80,0,1
101450,-99.0735631113458,4,1,0,80,0,1
101527,-98.1642307212813,4,1,0,80,0,1
101603,-97.271344251069,4,1,0,80,0,1
101680,-96.3945544788284,4,1,0,80,0,1
101756,-95.5335212796142,4,1,0,80,0,1
101833,-94.6876443986577,4,1,0,80,0,1
101909,-93.8566152488843,4,1,0,80,0,1
101986,-93.0401328613097,4,1,0,80,0,1
102062,-92.2376484564952,4,1,0,80,0,1
102139,-91.4489723878973,4,1,0,80,0,1
102216,-90.6735868748169,4,1,0,80,0,1
102292,-89.9112396242429,4,1,0,80,0,1
102369,-89.1616840145583,4,1,0,80,0,1
102445,-88.4244444071097,4,1,0,80,0,1
102522,-87.6992966516409,4,1,0,80,0,1
102598,-86.9860213463696,4,1,0,80,0,1
102675,-86.284180399513,4,1,0,80,0,1
102751,-85.5935743191887,4,1,0,80,0,1
102828,-84.9140075845192,4,1,0,80,0,1
102904,-84.2450756647147,4,1,0,80,0,1
102981,-83.586600733556,4,1,0,80,0,1
103057,-82.9384082792437,4,1,0,80,0,1
103108,-82.5117909349246,4,1,0,80,0,1
103159,-82.0895399866358,4,1,0,80,0,1
103210,-81.6715887410815,4,1,0,80,0,1
103363,-80.4429510657484,4,1,0,80,0,1
103517,-79.2507318805089,4,1,0,80,0,1
103670,-76.9230769230769,4,1,0,80,0,1
103899,-77.4999748125082,4,1,0,80,0,1
103976,-78.0856521518454,4,1,0,80,0,1
104052,-78.6801870700128,4,1,0,80,0,1
104129,-79.2839077452449,4,1,0,80,0,1
104205,-79.8969010388994,4,1,0,80,0,1
104282,-80.5195118907189,4,1,0,80,0,1
104358,-81.1518367095202,4,1,0,80,0,1
104435,-81.7941715109265,4,1,0,80,0,1
104511,-82.446823859781,4,1,0,80,0,1
104588,-83.1099062021599,4,1,0,80,0,1
104664,-83.7838109569117,4,1,0,80,0,1
104741,-84.4686625485378,4,1,0,80,0,1
104818,-85.1648024091419,4,1,0,80,0,1
104894,-85.8725856922533,4,1,0,80,0,1
104971,-86.5921570019717,4,1,0,80,0,1
105124,-88.068171810435,4,1,0,80,0,1
105200,-88.8252505316191,4,1,0,80,0,1
105251,-89.3371629197171,4,1,0,80,0,1
105302,-89.8550906952358,4,1,0,80,0,1
105353,-90.3789771268885,4,1,0,80,0,1
105430,-91.1764866782035,4,1,0,80,0,1
105506,-91.9881114564754,4,1,0,80,0,1
105583,-92.8144018251024,4,1,0,80,0,1
105659,-93.6555834649194,4,1,0,80,0,1
105736,-94.5121518999305,4,1,0,80,0,1
105812,-95.3846241893499,4,1,0,80,0,1
105889,-96.2732620269373,4,1,0,80,0,1
105966,-97.1787077564157,4,1,0,80,0,1
106042,-98.1012503004351,4,1,0,80,0,1
106119,-99.0415746818042,4,1,0,80,0,1
106195,-100,4,1,0,80,0,1
106274,-100,4,1,0,80,0,0
106580,-62.5,4,1,0,80,0,1
106731,-68.4931506849315,4,1,0,80,0,1
106807,-67.5675675675676,4,1,0,80,0,1
106884,-66.6666666666667,4,1,0,80,0,1
107037,-73.5294117647059,4,1,0,80,0,1
107113,-72.463768115942,4,1,0,80,0,1
107190,-71.4285714285714,4,1,0,80,0,1
107649,-76.9230769230769,4,1,0,80,0,1
107802,-79.5294402081763,4,1,0,80,0,1
107955,-82.31855139106,4,1,0,80,0,1
108006,-83.2922424937031,4,1,0,80,0,1
108057,-84.2892435967569,4,1,0,80,0,1
108108,-85.3104746760121,4,1,0,80,0,1
108261,-88.5280093768868,4,1,0,80,0,1
108414,-91.9978435705467,4,1,0,80,0,1
108491,-93.8367990391112,4,1,0,80,0,1
108568,-95.750680547962,4,1,0,80,0,1
108721,-100,4,1,0,80,0,1
108797,-99.0126458951337,4,1,0,80,0,1
108874,-98.0445023996392,4,1,0,80,0,1
108950,-97.0952028173144,4,1,0,80,0,1
109027,-96.16410982326,4,1,0,80,0,1
109103,-95.2507046170874,4,1,0,80,0,1
109180,-94.354398896431,4,1,0,80,0,1
109256,-93.474891709338,4,1,0,80,0,1
109333,-92.6116294275305,4,1,0,80,0,1
109409,-91.7640818865961,4,1,0,80,0,1
109486,-90.9319892372898,4,1,0,80,0,1
109562,-90.1148513780814,4,1,0,80,0,1
109639,-89.3121889703019,4,1,0,80,0,1
109716,-88.5237774866329,4,1,0,80,0,1
109792,-87.7491637504695,4,1,0,80,0,1
109869,-86.9879886985205,4,1,0,80,0,1
109945,-86.2398312458982,4,1,0,80,0,1
110098,-84.7816152762906,4,1,0,80,0,1
110251,-83.3718233251018,4,1,0,80,0,1
110302,-82.9122771525271,4,1,0,80,0,1
110353,-82.4577692534768,4,1,0,80,0,1
110404,-82.008149969944,4,1,0,80,0,1
110455,-81.5634739188557,4,1,0,80,0,1
110506,-81.1235942295165,4,1,0,80,0,1
110557,-80.6884337164689,4,1,0,80,0,1
110710,-79.4104567689473,4,1,0,80,0,1
110863,-78.1723920126577,4,1,0,80,0,1
111017,-76.9722799728134,4,1,0,80,0,1
111172,-76.9722799728134,4,1,0,80,0,0
111478,-62.5324778056603,4,1,0,80,0,1
111629,-68.4931506849315,4,1,0,80,0,1
111705,-67.5675675675676,4,1,0,80,0,1
111782,-66.6666666666667,4,1,0,80,0,1
111935,-73.5294117647059,4,1,0,80,0,1
112011,-72.463768115942,4,1,0,80,0,1
112088,-71.4285714285714,4,1,0,80,0,1
112241,-79.3650793650794,4,1,0,80,0,1
112318,-78.125,4,1,0,80,0,1
112394,-76.9230769230769,4,1,0,80,0,1
112700,-83.3333333333333,4,1,0,80,0,1
112853,-85.6973666056216,4,1,0,80,0,1
112930,-86.9304426063485,4,1,0,80,0,1
113006,-88.1995214293967,4,1,0,80,0,1
113159,-90.8521018633766,4,1,0,80,0,1
113312,-93.6692687989539,4,1,0,80,0,1
113466,-96.6666441111164,4,1,0,80,0,1
113619,-99.8622899022248,4,1,0,80,0,1
113670,-99.3804621986536,4,1,0,80,0,1
113721,-98.7685536728074,4,1,0,80,0,1
113772,-98.1642307212813,4,1,0,80,0,1
113848,-97.271344251069,4,1,0,80,0,1
113925,-96.3945544788284,4,1,0,80,0,1
114001,-95.5335212796142,4,1,0,80,0,1
114078,-94.6876443986577,4,1,0,80,0,1
114129,-94.1319994201469,4,1,0,80,0,1
114180,-93.5829252337935,4,1,0,80,0,1
114231,-93.0401328613097,4,1,0,80,0,1
114307,-92.2376484564952,4,1,0,80,0,1
114384,-91.4489723878973,4,1,0,80,0,1
114460,-90.6735868748169,4,1,0,80,0,1
114537,-89.9112396242429,4,1,0,80,0,1
114588,-89.4100901074888,4,1,0,80,0,1
114639,-88.9145753217596,4,1,0,80,0,1
114690,-88.4244444071097,4,1,0,80,0,1
114767,-87.6992966516409,4,1,0,80,0,1
114843,-86.9860213463696,4,1,0,80,0,1
114920,-86.284180399513,4,1,0,80,0,1
114996,-85.5935743191887,4,1,0,80,0,1
115047,-85.1393518341145,4,1,0,80,0,1
115098,-84.689853054636,4,1,0,80,0,1
115149,-84.2450756647147,4,1,0,80,0,1
115226,-83.586600733556,4,1,0,80,0,1
115302,-82.9384082792437,4,1,0,80,0,1
115379,-82.3001238616864,4,1,0,80,0,1
115455,-81.6715887410815,4,1,0,80,0,1
115532,-81.052646936291,4,1,0,80,0,1
115608,-80.4429510657484,4,1,0,80,0,1
115685,-79.8423592459049,4,1,0,80,0,1
115761,-79.2507318805089,4,1,0,80,0,1
115838,-78.6677459881416,4,1,0,80,0,1
115914,-78.0933355928338,4,1,0,80,0,1
115991,-77.5271926628265,4,1,0,80,0,1
116068,-76.9230769230769,4,1,0,80,0,1
116221,-78.0457957120079,4,1,0,80,0,1
116297,-78.6195662086815,4,1,0,80,0,1
116374,-79.2018355817414,4,1,0,80,0,1
116450,-79.7927304035039,4,1,0,80,0,1
116527,-80.3925730125348,4,1,0,80,0,1
116603,-81.0015025778728,4,1,0,80,0,1
116680,-81.6196605438318,4,1,0,80,0,1
116756,-82.2473935800975,4,1,0,80,0,1
116833,-82.8847884863083,4,1,0,80,0,1
116909,-83.5322096023616,4,1,0,80,0,1
116986,-84.1898244810539,4,1,0,80,0,1
117062,-84.8578037782089,4,1,0,80,0,1
117139,-85.5365407825396,4,1,0,80,0,1
117445,-88.3635772403701,4,1,0,80,0,1
117598,-89.8483090997469,4,1,0,80,0,1
117751,-91.3837881504469,4,1,0,80,0,1
117802,-91.9073720741288,4,1,0,80,0,1
117853,-92.4369903255446,4,1,0,80,0,1
117904,-92.9727478281566,4,1,0,80,0,1
118057,-94.6178526856804,4,1,0,80,0,1
118210,-96.3222248122198,4,1,0,80,0,1
118287,-97.1976933043425,4,1,0,80,0,1
118363,-98.0891257414312,4,1,0,80,0,1
118517,-100,4,1,0,80,0,1
118670,-94.594581811543,4,1,0,80,0,1
118746,-92.1052873961283,4,1,0,80,0,1
118823,-89.7435667324188,4,1,0,80,0,1
118899,-87.5000109375014,4,1,0,80,0,1
118976,-85.3658224271381,4,1,0,80,0,1
119052,-83.3333333333333,4,1,0,80,0,1
119129,-81.3953772309455,4,1,0,80,0,1
119282,-77.7777950617322,4,1,0,80,0,1
119435,-74.4680930285205,4,1,0,80,0,1
119590,-71.4285714285714,4,1,0,80,0,0
119664,-33.3333333333333,4,1,0,10,0,0
120047,-133.333333333333,4,1,0,10,0,0

[HitObjects]
281,147,10763,5,4,0:0:0:0:
286,134,11070,1,8,0:0:0:0:
277,134,11223,1,0,0:0:0:0:
278,134,11376,1,8,0:0:0:0:
278,133,11682,1,0,0:0:0:0:
286,134,11988,1,8,0:0:0:0:
278,134,12294,1,0,0:0:0:0:
286,130,12600,1,8,0:0:0:0:
277,134,12906,1,0,0:0:0:0:
278,134,13059,1,8,0:0:0:0:
278,134,13212,1,0,0:0:0:0:
277,121,13519,1,8,0:0:0:0:
277,134,13672,1,0,0:0:0:0:
277,134,13825,1,8,0:0:0:0:
286,130,14131,1,0,0:0:0:0:
286,130,14437,1,8,0:0:0:0:
286,130,14743,1,0,0:0:0:0:
286,130,15049,1,8,0:0:0:0:
286,130,15355,1,0,0:0:0:0:
296,122,15508,1,8,0:0:0:0:
296,122,15661,1,8,0:0:0:0:
296,122,15968,1,8,0:0:0:0:
296,122,16121,1,0,0:0:0:0:
296,122,16274,1,8,0:0:0:0:
296,122,16580,1,0,0:0:0:0:
297,107,16886,1,8,0:0:0:0:
297,107,17192,1,0,0:0:0:0:
297,107,17498,1,8,0:0:0:0:
297,107,17804,1,8,0:0:0:0:
302,102,18110,1,0,0:0:0:0:
297,107,18416,1,8,0:0:0:0:
297,107,18570,1,0,0:0:0:0:
297,107,18723,1,8,0:0:0:0:
292,103,19029,1,0,0:0:0:0:
292,103,19947,1,8,0:0:0:0:
292,103,20100,1,0,0:0:0:0:
292,103,20253,1,8,0:0:0:0:
292,103,20559,1,0,0:0:0:0:
306,110,20636,1,0,0:0:0:0:
305,110,20712,1,8,0:0:0:0:
305,109,20789,1,0,0:0:0:0:
304,110,20865,1,8,0:0:0:0:
293,93,20942,1,8,0:0:0:0:
293,93,21019,1,0,0:0:0:0:
293,93,21095,1,0,0:0:0:0:
293,93,21172,1,8,0:0:0:0:
293,93,21248,1,0,0:0:0:0:
293,93,21325,1,8,0:0:0:0:
292,93,21401,1,8,0:0:0:0:
292,93,21478,1,0,0:0:0:0:
298,99,21554,1,8,0:0:0:0:
296,98,21631,1,0,0:0:0:0:
293,98,21707,1,0,0:0:0:0:
291,93,21784,1,8,0:0:0:0:
294,90,21860,1,0,0:0:0:0:
289,85,21937,1,8,0:0:0:0:
293,93,22013,1,8,0:0:0:0:
293,93,22090,1,0,0:0:0:0:
281,88,22166,1,0,0:0:0:0:
305,92,22243,1,8,0:0:0:0:
306,77,22320,1,0,0:0:0:0:
296,81,22396,1,8,0:0:0:0:
295,80,22549,1,0,0:0:0:0:
296,80,22702,1,8,0:0:0:0:
296,80,23008,1,0,0:0:0:0:
304,85,23085,1,0,0:0:0:0:
304,85,23161,1,8,0:0:0:0:
305,92,23238,1,0,0:0:0:0:
304,85,23314,1,8,0:0:0:0:
303,84,23391,1,8,0:0:0:0:
295,80,23468,1,0,0:0:0:0:
295,80,23544,1,0,0:0:0:0:
296,80,23621,1,8,0:0:0:0:
296,80,23697,1,0,0:0:0:0:
296,80,23774,1,8,0:0:0:0:
296,80,23850,1,8,0:0:0:0:
296,80,23927,1,0,0:0:0:0:
296,80,24003,1,0,0:0:0:0:
291,83,24080,1,8,0:0:0:0:
291,83,24156,1,8,0:0:0:0:
291,83,24233,1,0,0:0:0:0:
291,83,24309,1,8,0:0:0:0:
291,83,24386,1,0,0:0:0:0:
307,83,24462,1,0,0:0:0:0:
307,83,24539,1,8,0:0:0:0:
296,80,24692,1,8,0:0:0:0:
296,80,24769,1,8,0:0:0:0:
296,80,24845,1,0,0:0:0:0:
296,80,24998,1,0,0:0:0:0:
294,76,25151,1,8,0:0:0:0:
294,76,25304,1,8,0:0:0:0:
294,76,25381,1,8,0:0:0:0:
292,103,25457,1,0,0:0:0:0:
306,110,25534,1,0,0:0:0:0:
305,110,25610,1,8,0:0:0:0:
305,109,25687,1,0,0:0:0:0:
304,110,25763,1,8,0:0:0:0:
293,93,25840,1,8,0:0:0:0:
293,93,25916,1,0,0:0:0:0:
293,93,25993,1,0,0:0:0:0:
293,93,26070,1,8,0:0:0:0:
293,93,26146,1,0,0:0:0:0:
293,93,26223,1,8,0:0:0:0:
292,93,26299,1,8,0:0:0:0:
292,93,26376,1,0,0:0:0:0:
298,99,26452,1,8,0:0:0:0:
296,98,26529,1,0,0:0:0:0:
293,98,26605,1,0,0:0:0:0:
291,93,26682,1,8,0:0:0:0:
294,90,26758,1,0,0:0:0:0:
289,85,26835,1,8,0:0:0:0:
293,93,26911,1,0,0:0:0:0:
293,93,26988,1,8,0:0:0:0:
281,88,27064,1,8,0:0:0:0:
305,92,27141,1,0,0:0:0:0:
306,77,27218,1,0,0:0:0:0:
296,81,27294,1,8,0:0:0:0:
305,93,27447,1,0,0:0:0:0:
305,93,27600,1,8,0:0:0:0:
316,91,27677,1,8,0:0:0:0:
316,91,27753,1,8,0:0:0:0:
316,91,27830,1,8,0:0:0:0:
295,83,27906,1,0,0:0:0:0:
310,76,27983,1,0,0:0:0:0:
310,76,28059,1,8,0:0:0:0:
310,76,28136,1,8,0:0:0:0:
306,77,28212,1,8,0:0:0:0:
310,76,28289,1,8,0:0:0:0:
313,89,28365,1,0,0:0:0:0:
313,89,28442,1,0,0:0:0:0:
313,89,28519,1,8,0:0:0:0:
313,89,28595,1,8,0:0:0:0:
316,91,28672,1,8,0:0:0:0:
316,91,28748,1,8,0:0:0:0:
309,77,28825,1,0,0:0:0:0:
309,77,28901,1,0,0:0:0:0:
310,76,28978,1,8,0:0:0:0:
310,76,29054,1,8,0:0:0:0:
310,76,29131,1,0,0:0:0:0:
306,77,29207,1,0,0:0:0:0:
318,90,29284,1,8,0:0:0:0:
313,89,29335,1,8,0:0:0:0:
329,99,29386,1,0,0:0:0:0:
329,99,29437,1,0,0:0:0:0:
326,78,29513,1,8,0:0:0:0:
326,78,29590,1,0,0:0:0:0:
326,78,29666,1,8,0:0:0:0:
326,78,29743,1,0,0:0:0:0:
327,78,29896,1,0,0:0:0:0:
327,78,30049,1,8,0:0:0:0:
321,79,30202,1,8,0:0:0:0:
309,116,30355,1,0,0:0:0:0:
309,116,30432,1,0,0:0:0:0:
309,116,30508,1,8,0:0:0:0:
309,116,30585,1,0,0:0:0:0:
309,116,30661,1,8,0:0:0:0:
309,116,30738,1,8,0:0:0:0:
309,116,30814,1,0,0:0:0:0:
309,113,30891,1,0,0:0:0:0:
309,113,30968,1,8,0:0:0:0:
309,113,31044,1,0,0:0:0:0:
309,113,31121,1,8,0:0:0:0:
309,113,31197,1,8,0:0:0:0:
309,116,31274,1,0,0:0:0:0:
316,97,31350,1,8,0:0:0:0:
316,97,31427,1,0,0:0:0:0:
316,97,31503,1,0,0:0:0:0:
316,97,31580,1,8,0:0:0:0:
317,97,31656,1,0,0:0:0:0:
317,96,31733,1,8,0:0:0:0:
317,96,31809,1,8,0:0:0:0:
317,96,31886,1,0,0:0:0:0:
317,96,31962,1,0,0:0:0:0:
306,93,32039,1,8,0:0:0:0:
306,93,32115,1,0,0:0:0:0:
306,93,32192,1,8,0:0:0:0:
315,85,32345,1,0,0:0:0:0:
315,86,32498,1,8,0:0:0:0:
315,86,32651,1,8,0:0:0:0:
315,86,32728,1,8,0:0:0:0:
322,87,32804,1,0,0:0:0:0:
323,88,32881,1,0,0:0:0:0:
323,88,32957,1,8,0:0:0:0:
323,88,33034,1,0,0:0:0:0:
323,88,33110,1,8,0:0:0:0:
323,88,33187,1,8,0:0:0:0:
323,88,33263,1,0,0:0:0:0:
323,88,33340,1,0,0:0:0:0:
323,88,33416,1,8,0:0:0:0:
323,88,33493,1,0,0:0:0:0:
323,88,33570,1,8,0:0:0:0:
323,88,33646,1,8,0:0:0:0:
323,88,33723,1,0,0:0:0:0:
322,87,33799,1,0,0:0:0:0:
323,88,33876,1,8,0:0:0:0:
323,88,33952,1,8,0:0:0:0:
323,88,34029,1,0,0:0:0:0:
323,88,34105,1,8,0:0:0:0:
323,88,34182,1,0,0:0:0:0:
327,94,34258,1,0,0:0:0:0:
327,94,34335,1,8,0:0:0:0:
337,86,34488,1,8,0:0:0:0:
337,86,34564,1,8,0:0:0:0:
337,86,34641,1,0,0:0:0:0:
337,86,34794,1,8,0:0:0:0:
337,86,34947,1,0,0:0:0:0:
338,86,35100,1,8,0:0:0:0:
338,86,35177,1,8,0:0:0:0:
338,86,35253,1,0,0:0:0:0:
321,145,35330,1,0,0:0:0:0:
308,143,35406,1,0,0:0:0:0:
307,143,35483,1,0,0:0:0:0:
307,142,35559,1,8,0:0:0:0:
307,142,35636,1,8,0:0:0:0:
307,142,35712,1,0,0:0:0:0:
307,142,35789,1,0,0:0:0:0:
307,142,35865,1,8,0:0:0:0:
307,142,35942,1,0,0:0:0:0:
307,142,36019,1,8,0:0:0:0:
307,142,36095,1,8,0:0:0:0:
307,142,36172,1,0,0:0:0:0:
317,133,36248,1,0,0:0:0:0:
307,142,36325,1,8,0:0:0:0:
308,143,36401,1,8,0:0:0:0:
317,133,36478,1,0,0:0:0:0:
307,142,36554,1,0,0:0:0:0:
307,142,36631,1,8,0:0:0:0:
305,126,36707,1,8,0:0:0:0:
305,126,36784,1,0,0:0:0:0:
286,124,36937,1,0,0:0:0:0:
304,127,36988,1,0,0:0:0:0:
304,127,37039,1,8,0:0:0:0:
304,128,37090,1,8,0:0:0:0:
318,125,37243,1,8,0:0:0:0:
317,124,37396,1,0,0:0:0:0:
317,124,37549,1,0,0:0:0:0:
329,130,37702,1,8,0:0:0:0:
320,116,37753,1,8,0:0:0:0:
321,116,37804,1,0,0:0:0:0:
321,116,37855,1,0,0:0:0:0:
334,113,37932,1,8,0:0:0:0:
328,117,38008,1,0,0:0:0:0:
327,114,38059,1,0,0:0:0:0:
327,114,38110,1,8,0:0:0:0:
327,114,38161,1,8,0:0:0:0:
316,109,38238,1,0,0:0:0:0:
316,110,38314,1,8,0:0:0:0:
331,116,38365,1,8,0:0:0:0:
331,116,38416,1,8,0:0:0:0:
331,116,38468,1,0,0:0:0:0:
336,111,38544,1,0,0:0:0:0:
334,112,38621,1,8,0:0:0:0:
334,112,38697,1,8,0:0:0:0:
334,112,38774,1,0,0:0:0:0:
334,112,38850,1,0,0:0:0:0:
334,113,38927,1,8,0:0:0:0:
328,117,39003,1,8,0:0:0:0:
327,114,39080,1,0,0:0:0:0:
327,101,39131,1,8,0:0:0:0:
327,101,39182,1,8,0:0:0:0:
327,101,39233,1,0,0:0:0:0:
332,108,39309,1,8,0:0:0:0:
332,108,39386,1,0,0:0:0:0:
332,108,39462,1,0,0:0:0:0:
328,104,39539,1,8,0:0:0:0:
328,104,39615,1,8,0:0:0:0:
328,104,39692,1,0,0:0:0:0:
328,104,39769,1,0,0:0:0:0:
328,104,39845,1,8,0:0:0:0:
341,95,39922,1,0,0:0:0:0:
341,95,39998,1,0,0:0:0:0:
344,105,40075,1,8,0:0:0:0:
341,94,40151,1,0,0:0:0:0:
256,192,40304,12,0,42447,0:0:0:0:
271,111,42600,5,4,0:0:0:0:
285,97,42753,1,0,0:0:0:0:
279,103,42830,1,0,0:0:0:0:
279,103,42906,1,0,0:0:0:0:
277,103,43059,1,0,0:0:0:0:
276,104,43212,1,8,0:0:0:0:
276,104,43365,1,0,0:0:0:0:
276,104,43519,1,0,0:0:0:0:
276,104,43672,1,0,0:0:0:0:
286,98,43978,1,0,0:0:0:0:
286,98,44131,1,0,0:0:0:0:
286,98,44284,1,0,0:0:0:0:
286,98,44360,1,0,0:0:0:0:
286,98,44437,1,8,0:0:0:0:
287,98,44590,1,0,0:0:0:0:
286,98,44743,1,8,0:0:0:0:
288,83,44896,1,8,0:0:0:0:
286,98,45049,1,0,0:0:0:0:
296,80,45202,1,0,0:0:0:0:
282,79,45279,1,0,0:0:0:0:
300,96,45355,1,0,0:0:0:0:
298,96,45508,1,0,0:0:0:0:
296,95,45661,1,8,0:0:0:0:
281,80,45814,1,0,0:0:0:0:
311,92,45968,1,0,0:0:0:0:
311,92,46121,1,0,0:0:0:0:
318,90,46427,1,0,0:0:0:0:
339,92,46478,1,0,0:0:0:0:
335,93,46529,1,0,0:0:0:0:
335,93,46580,1,0,0:0:0:0:
315,91,46733,1,0,0:0:0:0:
315,91,46809,1,0,0:0:0:0:
311,92,46886,1,8,0:0:0:0:
311,92,47039,1,0,0:0:0:0:
329,76,47345,1,8,0:0:0:0:
316,82,47498,1,0,0:0:0:0:
326,73,47651,1,0,0:0:0:0:
326,73,47728,1,0,0:0:0:0:
326,73,47804,1,0,0:0:0:0:
326,76,47957,1,0,0:0:0:0:
318,72,48110,1,8,0:0:0:0:
318,72,48263,1,0,0:0:0:0:
318,71,48416,1,0,0:0:0:0:
319,71,48570,1,0,0:0:0:0:
318,72,48876,1,0,0:0:0:0:
309,69,49029,1,8,0:0:0:0:
309,69,49182,1,0,0:0:0:0:
313,58,49258,1,0,0:0:0:0:
309,69,49335,1,8,0:0:0:0:
308,69,49488,1,0,0:0:0:0:
314,58,49641,1,8,0:0:0:0:
314,57,49794,1,8,0:0:0:0:
314,57,49871,1,8,0:0:0:0:
314,58,49947,1,8,0:0:0:0:
327,61,50100,1,8,0:0:0:0:
332,61,50177,1,0,0:0:0:0:
332,61,50253,1,8,0:0:0:0:
336,60,50304,1,8,0:0:0:0:
336,60,50355,1,8,0:0:0:0:
336,59,50406,1,0,0:0:0:0:
343,64,50483,1,0,0:0:0:0:
314,58,50559,1,8,0:0:0:0:
333,70,50636,1,0,0:0:0:0:
276,93,50674,1,0,0:0:0:0:
295,92,50712,1,8,0:0:0:0:
326,74,50789,1,0,0:0:0:0:
326,74,50865,1,8,0:0:0:0:
331,67,50942,1,0,0:0:0:0:
331,67,51019,1,8,0:0:0:0:
331,67,51095,1,0,0:0:0:0:
326,80,51248,1,8,0:0:0:0:
326,80,51325,1,0,0:0:0:0:
338,69,51376,1,8,0:0:0:0:
338,69,51427,1,8,0:0:0:0:
338,69,51478,1,0,0:0:0:0:
327,78,51554,1,8,0:0:0:0:
327,78,51631,1,8,0:0:0:0:
332,62,51707,1,0,0:0:0:0:
332,62,51784,1,8,0:0:0:0:
346,74,51937,1,0,0:0:0:0:
342,73,52013,1,0,0:0:0:0:
342,73,52090,1,8,0:0:0:0:
342,73,52166,1,8,0:0:0:0:
350,70,52243,1,8,0:0:0:0:
342,73,52320,1,8,0:0:0:0:
338,69,52396,1,4,0:0:0:0:
327,78,52549,1,0,0:0:0:0:
327,78,52626,1,0,0:0:0:0:
329,72,52702,1,0,0:0:0:0:
329,72,52855,1,0,0:0:0:0:
328,73,53008,1,8,0:0:0:0:
328,72,53161,1,0,0:0:0:0:
328,72,53314,1,0,0:0:0:0:
327,78,53468,1,8,0:0:0:0:
327,78,53544,1,0,0:0:0:0:
327,78,53621,1,0,0:0:0:0:
329,72,53774,1,0,0:0:0:0:
329,72,53850,1,8,0:0:0:0:
329,72,53927,1,0,0:0:0:0:
353,80,54080,1,0,0:0:0:0:
328,72,54233,1,8,0:0:0:0:
328,65,54386,1,0,0:0:0:0:
328,65,54539,1,8,0:0:0:0:
325,79,54692,1,8,0:0:0:0:
336,63,54845,1,0,0:0:0:0:
269,163,54998,1,0,0:0:0:0:
269,163,55075,1,0,0:0:0:0:
269,163,55151,1,8,0:0:0:0:
269,163,55304,1,0,0:0:0:0:
269,163,55457,1,8,0:0:0:0:
269,163,55610,1,0,0:0:0:0:
269,163,55763,1,8,0:0:0:0:
269,163,55916,1,8,0:0:0:0:
269,163,56223,1,0,0:0:0:0:
269,163,56376,1,0,0:0:0:0:
269,163,56529,1,0,0:0:0:0:
313,145,56580,1,8,0:0:0:0:
306,142,56631,1,8,0:0:0:0:
306,142,56682,1,8,0:0:0:0:
289,143,56835,1,0,0:0:0:0:
289,143,56988,1,8,0:0:0:0:
289,142,57141,1,8,0:0:0:0:
289,142,57294,1,0,0:0:0:0:
289,142,57447,1,0,0:0:0:0:
289,142,57524,1,0,0:0:0:0:
290,142,57600,1,8,0:0:0:0:
289,143,57753,1,0,0:0:0:0:
296,126,57906,1,8,0:0:0:0:
291,129,58059,1,0,0:0:0:0:
291,129,58212,1,8,0:0:0:0:
291,129,58365,1,8,0:0:0:0:
291,129,58519,1,0,0:0:0:0:
290,128,58672,1,0,0:0:0:0:
296,126,58825,1,8,0:0:0:0:
291,129,58978,1,8,0:0:0:0:
291,129,59054,1,0,0:0:0:0:
291,129,59131,1,8,0:0:0:0:
291,129,59284,1,0,0:0:0:0:
291,129,59437,1,8,0:0:0:0:
290,128,59590,1,8,0:0:0:0:
284,127,59743,1,0,0:0:0:0:
313,116,59896,1,0,0:0:0:0:
304,122,59973,1,0,0:0:0:0:
304,122,60049,1,8,0:0:0:0:
296,115,60202,1,0,0:0:0:0:
296,115,60355,1,8,0:0:0:0:
296,115,60508,1,0,0:0:0:0:
296,115,60661,1,8,0:0:0:0:
295,115,60814,1,8,0:0:0:0:
302,109,60968,1,8,0:0:0:0:
304,109,61121,1,0,0:0:0:0:
304,99,61274,1,8,0:0:0:0:
304,100,61325,1,0,0:0:0:0:
302,100,61376,1,0,0:0:0:0:
302,100,61427,1,8,0:0:0:0:
302,100,61478,1,0,0:0:0:0:
302,101,61529,1,0,0:0:0:0:
302,101,61580,1,8,0:0:0:0:
316,88,61733,1,8,0:0:0:0:
316,89,61809,1,8,0:0:0:0:
305,90,61886,1,8,0:0:0:0:
305,90,62039,1,8,0:0:0:0:
301,84,62192,1,4,0:0:0:0:
294,107,62498,1,8,0:0:0:0:
295,106,62651,1,0,0:0:0:0:
295,106,62804,1,8,0:0:0:0:
295,106,63110,1,0,0:0:0:0:
294,107,63416,1,8,0:0:0:0:
295,85,63570,1,8,0:0:0:0:
295,85,63723,1,8,0:0:0:0:
298,98,64029,1,8,0:0:0:0:
297,98,64182,1,0,0:0:0:0:
297,98,64335,1,8,0:0:0:0:
297,98,64411,1,0,0:0:0:0:
297,98,64488,1,8,0:0:0:0:
297,98,64564,1,8,0:0:0:0:
297,97,64641,1,0,0:0:0:0:
270,113,64947,1,8,0:0:0:0:
270,113,65100,1,0,0:0:0:0:
270,113,65253,1,8,0:0:0:0:
297,98,65559,1,0,0:0:0:0:
295,104,65712,1,0,0:0:0:0:
295,99,65865,1,8,0:0:0:0:
295,99,66019,1,8,0:0:0:0:
289,93,66095,1,0,0:0:0:0:
295,99,66172,1,8,0:0:0:0:
289,94,66325,1,0,0:0:0:0:
289,94,66478,1,8,0:0:0:0:
289,94,66631,1,0,0:0:0:0:
290,94,66784,1,8,0:0:0:0:
295,99,66937,1,8,0:0:0:0:
289,93,67090,1,4,0:0:0:0:
291,107,67396,1,8,0:0:0:0:
291,107,67549,1,0,0:0:0:0:
291,107,67702,1,8,0:0:0:0:
290,107,68008,1,0,0:0:0:0:
279,111,68161,1,8,0:0:0:0:
279,111,68238,1,8,0:0:0:0:
279,111,68314,1,8,0:0:0:0:
279,111,68468,1,0,0:0:0:0:
279,111,68621,1,8,0:0:0:0:
268,112,68774,1,0,0:0:0:0:
268,112,68927,1,8,0:0:0:0:
268,112,69080,1,8,0:0:0:0:
268,112,69233,1,8,0:0:0:0:
268,113,69309,1,0,0:0:0:0:
268,113,69386,1,8,0:0:0:0:
268,113,69462,1,8,0:0:0:0:
268,113,69539,1,0,0:0:0:0:
265,98,69845,1,8,0:0:0:0:
265,98,69998,1,0,0:0:0:0:
265,98,70151,1,8,0:0:0:0:
265,98,70457,1,0,0:0:0:0:
265,98,70610,1,0,0:0:0:0:
265,98,70763,1,8,0:0:0:0:
257,98,70916,1,8,0:0:0:0:
265,98,70993,1,0,0:0:0:0:
265,98,71070,1,8,0:0:0:0:
256,94,71223,1,8,0:0:0:0:
256,95,71376,1,8,0:0:0:0:
256,94,71529,1,0,0:0:0:0:
256,94,71682,1,8,0:0:0:0:
257,98,71835,1,0,0:0:0:0:
256,67,71988,1,4,0:0:0:0:
258,71,72294,1,8,0:0:0:0:
258,72,72447,1,0,0:0:0:0:
247,77,72600,1,8,0:0:0:0:
256,67,72906,1,0,0:0:0:0:
271,76,73059,1,0,0:0:0:0:
271,77,73136,1,0,0:0:0:0:
271,76,73212,1,8,0:0:0:0:
271,76,73365,1,0,0:0:0:0:
269,76,73442,1,8,0:0:0:0:
269,76,73519,1,8,0:0:0:0:
269,76,73672,1,0,0:0:0:0:
269,76,73825,1,8,0:0:0:0:
281,82,74029,1,0,0:0:0:0:
280,82,74233,1,8,0:0:0:0:
276,83,74437,1,4,0:0:0:0:
287,104,74743,1,8,0:0:0:0:
289,103,74896,1,0,0:0:0:0:
289,103,75049,1,8,0:0:0:0:
283,101,75355,1,8,0:0:0:0:
284,93,75406,1,8,0:0:0:0:
284,94,75457,1,8,0:0:0:0:
284,94,75508,1,8,0:0:0:0:
284,94,75559,1,8,0:0:0:0:
284,94,75610,1,8,0:0:0:0:
284,94,75661,1,0,0:0:0:0:
290,95,75814,1,8,0:0:0:0:
290,93,75865,1,0,0:0:0:0:
290,93,75916,1,0,0:0:0:0:
290,93,75968,1,8,0:0:0:0:
303,80,76121,1,0,0:0:0:0:
303,82,76172,1,0,0:0:0:0:
300,83,76223,1,8,0:0:0:0:
299,81,76274,1,8,0:0:0:0:
293,103,76376,1,0,0:0:0:0:
298,83,76478,1,8,0:0:0:0:
298,83,76580,1,0,0:0:0:0:
293,101,76682,1,8,0:0:0:0:
293,101,76784,1,0,0:0:0:0:
290,93,76886,1,8,0:0:0:0:
287,88,77498,1,0,0:0:0:0:
287,88,77804,1,8,0:0:0:0:
287,88,77957,1,8,0:0:0:0:
287,88,78110,1,0,0:0:0:0:
292,92,78416,1,0,0:0:0:0:
292,92,78570,1,8,0:0:0:0:
287,88,78723,1,8,0:0:0:0:
287,88,78927,1,0,0:0:0:0:
287,88,79131,1,8,0:0:0:0:
282,89,79335,1,0,0:0:0:0:
277,88,80559,1,8,0:0:0:0:
286,95,80636,1,8,0:0:0:0:
286,95,80712,1,0,0:0:0:0:
284,94,80763,1,0,0:0:0:0:
284,94,80814,1,0,0:0:0:0:
284,94,80865,1,8,0:0:0:0:
293,88,80942,1,8,0:0:0:0:
293,88,81019,1,0,0:0:0:0:
293,88,81095,1,0,0:0:0:0:
289,88,81172,1,8,0:0:0:0:
289,88,81248,1,0,0:0:0:0:
289,88,81325,1,8,0:0:0:0:
284,86,81401,1,8,0:0:0:0:
284,86,81478,1,0,0:0:0:0:
285,86,81554,1,0,0:0:0:0:
285,86,81631,1,8,0:0:0:0:
284,86,81707,1,8,0:0:0:0:
292,103,81784,1,0,0:0:0:0:
306,110,81860,1,0,0:0:0:0:
305,110,81937,1,8,0:0:0:0:
305,109,82013,1,0,0:0:0:0:
304,110,82090,1,8,0:0:0:0:
293,93,82166,1,8,0:0:0:0:
293,93,82243,1,0,0:0:0:0:
293,93,82320,1,0,0:0:0:0:
293,93,82396,1,8,0:0:0:0:
293,93,82473,1,0,0:0:0:0:
293,93,82549,1,8,0:0:0:0:
292,93,82626,1,8,0:0:0:0:
292,93,82702,1,0,0:0:0:0:
298,99,82779,1,8,0:0:0:0:
296,98,82855,1,0,0:0:0:0:
293,98,82932,1,0,0:0:0:0:
291,93,83008,1,8,0:0:0:0:
294,90,83085,1,0,0:0:0:0:
289,85,83161,1,8,0:0:0:0:
293,93,83238,1,8,0:0:0:0:
293,93,83314,1,0,0:0:0:0:
281,88,83391,1,0,0:0:0:0:
305,92,83468,1,8,0:0:0:0:
306,77,83544,1,0,0:0:0:0:
296,81,83621,1,8,0:0:0:0:
295,80,83774,1,0,0:0:0:0:
296,80,83927,1,8,0:0:0:0:
296,80,84233,1,0,0:0:0:0:
304,85,84309,1,0,0:0:0:0:
304,85,84386,1,8,0:0:0:0:
305,92,84462,1,0,0:0:0:0:
304,85,84539,1,8,0:0:0:0:
303,84,84615,1,8,0:0:0:0:
295,80,84692,1,0,0:0:0:0:
295,80,84769,1,0,0:0:0:0:
296,80,84845,1,8,0:0:0:0:
296,80,84922,1,0,0:0:0:0:
296,80,84998,1,8,0:0:0:0:
296,80,85075,1,8,0:0:0:0:
296,80,85151,1,0,0:0:0:0:
296,80,85228,1,0,0:0:0:0:
291,83,85304,1,8,0:0:0:0:
291,83,85381,1,8,0:0:0:0:
291,83,85457,1,0,0:0:0:0:
291,83,85534,1,8,0:0:0:0:
291,83,85610,1,0,0:0:0:0:
307,83,85687,1,0,0:0:0:0:
307,83,85763,1,8,0:0:0:0:
296,80,85916,1,8,0:0:0:0:
296,80,85993,1,8,0:0:0:0:
296,80,86070,1,0,0:0:0:0:
296,80,86223,1,0,0:0:0:0:
294,76,86376,1,8,0:0:0:0:
294,76,86529,1,8,0:0:0:0:
294,76,86605,1,8,0:0:0:0:
292,103,86682,1,0,0:0:0:0:
306,110,86758,1,0,0:0:0:0:
305,110,86835,1,8,0:0:0:0:
305,109,86911,1,0,0:0:0:0:
304,110,86988,1,8,0:0:0:0:
293,93,87064,1,8,0:0:0:0:
293,93,87141,1,0,0:0:0:0:
293,93,87218,1,0,0:0:0:0:
293,93,87294,1,8,0:0:0:0:
293,93,87371,1,0,0:0:0:0:
293,93,87447,1,8,0:0:0:0:
292,93,87524,1,8,0:0:0:0:
292,93,87600,1,0,0:0:0:0:
298,99,87677,1,8,0:0:0:0:
296,98,87753,1,0,0:0:0:0:
296,98,87830,1,0,0:0:0:0:
291,93,87906,1,8,0:0:0:0:
294,90,87983,1,0,0:0:0:0:
289,85,88059,1,8,0:0:0:0:
293,93,88136,1,0,0:0:0:0:
293,93,88212,1,8,0:0:0:0:
281,88,88289,1,8,0:0:0:0:
305,92,88365,1,0,0:0:0:0:
306,77,88442,1,0,0:0:0:0:
296,81,88519,1,8,0:0:0:0:
305,93,88672,1,0,0:0:0:0:
305,93,88825,1,8,0:0:0:0:
316,91,88901,1,8,0:0:0:0:
316,91,88978,1,8,0:0:0:0:
316,91,89054,1,8,0:0:0:0:
295,83,89131,1,0,0:0:0:0:
310,76,89207,1,0,0:0:0:0:
310,76,89284,1,8,0:0:0:0:
310,76,89360,1,8,0:0:0:0:
306,77,89437,1,8,0:0:0:0:
310,76,89513,1,8,0:0:0:0:
313,89,89590,1,0,0:0:0:0:
313,89,89666,1,0,0:0:0:0:
313,89,89743,1,8,0:0:0:0:
313,89,89820,1,8,0:0:0:0:
316,91,89896,1,8,0:0:0:0:
316,91,89973,1,8,0:0:0:0:
309,77,90049,1,0,0:0:0:0:
309,77,90126,1,0,0:0:0:0:
310,76,90202,1,8,0:0:0:0:
310,76,90279,1,8,0:0:0:0:
310,76,90355,1,0,0:0:0:0:
306,77,90432,1,0,0:0:0:0:
318,90,90508,1,8,0:0:0:0:
313,89,90559,1,8,0:0:0:0:
329,99,90610,1,0,0:0:0:0:
329,99,90661,1,0,0:0:0:0:
326,78,90738,1,8,0:0:0:0:
326,78,90814,1,0,0:0:0:0:
326,78,90891,1,8,0:0:0:0:
326,78,90968,1,0,0:0:0:0:
327,78,91121,1,0,0:0:0:0:
327,78,91274,1,8,0:0:0:0:
321,79,91427,1,8,0:0:0:0:
309,116,91580,1,0,0:0:0:0:
309,116,91656,1,0,0:0:0:0:
309,116,91733,1,8,0:0:0:0:
309,116,91809,1,0,0:0:0:0:
309,116,91886,1,8,0:0:0:0:
309,116,91962,1,8,0:0:0:0:
309,116,92039,1,0,0:0:0:0:
309,113,92115,1,0,0:0:0:0:
309,113,92192,1,8,0:0:0:0:
309,113,92269,1,0,0:0:0:0:
309,113,92345,1,8,0:0:0:0:
309,113,92422,1,8,0:0:0:0:
309,116,92498,1,0,0:0:0:0:
316,97,92575,1,8,0:0:0:0:
316,97,92651,1,0,0:0:0:0:
316,97,92728,1,0,0:0:0:0:
316,97,92804,1,8,0:0:0:0:
317,97,92881,1,0,0:0:0:0:
317,96,92957,1,8,0:0:0:0:
317,96,93034,1,8,0:0:0:0:
317,96,93110,1,0,0:0:0:0:
317,96,93187,1,0,0:0:0:0:
306,93,93263,1,8,0:0:0:0:
306,93,93340,1,0,0:0:0:0:
306,93,93416,1,8,0:0:0:0:
315,85,93570,1,0,0:0:0:0:
315,86,93723,1,8,0:0:0:0:
315,86,93876,1,8,0:0:0:0:
315,86,93952,1,8,0:0:0:0:
322,87,94029,1,0,0:0:0:0:
323,88,94105,1,0,0:0:0:0:
323,88,94182,1,8,0:0:0:0:
323,88,94258,1,0,0:0:0:0:
323,88,94335,1,8,0:0:0:0:
323,88,94411,1,8,0:0:0:0:
323,88,94488,1,0,0:0:0:0:
323,88,94564,1,0,0:0:0:0:
323,88,94641,1,8,0:0:0:0:
323,88,94718,1,0,0:0:0:0:
323,88,94794,1,8,0:0:0:0:
323,88,94871,1,8,0:0:0:0:
323,88,94947,1,0,0:0:0:0:
322,87,95024,1,0,0:0:0:0:
323,88,95100,1,8,0:0:0:0:
323,88,95177,1,8,0:0:0:0:
323,88,95253,1,0,0:0:0:0:
323,88,95304,1,0,0:0:0:0:
323,88,95355,1,0,0:0:0:0:
323,88,95406,1,8,0:0:0:0:
327,94,95483,1,0,0:0:0:0:
327,94,95559,1,8,0:0:0:0:
337,86,95712,1,8,0:0:0:0:
337,86,95789,1,8,0:0:0:0:
337,86,95865,1,0,0:0:0:0:
337,86,96019,1,8,0:0:0:0:
337,86,96172,1,0,0:0:0:0:
338,86,96325,1,8,0:0:0:0:
338,86,96401,1,8,0:0:0:0:
338,86,96478,1,0,0:0:0:0:
321,145,96554,1,0,0:0:0:0:
308,143,96631,1,0,0:0:0:0:
307,143,96707,1,0,0:0:0:0:
307,142,96784,1,8,0:0:0:0:
307,142,96860,1,8,0:0:0:0:
307,142,96937,1,0,0:0:0:0:
307,142,97013,1,0,0:0:0:0:
307,142,97090,1,8,0:0:0:0:
307,142,97166,1,0,0:0:0:0:
307,142,97243,1,8,0:0:0:0:
307,142,97320,1,8,0:0:0:0:
307,142,97396,1,0,0:0:0:0:
317,133,97473,1,0,0:0:0:0:
307,142,97549,1,8,0:0:0:0:
308,143,97626,1,8,0:0:0:0:
317,133,97702,1,0,0:0:0:0:
307,142,97779,1,0,0:0:0:0:
307,142,97855,1,8,0:0:0:0:
305,126,97932,1,8,0:0:0:0:
305,126,98008,1,0,0:0:0:0:
286,124,98161,1,0,0:0:0:0:
304,127,98212,1,0,0:0:0:0:
304,127,98263,1,8,0:0:0:0:
304,128,98314,1,8,0:0:0:0:
318,125,98468,1,8,0:0:0:0:
317,124,98621,1,0,0:0:0:0:
317,124,98774,1,0,0:0:0:0:
329,130,98927,1,8,0:0:0:0:
320,116,98978,1,8,0:0:0:0:
321,116,99029,1,0,0:0:0:0:
321,116,99080,1,0,0:0:0:0:
334,113,99156,1,8,0:0:0:0:
328,117,99233,1,0,0:0:0:0:
327,114,99284,1,0,0:0:0:0:
327,114,99335,1,8,0:0:0:0:
327,114,99386,1,8,0:0:0:0:
316,109,99462,1,0,0:0:0:0:
316,110,99539,1,8,0:0:0:0:
331,116,99590,1,8,0:0:0:0:
331,116,99641,1,8,0:0:0:0:
331,116,99692,1,0,0:0:0:0:
336,111,99769,1,0,0:0:0:0:
334,112,99845,1,8,0:0:0:0:
334,112,99922,1,8,0:0:0:0:
334,112,99998,1,0,0:0:0:0:
334,112,100075,1,0,0:0:0:0:
334,113,100151,1,8,0:0:0:0:
328,117,100228,1,8,0:0:0:0:
327,114,100304,1,0,0:0:0:0:
327,101,100355,1,8,0:0:0:0:
327,101,100406,1,8,0:0:0:0:
327,101,100457,1,0,0:0:0:0:
332,108,100534,1,8,0:0:0:0:
332,108,100610,1,0,0:0:0:0:
332,108,100687,1,0,0:0:0:0:
328,104,100763,1,8,0:0:0:0:
328,104,100840,1,8,0:0:0:0:
328,104,100916,1,0,0:0:0:0:
328,104,100993,1,0,0:0:0:0:
328,104,101070,1,8,0:0:0:0:
341,94,101146,1,0,0:0:0:0:
341,95,101223,1,0,0:0:0:0:
356,117,101299,1,8,0:0:0:0:
341,94,101376,1,0,0:0:0:0:
353,113,101452,1,0,0:0:0:0:
353,113,101529,1,8,0:0:0:0:
353,113,101605,1,0,0:0:0:0:
353,113,101682,1,8,0:0:0:0:
353,113,101758,1,8,0:0:0:0:
353,114,101835,1,0,0:0:0:0:
353,114,101911,1,0,0:0:0:0:
353,114,101988,1,8,0:0:0:0:
353,115,102064,1,0,0:0:0:0:
353,115,102141,1,8,0:0:0:0:
353,115,102218,1,8,0:0:0:0:
353,115,102294,1,0,0:0:0:0:
353,115,102371,1,0,0:0:0:0:
353,113,102447,1,8,0:0:0:0:
353,113,102524,1,0,0:0:0:0:
363,113,102600,1,8,0:0:0:0:
353,113,102677,1,0,0:0:0:0:
344,110,102753,1,8,0:0:0:0:
345,111,102830,1,8,0:0:0:0:
334,110,102906,1,0,0:0:0:0:
335,108,102983,1,0,0:0:0:0:
333,107,103059,1,8,0:0:0:0:
316,127,103110,1,0,0:0:0:0:
317,127,103161,1,0,0:0:0:0:
317,127,103212,1,8,0:0:0:0:
341,107,103365,1,0,0:0:0:0:
329,118,103519,1,8,0:0:0:0:
336,114,103672,1,8,0:0:0:0:
336,114,103748,1,8,0:0:0:0:
336,114,103825,1,0,0:0:0:0:
326,109,103901,1,0,0:0:0:0:
325,109,103978,1,8,0:0:0:0:
325,110,104054,1,0,0:0:0:0:
325,109,104131,1,8,0:0:0:0:
325,109,104207,1,8,0:0:0:0:
325,109,104284,1,0,0:0:0:0:
326,109,104360,1,0,0:0:0:0:
326,109,104437,1,8,0:0:0:0:
324,109,104513,1,0,0:0:0:0:
324,108,104590,1,8,0:0:0:0:
324,108,104666,1,8,0:0:0:0:
324,108,104743,1,0,0:0:0:0:
324,108,104820,1,0,0:0:0:0:
326,109,104896,1,8,0:0:0:0:
334,102,104973,1,0,0:0:0:0:
331,106,105126,1,8,0:0:0:0:
325,109,105202,1,0,0:0:0:0:
325,109,105253,1,0,0:0:0:0:
313,118,105304,1,8,0:0:0:0:
331,95,105355,1,8,0:0:0:0:
328,92,105432,1,0,0:0:0:0:
331,107,105508,1,8,0:0:0:0:
324,108,105585,1,0,0:0:0:0:
331,107,105661,1,8,0:0:0:0:
329,112,105738,1,8,0:0:0:0:
324,108,105814,1,0,0:0:0:0:
326,109,105891,1,0,0:0:0:0:
329,112,105968,1,8,0:0:0:0:
331,106,106044,1,8,0:0:0:0:
331,106,106121,1,8,0:0:0:0:
325,109,106197,1,8,0:0:0:0:
335,115,106580,1,12,0:0:0:0:
337,104,106733,1,8,0:0:0:0:
337,104,106809,1,8,0:0:0:0:
335,115,106886,1,4,0:0:0:0:
337,103,107039,1,8,0:0:0:0:
337,103,107115,1,8,0:0:0:0:
335,115,107192,1,4,0:0:0:0:
344,110,107651,1,8,0:0:0:0:
343,110,107804,1,8,0:0:0:0:
343,110,107957,1,0,0:0:0:0:
340,103,108008,1,0,0:0:0:0:
340,103,108059,1,8,0:0:0:0:
341,104,108110,1,8,0:0:0:0:
339,104,108263,1,0,0:0:0:0:
340,104,108416,1,8,0:0:0:0:
344,110,108493,1,8,0:0:0:0:
344,110,108570,1,8,0:0:0:0:
351,127,108723,1,0,0:0:0:0:
351,127,108799,1,0,0:0:0:0:
351,126,108876,1,8,0:0:0:0:
351,126,108952,1,0,0:0:0:0:
350,125,109029,1,8,0:0:0:0:
351,125,109105,1,8,0:0:0:0:
351,125,109182,1,0,0:0:0:0:
351,126,109258,1,0,0:0:0:0:
351,126,109335,1,8,0:0:0:0:
351,126,109411,1,0,0:0:0:0:
350,126,109488,1,8,0:0:0:0:
350,126,109564,1,8,0:0:0:0:
351,127,109641,1,0,0:0:0:0:
351,127,109718,1,8,0:0:0:0:
351,127,109794,1,0,0:0:0:0:
351,126,109871,1,0,0:0:0:0:
349,117,109947,1,8,0:0:0:0:
346,114,110100,1,8,0:0:0:0:
346,118,110253,1,0,0:0:0:0:
346,118,110304,1,0,0:0:0:0:
346,117,110355,1,8,0:0:0:0:
346,117,110406,1,8,0:0:0:0:
344,119,110457,1,0,0:0:0:0:
344,119,110508,1,0,0:0:0:0:
344,119,110559,1,8,0:0:0:0:
363,132,110712,1,0,0:0:0:0:
362,132,110865,1,8,0:0:0:0:
362,132,111019,1,8,0:0:0:0:
305,131,111478,1,12,0:0:0:0:
336,106,111631,1,0,0:0:0:0:
336,106,111707,1,8,0:0:0:0:
305,131,111784,1,4,0:0:0:0:
336,106,111937,1,8,0:0:0:0:
336,106,112013,1,0,0:0:0:0:
305,131,112090,1,12,0:0:0:0:
311,114,112243,1,8,0:0:0:0:
311,113,112320,1,8,0:0:0:0:
311,113,112396,1,4,0:0:0:0:
289,161,112702,1,8,0:0:0:0:
289,162,112855,1,0,0:0:0:0:
326,141,112932,1,0,0:0:0:0:
326,141,113008,1,8,0:0:0:0:
326,141,113161,1,0,0:0:0:0:
326,141,113314,1,8,0:0:0:0:
328,131,113468,1,8,0:0:0:0:
328,131,113621,1,0,0:0:0:0:
326,141,113672,1,8,0:0:0:0:
334,131,113723,1,8,0:0:0:0:
334,131,113774,1,0,0:0:0:0:
326,141,113850,1,8,0:0:0:0:
326,141,113927,1,8,0:0:0:0:
320,127,114003,1,0,0:0:0:0:
320,127,114080,1,8,0:0:0:0:
331,129,114131,1,0,0:0:0:0:
331,129,114182,1,0,0:0:0:0:
336,148,114233,1,8,0:0:0:0:
319,114,114309,1,0,0:0:0:0:
321,116,114386,1,0,0:0:0:0:
321,116,114462,1,8,0:0:0:0:
324,120,114539,1,0,0:0:0:0:
324,120,114590,1,0,0:0:0:0:
326,121,114641,1,8,0:0:0:0:
326,121,114692,1,8,0:0:0:0:
339,106,114769,1,0,0:0:0:0:
339,107,114845,1,0,0:0:0:0:
341,106,114922,1,8,0:0:0:0:
345,116,114998,1,0,0:0:0:0:
340,118,115049,1,8,0:0:0:0:
340,118,115100,1,0,0:0:0:0:
340,118,115151,1,8,0:0:0:0:
336,106,115228,1,0,0:0:0:0:
336,106,115304,1,0,0:0:0:0:
336,105,115381,1,0,0:0:0:0:
336,104,115457,1,8,0:0:0:0:
336,104,115534,1,0,0:0:0:0:
336,104,115610,1,8,0:0:0:0:
336,104,115687,1,0,0:0:0:0:
339,106,115763,1,8,0:0:0:0:
339,107,115840,1,8,0:0:0:0:
341,106,115916,1,0,0:0:0:0:
335,107,115993,1,0,0:0:0:0:
335,107,116070,1,12,0:0:0:0:
330,102,116223,1,0,0:0:0:0:
336,106,116299,1,0,0:0:0:0:
336,105,116376,1,8,0:0:0:0:
336,104,116452,1,8,0:0:0:0:
336,104,116529,1,0,0:0:0:0:
336,104,116605,1,0,0:0:0:0:
336,104,116682,1,8,0:0:0:0:
329,102,116758,1,0,0:0:0:0:
329,102,116835,1,8,0:0:0:0:
329,102,116911,1,8,0:0:0:0:
328,102,116988,1,0,0:0:0:0:
328,102,117064,1,0,0:0:0:0:
330,102,117141,1,8,0:0:0:0:
331,114,117447,1,8,0:0:0:0:
331,114,117600,1,0,0:0:0:0:
331,114,117753,1,0,0:0:0:0:
354,97,117804,1,0,0:0:0:0:
351,98,117855,1,8,0:0:0:0:
351,98,117906,1,8,0:0:0:0:
328,102,118059,1,0,0:0:0:0:
332,98,118212,1,8,0:0:0:0:
332,98,118289,1,8,0:0:0:0:
332,98,118365,1,8,0:0:0:0:
332,98,118519,1,12,0:0:0:0:
334,98,118672,1,0,0:0:0:0:
334,98,118748,1,0,0:0:0:0:
336,98,118825,1,8,0:0:0:0:
336,98,118901,1,0,0:0:0:0:
336,97,118978,1,0,0:0:0:0:
336,97,119054,1,0,0:0:0:0:
332,98,119131,1,8,0:0:0:0:
336,92,119284,1,0,0:0:0:0:
336,92,119437,1,0,0:0:0:0:
334,98,119590,1,12,0:0:0:0:
256,192,119743,12,0,122192,0:0:0:0:
