osu file format v14

[General]
AudioFilename: audio.mp3
AudioLeadIn: 0
PreviewTime: 82063
Countdown: 0
SampleSet: Normal
StackLeniency: 0.7
Mode: 1
LetterboxInBreaks: 0
WidescreenStoryboard: 1

[Editor]
Bookmarks: 1247,11042,20838,40430,42879,62471,72267,77165,82063,119869,122471,129818
DistanceSpacing: 1
BeatDivisor: 4
GridSize: 32
TimelineZoom: 3.199999

[Metadata]
Title:Egret and Willow
TitleUnicode:Egret and Willow
Artist:Dirty Androids
ArtistUnicode:Dirty Androids
Creator:MMzz
Version:Oni
Source:beatmania IIDX 24 SINOBUZ
Tags:FUTURE BEATS
BeatmapID:1413150
BeatmapSetID:667377

[Difficulty]
HPDrainRate:5
CircleSize:5
OverallDifficulty:6
ApproachRate:5
SliderMultiplier:1.4
SliderTickRate:1

[Events]
//Background and Video events
0,0,"feesh.jpg",-2,-23
//Break Periods
//Storyboard Layer 0 (Background)
//Storyboard Layer 1 (Fail)
//Storyboard Layer 2 (Pass)
//Storyboard Layer 3 (Foreground)
//Storyboard Sound Samples

[TimingPoints]
1247,306.122448979592,4,1,0,40,1,0
1247,-142.857142857143,4,1,0,40,0,0
10736,-117.647058823529,4,1,0,70,0,0
11042,-117.647058823529,4,1,0,70,0,0
20838,-100,4,1,0,80,0,1
24206,-100,4,1,0,80,0,0
25736,-100,4,1,0,80,0,1
34002,-100,4,1,0,80,0,0
35532,-100,4,1,0,80,0,1
40430,-100,4,1,0,80,0,0
77777,-105.263157894737,4,1,0,80,0,0
78389,-111.111111111111,4,1,0,80,0,0
79002,-117.647058823529,4,1,0,80,0,0
79614,-125,4,1,0,80,0,0
80838,-100,4,1,0,80,0,0
82063,-100,4,1,0,80,0,1
85430,-100,4,1,0,80,0,0
86961,-100,4,1,0,80,0,1
95226,-100,4,1,0,80,0,0
96757,-100,4,1,0,80,0,1
105022,-100,4,1,0,80,0,0
106859,-100,4,1,0,80,0,1
111451,-100,4,1,0,80,0,0
111757,-100,4,1,0,80,0,1
119869,-100,4,1,0,80,0,0

[HitObjects]
224,192,1247,5,8,0:0:0:0:
224,192,2471,1,0,0:0:0:0:
224,192,3695,1,8,0:0:0:0:
224,192,4920,1,0,0:0:0:0:
224,192,5226,1,0,0:0:0:0:
192,160,6144,1,8,0:0:0:0:
192,160,7369,1,0,0:0:0:0:
192,160,7981,1,0,0:0:0:0:
192,160,8593,1,8,0:0:0:0:
192,160,9818,1,0,0:0:0:0:
192,160,10736,1,0,0:0:0:0:
256,128,10813,1,0,0:0:0:0:
256,128,10889,1,0,0:0:0:0:
256,128,10966,1,0,0:0:0:0:
256,128,11042,1,0,0:0:0:0:
192,128,11502,1,0,0:0:0:0:
192,128,11655,1,8,0:0:0:0:
192,128,11961,1,0,0:0:0:0:
192,128,12573,1,0,0:0:0:0:
192,128,12879,1,8,0:0:0:0:
192,128,13185,1,0,0:0:0:0:
192,128,13338,1,0,0:0:0:0:
192,128,13491,1,0,0:0:0:0:
192,128,13951,1,0,0:0:0:0:
192,128,14104,1,8,0:0:0:0:
192,128,14410,1,0,0:0:0:0:
192,128,15022,1,0,0:0:0:0:
192,128,15328,1,8,0:0:0:0:
192,128,15634,1,8,0:0:0:0:
192,128,15787,1,8,0:0:0:0:
192,128,15940,1,0,0:0:0:0:
192,128,16400,1,0,0:0:0:0:
192,128,16553,1,8,0:0:0:0:
192,160,16859,1,0,0:0:0:0:
192,160,17471,1,0,0:0:0:0:
192,160,17777,1,8,0:0:0:0:
256,192,18389,12,12,19920,0:0:0:0:
192,96,20226,5,12,0:0:0:0:
288,160,20838,1,4,0:0:0:0:
160,192,20991,1,0,0:0:0:0:
160,160,21068,1,0,0:0:0:0:
160,192,21144,1,8,0:0:0:0:
288,160,21298,1,0,0:0:0:0:
192,192,21451,1,8,0:0:0:0:
160,160,21604,1,8,0:0:0:0:
288,160,21757,1,0,0:0:0:0:
160,160,21910,1,8,0:0:0:0:
320,160,22063,1,0,0:0:0:0:
288,160,22139,1,0,0:0:0:0:
288,160,22216,1,8,0:0:0:0:
288,160,22292,1,8,0:0:0:0:
288,160,22369,1,0,0:0:0:0:
288,160,22522,1,0,0:0:0:0:
288,160,22675,1,8,0:0:0:0:
288,160,22981,1,8,0:0:0:0:
288,160,23287,1,4,0:0:0:0:
192,128,23440,1,8,0:0:0:0:
192,128,23517,1,8,0:0:0:0:
256,160,23593,1,8,0:0:0:0:
128,160,23747,1,0,0:0:0:0:
128,160,23900,1,8,0:0:0:0:
128,160,24053,1,0,0:0:0:0:
128,160,24206,1,4,0:0:0:0:
192,160,24665,1,8,0:0:0:0:
192,160,24818,1,0,0:0:0:0:
160,160,24894,1,0,0:0:0:0:
192,160,24971,1,0,0:0:0:0:
192,160,25048,1,8,0:0:0:0:
192,160,25124,1,0,0:0:0:0:
128,160,25277,1,0,0:0:0:0:
128,160,25430,1,8,0:0:0:0:
128,160,25583,1,8,0:0:0:0:
128,160,25736,1,4,0:0:0:0:
256,160,25889,1,0,0:0:0:0:
256,160,25966,1,0,0:0:0:0:
256,96,26042,1,8,0:0:0:0:
256,96,26195,1,0,0:0:0:0:
256,96,26349,1,8,0:0:0:0:
256,96,26502,1,0,0:0:0:0:
256,96,26655,1,0,0:0:0:0:
256,96,26808,1,8,0:0:0:0:
256,96,26961,1,0,0:0:0:0:
256,96,27037,1,0,0:0:0:0:
256,96,27114,1,8,0:0:0:0:
256,96,27190,1,8,0:0:0:0:
256,96,27267,1,0,0:0:0:0:
256,96,27420,1,0,0:0:0:0:
256,96,27573,1,8,0:0:0:0:
128,160,27726,1,0,0:0:0:0:
128,160,27879,1,8,0:0:0:0:
160,64,27956,1,8,0:0:0:0:
128,160,28032,1,8,0:0:0:0:
128,160,28109,1,8,0:0:0:0:
128,160,28185,1,0,0:0:0:0:
224,128,28338,1,0,0:0:0:0:
224,128,28491,1,8,0:0:0:0:
224,128,28644,1,0,0:0:0:0:
224,128,28798,1,8,0:0:0:0:
224,128,28874,1,8,0:0:0:0:
224,128,28951,1,8,0:0:0:0:
224,128,29104,1,0,0:0:0:0:
224,96,29257,1,0,0:0:0:0:
192,96,29410,1,8,0:0:0:0:
192,96,29563,1,0,0:0:0:0:
192,96,29716,1,8,0:0:0:0:
192,96,29792,1,8,0:0:0:0:
192,96,29869,1,8,0:0:0:0:
256,96,30022,1,0,0:0:0:0:
256,96,30175,1,8,0:0:0:0:
256,96,30252,1,8,0:0:0:0:
256,96,30328,1,0,0:0:0:0:
256,96,30481,1,8,0:0:0:0:
256,96,30634,1,4,0:0:0:0:
160,128,30940,1,8,0:0:0:0:
160,128,31093,1,0,0:0:0:0:
128,128,31170,1,0,0:0:0:0:
160,128,31247,1,8,0:0:0:0:
160,128,31400,1,0,0:0:0:0:
160,128,31553,1,0,0:0:0:0:
128,128,31706,1,8,0:0:0:0:
128,128,31859,1,0,0:0:0:0:
128,128,31935,1,0,0:0:0:0:
128,128,32012,1,8,0:0:0:0:
128,128,32088,1,8,0:0:0:0:
128,128,32165,1,0,0:0:0:0:
128,128,32318,1,0,0:0:0:0:
128,128,32471,1,8,0:0:0:0:
128,128,32777,1,8,0:0:0:0:
128,128,32930,1,8,0:0:0:0:
128,128,33083,1,4,0:0:0:0:
128,128,33236,1,8,0:0:0:0:
128,128,33313,1,8,0:0:0:0:
128,128,33389,1,8,0:0:0:0:
128,128,33542,1,0,0:0:0:0:
128,128,33695,1,8,0:0:0:0:
128,128,33849,1,0,0:0:0:0:
128,128,34002,1,4,0:0:0:0:
128,128,34461,1,8,0:0:0:0:
160,96,34614,1,0,0:0:0:0:
160,96,34690,1,0,0:0:0:0:
160,96,34767,1,0,0:0:0:0:
160,96,34843,1,8,0:0:0:0:
160,96,34920,1,0,0:0:0:0:
160,96,35073,1,0,0:0:0:0:
160,96,35226,1,8,0:0:0:0:
160,96,35379,1,8,0:0:0:0:
160,96,35532,1,4,0:0:0:0:
192,96,35838,1,8,0:0:0:0:
192,96,35991,1,0,0:0:0:0:
192,96,36144,1,8,0:0:0:0:
192,96,36298,1,8,0:0:0:0:
192,96,36451,1,0,0:0:0:0:
192,96,36604,1,0,0:0:0:0:
192,96,36910,5,8,0:0:0:0:
192,96,37063,1,0,0:0:0:0:
192,96,37216,1,0,0:0:0:0:
192,96,37292,1,0,0:0:0:0:
192,96,37369,1,8,0:0:0:0:
192,96,37522,1,0,0:0:0:0:
192,96,37675,1,8,0:0:0:0:
192,96,37828,1,8,0:0:0:0:
160,128,37981,5,0,0:0:0:0:
160,128,38058,1,0,0:0:0:0:
160,128,38134,1,8,0:0:0:0:
160,128,38287,1,0,0:0:0:0:
160,128,38364,1,0,0:0:0:0:
160,128,38440,1,8,0:0:0:0:
160,128,38593,1,8,0:0:0:0:
160,128,38747,1,0,0:0:0:0:
160,128,38823,1,8,0:0:0:0:
160,128,38900,1,0,0:0:0:0:
160,128,39053,1,0,0:0:0:0:
160,160,39359,1,8,0:0:0:0:
160,160,39435,1,8,0:0:0:0:
160,160,39512,1,0,0:0:0:0:
160,160,39665,1,0,0:0:0:0:
160,160,39818,1,8,0:0:0:0:
160,160,39894,1,8,0:0:0:0:
160,160,39971,1,0,0:0:0:0:
160,160,40048,1,0,0:0:0:0:
160,160,40124,1,8,0:0:0:0:
128,160,40201,1,8,0:0:0:0:
128,160,40277,1,8,0:0:0:0:
128,160,40354,1,8,0:0:0:0:
128,160,40430,1,0,0:0:0:0:
256,192,40583,12,0,42573,0:0:0:0:
160,192,42879,5,4,0:0:0:0:
128,160,43109,1,0,0:0:0:0:
128,160,43338,1,0,0:0:0:0:
128,160,43491,1,8,0:0:0:0:
160,160,43798,1,8,0:0:0:0:
160,160,43951,1,8,0:0:0:0:
160,160,44257,1,8,0:0:0:0:
160,160,44410,1,0,0:0:0:0:
192,128,44563,1,0,0:0:0:0:
192,128,44639,1,0,0:0:0:0:
192,128,44716,1,8,0:0:0:0:
192,128,44869,1,0,0:0:0:0:
192,96,45022,1,8,0:0:0:0:
192,96,45175,1,8,0:0:0:0:
192,96,45328,1,0,0:0:0:0:
160,64,45558,1,0,0:0:0:0:
160,64,45787,1,0,0:0:0:0:
160,64,45940,1,8,0:0:0:0:
160,64,46247,1,8,0:0:0:0:
160,64,46400,1,8,0:0:0:0:
160,64,46553,1,0,0:0:0:0:
160,64,46706,1,0,0:0:0:0:
160,64,46859,1,8,0:0:0:0:
160,64,47012,1,0,0:0:0:0:
160,64,47088,1,0,0:0:0:0:
160,64,47165,1,8,0:0:0:0:
160,64,47318,1,0,0:0:0:0:
128,128,47471,1,8,0:0:0:0:
160,64,47624,1,8,0:0:0:0:
160,64,47777,1,0,0:0:0:0:
160,64,48007,1,0,0:0:0:0:
160,64,48236,1,0,0:0:0:0:
160,64,48389,1,8,0:0:0:0:
160,32,48695,1,0,0:0:0:0:
160,32,48849,1,0,0:0:0:0:
160,32,49155,1,8,0:0:0:0:
160,32,49308,1,0,0:0:0:0:
160,32,49461,1,8,0:0:0:0:
160,32,49537,1,8,0:0:0:0:
160,32,49614,1,8,0:0:0:0:
160,32,49767,1,0,0:0:0:0:
160,32,49920,1,8,0:0:0:0:
160,32,50073,1,8,0:0:0:0:
160,32,50226,1,0,0:0:0:0:
160,32,50456,1,0,0:0:0:0:
160,32,50685,1,0,0:0:0:0:
160,32,50838,1,8,0:0:0:0:
192,32,50991,1,8,0:0:0:0:
192,32,51068,1,8,0:0:0:0:
192,32,51144,1,0,0:0:0:0:
192,32,51298,1,0,0:0:0:0:
192,32,51451,1,8,0:0:0:0:
192,32,51604,1,0,0:0:0:0:
192,32,51680,1,0,0:0:0:0:
192,32,51757,1,8,0:0:0:0:
192,32,51910,1,0,0:0:0:0:
192,32,52063,1,8,0:0:0:0:
192,32,52139,1,8,0:0:0:0:
192,32,52216,1,0,0:0:0:0:
192,32,52369,1,8,0:0:0:0:
192,160,52445,1,8,0:0:0:0:
192,32,52522,1,8,0:0:0:0:
192,32,52675,1,4,0:0:0:0:
192,64,52905,1,0,0:0:0:0:
192,64,53134,1,0,0:0:0:0:
192,64,53287,1,8,0:0:0:0:
192,64,53593,1,8,0:0:0:0:
192,64,53747,1,8,0:0:0:0:
192,64,53900,1,0,0:0:0:0:
192,64,54053,1,8,0:0:0:0:
192,64,54206,1,0,0:0:0:0:
160,160,54359,1,0,0:0:0:0:
224,128,54435,1,0,0:0:0:0:
224,128,54512,1,8,0:0:0:0:
224,128,54665,1,0,0:0:0:0:
224,128,54818,1,8,0:0:0:0:
224,128,54971,1,8,0:0:0:0:
224,128,55124,1,0,0:0:0:0:
192,128,55354,1,0,0:0:0:0:
160,160,55430,1,8,0:0:0:0:
192,128,55583,1,0,0:0:0:0:
192,128,55736,1,8,0:0:0:0:
192,128,56042,1,8,0:0:0:0:
192,128,56195,1,8,0:0:0:0:
192,128,56349,1,0,0:0:0:0:
192,128,56502,1,0,0:0:0:0:
192,128,56655,1,8,0:0:0:0:
192,128,56808,1,0,0:0:0:0:
192,128,56884,1,0,0:0:0:0:
192,128,56961,1,8,0:0:0:0:
192,128,57114,1,0,0:0:0:0:
192,128,57267,1,8,0:0:0:0:
192,128,57420,1,8,0:0:0:0:
192,128,57573,1,0,0:0:0:0:
192,128,57803,1,0,0:0:0:0:
192,128,57879,1,8,0:0:0:0:
192,128,58032,1,0,0:0:0:0:
192,128,58185,1,8,0:0:0:0:
160,160,58338,1,0,0:0:0:0:
160,160,58491,1,8,0:0:0:0:
160,160,58644,1,8,0:0:0:0:
160,160,58951,1,8,0:0:0:0:
128,160,59104,1,0,0:0:0:0:
128,160,59257,1,0,0:0:0:0:
128,160,59333,1,0,0:0:0:0:
128,160,59410,1,8,0:0:0:0:
128,160,59563,1,0,0:0:0:0:
128,160,59716,1,8,0:0:0:0:
128,160,59869,1,8,0:0:0:0:
128,160,60022,1,0,0:0:0:0:
128,160,60252,1,0,0:0:0:0:
128,160,60328,1,8,0:0:0:0:
128,160,60481,1,0,0:0:0:0:
128,160,60634,1,8,0:0:0:0:
96,128,60787,1,0,0:0:0:0:
96,128,60940,1,8,0:0:0:0:
96,128,61093,1,8,0:0:0:0:
96,128,61400,1,8,0:0:0:0:
96,128,61553,1,0,0:0:0:0:
96,128,61629,1,0,0:0:0:0:
96,128,61706,1,0,0:0:0:0:
96,128,61782,1,0,0:0:0:0:
96,128,61859,1,8,0:0:0:0:
96,128,62012,1,8,0:0:0:0:
96,128,62088,1,8,0:0:0:0:
96,128,62165,1,0,0:0:0:0:
96,128,62318,1,0,0:0:0:0:
96,128,62471,1,4,0:0:0:0:
224,160,62930,1,0,0:0:0:0:
224,160,63083,1,8,0:0:0:0:
224,160,63389,1,0,0:0:0:0:
224,160,63542,1,0,0:0:0:0:
224,160,63695,1,8,0:0:0:0:
224,160,63849,1,8,0:0:0:0:
224,160,64002,1,0,0:0:0:0:
224,160,64308,1,8,0:0:0:0:
320,192,64461,1,8,0:0:0:0:
224,160,64614,1,0,0:0:0:0:
224,160,64767,1,8,0:0:0:0:
192,128,64843,1,8,0:0:0:0:
224,160,64920,1,0,0:0:0:0:
224,160,65379,1,0,0:0:0:0:
256,160,65532,1,8,0:0:0:0:
256,160,65838,1,0,0:0:0:0:
256,160,65991,1,0,0:0:0:0:
256,160,66144,1,8,0:0:0:0:
256,160,66298,1,8,0:0:0:0:
256,160,66451,1,0,0:0:0:0:
224,160,66757,1,8,0:0:0:0:
224,160,66910,1,0,0:0:0:0:
224,192,67063,1,8,0:0:0:0:
224,192,67139,1,8,0:0:0:0:
224,192,67216,1,8,0:0:0:0:
224,192,67369,1,4,0:0:0:0:
352,192,67828,1,0,0:0:0:0:
352,192,67981,1,8,0:0:0:0:
352,192,68287,1,0,0:0:0:0:
352,192,68440,1,0,0:0:0:0:
352,192,68593,1,8,0:0:0:0:
352,192,68747,1,8,0:0:0:0:
352,192,68900,1,0,0:0:0:0:
320,192,69206,1,8,0:0:0:0:
320,192,69359,1,8,0:0:0:0:
320,192,69512,1,0,0:0:0:0:
320,192,69665,1,8,0:0:0:0:
224,160,69741,1,8,0:0:0:0:
320,192,69818,1,0,0:0:0:0:
192,160,70277,1,0,0:0:0:0:
192,160,70430,1,8,0:0:0:0:
192,160,70736,1,0,0:0:0:0:
192,160,70889,1,0,0:0:0:0:
192,160,71042,1,8,0:0:0:0:
192,160,71195,1,8,0:0:0:0:
192,160,71349,1,0,0:0:0:0:
192,160,71655,1,8,0:0:0:0:
192,160,71808,1,8,0:0:0:0:
192,160,71884,1,8,0:0:0:0:
224,160,71961,1,0,0:0:0:0:
224,160,72114,1,8,0:0:0:0:
224,160,72267,1,4,0:0:0:0:
224,128,72573,1,8,0:0:0:0:
224,128,72726,1,0,0:0:0:0:
224,128,72879,1,0,0:0:0:0:
224,128,73185,1,8,0:0:0:0:
224,128,73338,1,8,0:0:0:0:
224,128,73491,1,0,0:0:0:0:
224,128,73798,1,8,0:0:0:0:
224,128,73951,1,0,0:0:0:0:
224,128,74104,1,0,0:0:0:0:
224,128,74410,1,8,0:0:0:0:
224,128,74486,1,8,0:0:0:0:
224,128,74563,1,8,0:0:0:0:
224,128,74716,1,4,0:0:0:0:
256,160,75022,1,8,0:0:0:0:
256,160,75175,1,0,0:0:0:0:
256,160,75328,1,0,0:0:0:0:
256,160,75634,1,8,0:0:0:0:
256,160,75711,1,8,0:0:0:0:
256,160,75787,1,8,0:0:0:0:
256,160,75864,1,8,0:0:0:0:
256,160,75940,1,0,0:0:0:0:
256,160,76093,1,8,0:0:0:0:
256,160,76247,1,0,0:0:0:0:
256,160,76400,1,8,0:0:0:0:
256,160,76553,1,0,0:0:0:0:
256,128,76655,1,0,0:0:0:0:
256,128,76757,1,0,0:0:0:0:
256,128,76859,1,8,0:0:0:0:
256,128,76961,1,8,0:0:0:0:
256,128,77063,1,8,0:0:0:0:
256,128,77165,1,0,0:0:0:0:
256,128,77777,1,0,0:0:0:0:
256,128,78389,1,8,0:0:0:0:
256,128,79002,1,8,0:0:0:0:
256,192,79614,12,0,80532,0:0:0:0:
320,160,80838,5,8,0:0:0:0:
288,160,80991,1,0,0:0:0:0:
288,160,81068,1,0,0:0:0:0:
288,160,81144,1,8,0:0:0:0:
288,160,81298,1,0,0:0:0:0:
256,160,81451,1,8,0:0:0:0:
256,160,81527,1,8,0:0:0:0:
256,160,81604,1,8,0:0:0:0:
256,160,81680,1,8,0:0:0:0:
256,160,81757,1,0,0:0:0:0:
256,160,81833,1,0,0:0:0:0:
256,160,81910,1,0,0:0:0:0:
288,160,82063,1,4,0:0:0:0:
160,192,82216,1,0,0:0:0:0:
160,160,82293,1,0,0:0:0:0:
160,192,82369,1,8,0:0:0:0:
288,160,82523,1,0,0:0:0:0:
192,192,82676,1,8,0:0:0:0:
160,160,82829,1,8,0:0:0:0:
288,160,82982,1,0,0:0:0:0:
160,160,83135,1,8,0:0:0:0:
320,160,83288,1,0,0:0:0:0:
288,160,83364,1,0,0:0:0:0:
288,160,83441,1,8,0:0:0:0:
288,160,83517,1,8,0:0:0:0:
288,160,83594,1,0,0:0:0:0:
288,160,83747,1,0,0:0:0:0:
288,160,83900,1,8,0:0:0:0:
288,160,84206,1,8,0:0:0:0:
288,160,84512,1,4,0:0:0:0:
192,128,84665,1,8,0:0:0:0:
192,128,84742,1,8,0:0:0:0:
256,160,84818,1,8,0:0:0:0:
128,160,84972,1,0,0:0:0:0:
128,160,85125,1,8,0:0:0:0:
128,160,85278,1,0,0:0:0:0:
128,160,85431,1,4,0:0:0:0:
192,160,85890,1,8,0:0:0:0:
192,160,86043,1,0,0:0:0:0:
160,160,86119,1,0,0:0:0:0:
192,160,86196,1,0,0:0:0:0:
192,160,86273,1,8,0:0:0:0:
192,160,86349,1,0,0:0:0:0:
128,160,86502,1,0,0:0:0:0:
128,160,86655,1,8,0:0:0:0:
128,160,86808,1,8,0:0:0:0:
128,160,86961,1,4,0:0:0:0:
256,160,87114,1,0,0:0:0:0:
256,160,87191,1,0,0:0:0:0:
256,96,87267,1,8,0:0:0:0:
256,96,87420,1,0,0:0:0:0:
256,96,87574,1,8,0:0:0:0:
256,96,87727,1,0,0:0:0:0:
256,96,87880,1,0,0:0:0:0:
256,96,88033,1,8,0:0:0:0:
256,96,88186,1,0,0:0:0:0:
256,96,88262,1,0,0:0:0:0:
256,96,88339,1,8,0:0:0:0:
256,96,88415,1,8,0:0:0:0:
256,96,88492,1,0,0:0:0:0:
256,96,88645,1,0,0:0:0:0:
256,96,88798,1,8,0:0:0:0:
128,160,88951,1,0,0:0:0:0:
128,160,89104,1,8,0:0:0:0:
160,64,89181,1,8,0:0:0:0:
128,160,89257,1,8,0:0:0:0:
128,160,89334,1,8,0:0:0:0:
128,160,89410,1,0,0:0:0:0:
224,128,89563,1,0,0:0:0:0:
224,128,89716,1,8,0:0:0:0:
224,128,89869,1,0,0:0:0:0:
224,128,90023,1,8,0:0:0:0:
224,128,90099,1,8,0:0:0:0:
224,128,90176,1,8,0:0:0:0:
224,128,90329,1,0,0:0:0:0:
224,96,90482,1,0,0:0:0:0:
192,96,90635,1,8,0:0:0:0:
192,96,90788,1,0,0:0:0:0:
192,96,90941,1,8,0:0:0:0:
192,96,91017,1,8,0:0:0:0:
192,96,91094,1,8,0:0:0:0:
256,96,91247,1,0,0:0:0:0:
256,96,91400,1,8,0:0:0:0:
256,96,91477,1,8,0:0:0:0:
256,96,91553,1,0,0:0:0:0:
256,96,91706,1,8,0:0:0:0:
256,96,91859,1,4,0:0:0:0:
160,128,92165,1,8,0:0:0:0:
160,128,92318,1,0,0:0:0:0:
128,128,92395,1,0,0:0:0:0:
160,128,92472,1,8,0:0:0:0:
160,128,92625,1,0,0:0:0:0:
160,128,92778,1,0,0:0:0:0:
128,128,92931,1,8,0:0:0:0:
128,128,93084,1,0,0:0:0:0:
128,128,93160,1,0,0:0:0:0:
128,128,93237,1,8,0:0:0:0:
128,128,93313,1,8,0:0:0:0:
128,128,93390,1,0,0:0:0:0:
128,128,93543,1,0,0:0:0:0:
128,128,93696,1,8,0:0:0:0:
128,128,94002,1,8,0:0:0:0:
128,128,94155,1,8,0:0:0:0:
128,128,94308,1,4,0:0:0:0:
128,128,94461,1,8,0:0:0:0:
128,128,94538,1,8,0:0:0:0:
128,128,94614,1,8,0:0:0:0:
128,128,94767,1,0,0:0:0:0:
128,128,94920,1,8,0:0:0:0:
128,128,95074,1,0,0:0:0:0:
128,128,95227,1,4,0:0:0:0:
288,192,95532,1,8,0:0:0:0:
192,192,95609,1,8,0:0:0:0:
160,192,95685,1,0,0:0:0:0:
192,192,95838,1,0,0:0:0:0:
192,192,95915,1,0,0:0:0:0:
192,192,95991,1,0,0:0:0:0:
192,192,96068,1,8,0:0:0:0:
288,160,96144,1,0,0:0:0:0:
160,96,96298,1,0,0:0:0:0:
160,96,96451,1,8,0:0:0:0:
160,96,96604,1,8,0:0:0:0:
160,96,96757,1,4,0:0:0:0:
256,128,96910,1,0,0:0:0:0:
256,128,96986,1,0,0:0:0:0:
192,96,97063,1,8,0:0:0:0:
192,96,97216,1,0,0:0:0:0:
192,96,97369,1,8,0:0:0:0:
192,96,97523,1,8,0:0:0:0:
256,128,97599,1,8,0:0:0:0:
192,96,97676,1,0,0:0:0:0:
192,96,97829,1,8,0:0:0:0:
192,96,98135,5,8,0:0:0:0:
192,96,98288,1,0,0:0:0:0:
256,128,98364,1,0,0:0:0:0:
192,96,98441,1,0,0:0:0:0:
192,96,98517,1,0,0:0:0:0:
192,96,98594,1,8,0:0:0:0:
192,96,98747,1,0,0:0:0:0:
192,96,98900,1,8,0:0:0:0:
192,96,99053,1,8,0:0:0:0:
160,128,99206,5,0,0:0:0:0:
160,128,99283,1,0,0:0:0:0:
160,128,99359,1,8,0:0:0:0:
160,128,99512,1,0,0:0:0:0:
160,128,99589,1,0,0:0:0:0:
160,128,99665,1,8,0:0:0:0:
160,128,99818,1,8,0:0:0:0:
160,128,99972,1,0,0:0:0:0:
160,128,100048,1,8,0:0:0:0:
160,128,100125,1,0,0:0:0:0:
160,128,100278,1,0,0:0:0:0:
160,160,100584,1,8,0:0:0:0:
160,160,100660,1,8,0:0:0:0:
160,160,100737,1,0,0:0:0:0:
160,160,100890,1,0,0:0:0:0:
160,160,101043,1,8,0:0:0:0:
160,160,101119,1,8,0:0:0:0:
160,160,101196,1,0,0:0:0:0:
160,160,101273,1,0,0:0:0:0:
160,160,101349,1,8,0:0:0:0:
128,160,101426,1,8,0:0:0:0:
128,160,101502,1,8,0:0:0:0:
128,160,101579,1,8,0:0:0:0:
128,160,101655,1,0,0:0:0:0:
224,192,101808,1,0,0:0:0:0:
224,192,101884,1,0,0:0:0:0:
224,192,101961,1,8,0:0:0:0:
224,192,102114,1,0,0:0:0:0:
224,192,102267,1,8,0:0:0:0:
224,192,102420,1,8,0:0:0:0:
224,192,102573,1,0,0:0:0:0:
224,192,102726,1,8,0:0:0:0:
288,160,102879,1,0,0:0:0:0:
288,160,102956,1,0,0:0:0:0:
288,160,103032,1,8,0:0:0:0:
288,160,103109,1,8,0:0:0:0:
288,160,103185,1,0,0:0:0:0:
288,160,103338,1,0,0:0:0:0:
288,160,103491,1,8,0:0:0:0:
256,160,103798,1,8,0:0:0:0:
224,192,103951,1,8,0:0:0:0:
224,192,104104,1,0,0:0:0:0:
256,192,104257,1,8,0:0:0:0:
256,192,104333,1,8,0:0:0:0:
256,192,104410,1,8,0:0:0:0:
256,192,104563,1,0,0:0:0:0:
256,192,104716,1,8,0:0:0:0:
256,192,104869,1,0,0:0:0:0:
256,192,105022,1,4,0:0:0:0:
256,192,105481,1,8,0:0:0:0:
256,192,105634,1,0,0:0:0:0:
256,192,105711,1,0,0:0:0:0:
256,192,105787,1,0,0:0:0:0:
256,192,105864,1,8,0:0:0:0:
256,192,105940,1,0,0:0:0:0:
256,192,106093,1,8,0:0:0:0:
256,192,106247,1,8,0:0:0:0:
256,192,106323,1,0,0:0:0:0:
256,192,106400,1,0,0:0:0:0:
256,192,106476,1,0,0:0:0:0:
256,192,106553,1,8,0:0:0:0:
192,160,106859,1,4,0:0:0:0:
192,160,107165,1,12,0:0:0:0:
192,160,107471,1,4,0:0:0:0:
192,160,107930,1,0,0:0:0:0:
192,160,108083,1,0,0:0:0:0:
192,160,108236,1,0,0:0:0:0:
192,160,108313,1,0,0:0:0:0:
192,160,108389,1,8,0:0:0:0:
192,160,108542,1,0,0:0:0:0:
192,160,108695,1,8,0:0:0:0:
192,160,108772,1,8,0:0:0:0:
192,160,108849,1,8,0:0:0:0:
224,160,108925,1,8,0:0:0:0:
224,160,109002,1,0,0:0:0:0:
224,160,109155,1,0,0:0:0:0:
224,160,109308,1,8,0:0:0:0:
224,160,109461,1,0,0:0:0:0:
224,160,109614,1,8,0:0:0:0:
224,160,109690,1,8,0:0:0:0:
224,160,109767,1,8,0:0:0:0:
224,160,109920,1,0,0:0:0:0:
224,160,110073,1,0,0:0:0:0:
224,160,110226,1,8,0:0:0:0:
224,160,110379,1,0,0:0:0:0:
224,160,110532,1,8,0:0:0:0:
224,160,110609,1,8,0:0:0:0:
224,160,110685,1,8,0:0:0:0:
224,160,110838,1,0,0:0:0:0:
224,160,110991,1,8,0:0:0:0:
224,160,111068,1,8,0:0:0:0:
224,160,111144,1,0,0:0:0:0:
224,160,111298,1,8,0:0:0:0:
224,160,111451,1,0,0:0:0:0:
224,160,111757,1,12,0:0:0:0:
224,160,112063,1,4,0:0:0:0:
224,160,112369,1,12,0:0:0:0:
224,160,112675,1,4,0:0:0:0:
320,160,112981,1,8,0:0:0:0:
320,160,113134,1,0,0:0:0:0:
320,160,113287,1,8,0:0:0:0:
320,160,113440,1,8,0:0:0:0:
320,160,113593,1,0,0:0:0:0:
320,160,113747,1,8,0:0:0:0:
320,160,113900,1,0,0:0:0:0:
288,160,114053,1,8,0:0:0:0:
288,160,114129,1,8,0:0:0:0:
288,160,114206,1,8,0:0:0:0:
288,160,114359,1,0,0:0:0:0:
288,160,114512,1,8,0:0:0:0:
288,160,114665,1,8,0:0:0:0:
288,160,114741,1,8,0:0:0:0:
288,160,114818,1,0,0:0:0:0:
288,160,114971,1,8,0:0:0:0:
224,160,115048,1,8,0:0:0:0:
288,160,115124,1,8,0:0:0:0:
224,160,115277,1,0,0:0:0:0:
224,160,115430,1,8,0:0:0:0:
224,160,115583,1,8,0:0:0:0:
224,160,115660,1,8,0:0:0:0:
224,160,115736,1,0,0:0:0:0:
224,160,115889,1,8,0:0:0:0:
224,160,116042,1,0,0:0:0:0:
224,160,116195,1,8,0:0:0:0:
224,160,116349,1,4,0:0:0:0:
160,128,116655,1,8,0:0:0:0:
160,128,116808,1,0,0:0:0:0:
160,128,116961,1,8,0:0:0:0:
160,128,117114,1,8,0:0:0:0:
160,128,117267,1,0,0:0:0:0:
160,128,117420,1,4,0:0:0:0:
128,160,117726,1,0,0:0:0:0:
128,160,117879,1,0,0:0:0:0:
128,160,118032,1,0,0:0:0:0:
128,160,118109,1,0,0:0:0:0:
128,128,118185,1,8,0:0:0:0:
128,128,118338,1,0,0:0:0:0:
128,128,118491,1,8,0:0:0:0:
128,128,118568,1,8,0:0:0:0:
128,128,118644,1,0,0:0:0:0:
128,128,118798,1,0,0:0:0:0:
224,160,118951,1,8,0:0:0:0:
224,160,119027,1,8,0:0:0:0:
224,160,119104,1,0,0:0:0:0:
224,160,119257,1,8,0:0:0:0:
224,160,119333,1,8,0:0:0:0:
224,160,119410,1,0,0:0:0:0:
224,160,119486,1,0,0:0:0:0:
224,160,119563,1,0,0:0:0:0:
224,160,119716,1,8,0:0:0:0:
256,192,119869,12,0,122471,0:0:0:0:
